Subcategories

Wilhelm Stenhammar - Symphony, Serenade, Excelsior (1995)

Posted By: niajo
Wilhelm Stenhammar - Symphony, Serenade, Excelsior (1995)

Wilhelm Stenhammar - Symphony, Serenade, Excelsior (1995)
Exact Audio Copy v0.99 prebeta 5 | Log+Cue+Flac 550mb | Covers
Gothenburg Symphony Orchestra
Neeme Jarvi
Genre: Classical


Carl Wilhelm Eugen Stenhammar (February 7, 1871 - November 20, 1927), was a Swedish composer, conductor and pianist. Stenhammar was born in Stockholm, where he received his first musical education. He then went to Berlin to further his studies in music. He became a glowing admirer of German music, particularly that of Richard Wagner and Anton Bruckner. Stenhammar himself described the style of his First Symphony in F major as "idyllic Bruckner". He subsequently sought to emancipate himself and write in a more "Nordic" style, looking to Carl Nielsen and Jean Sibelius for guidance. The latter's Symphony No. 2, especially, had a great effect on him, leading him to change his style and refuse to refer to his First Symphony as anything but a trivial piece.

From 1906 to 1922 he was Artistic Director and chief conductor of the Gothenburg Symphony, the first full-time professional orchestra in Sweden. In this capacity, he organized many performances of music by contemporary Scandinavian composers. Briefly, in 1909, he held the position of director of music at Uppsala University, where he was succeeded in the following year by Hugo Alfvén.

Wilhelm Stenhammar died of a stroke at 56 years of age in Jonsered in the historic province of Västergötland. He is buried in Gothenburg.

Tracklist
Cd1
01.Excelsior! - Symphonic Overture Op.13
02.Symphony No.1 in F -I- Tempo molto tranquillo - Allegro
03.Symphony No.1 in F -II- Andante con moto
04.Symphony No.1 in F -III- Allegro amabile
05.Symphony No.1 in F -IV- Allegro non tanto, ma con fuoco - Tranquillo

Exact Audio Copy V0.99 prebeta 5 from 4. May 2009



EAC extraction logfile from 28. May 2010, 21:57



Gothenburg SO - Jaarvi / Stenhammar Symphonies



Used drive : HL-DT-STDVDRAM GH15F Adapter: 2 ID: 0



Read mode : Secure

Utilize accurate stream : Yes

Defeat audio cache : No

Make use of C2 pointers : No



Read offset correction : 667

Overread into Lead-In and Lead-Out : No

Fill up missing offset samples with silence : Yes

Delete leading and trailing silent blocks : No

Null samples used in CRC calculations : No

Used interface : Installed external ASPI interface



Used output format : User Defined Encoder

Selected bitrate : 768 kBit/s

Quality : High

Add ID3 tag : No

Command line compressor : C:\Archivos de programa\Exact Audio Copy\FLAC\FLAC.EXE

Additional command line options : -6 -V -T "ARTIST=%a" -T "TITLE=%t" -T "ALBUM=%g" -T "DATE=%y" -T "TRACKNUMBER=%n" -T "GENRE=%m" -T "COMMENT=%e" %s -o %d





TOC of the extracted CD



Track | Start | Length | Start sector | End sector

––––––––––––––––––––––––––––-

1 | 0:00.32 | 13:28.00 | 32 | 60631

2 | 13:28.32 | 16:52.00 | 60632 | 136531

3 | 30:20.32 | 10:49.00 | 136532 | 185206

4 | 41:09.32 | 9:15.00 | 185207 | 226831

5 | 50:24.32 | 13:19.00 | 226832 | 286756





Range status and errors



Selected range



Filename C:\musica\Gothenburg SO - Jaarvi - Stenhammar Symphonies.wav



Peak level 99.9 %

Range quality 100.0 %

Copy CRC A8AC43A6

Copy OK



No errors occurred





AccurateRip summary



Track 1 accurately ripped (confidence 2) [16D8DB23]

Track 2 accurately ripped (confidence 2) [37CDADFE]

Track 3 accurately ripped (confidence 2) [7D650A20]

Track 4 accurately ripped (confidence 2) [E87BD0E5]

Track 5 accurately ripped (confidence 2) [05213253]



All tracks accurately ripped



End of status report


Cd2
01.Serenade in F Op.31 -I- Overtura: Allegrissimo
02.Serenade in F Op.31 -II- Canzonetta: Tempo di valse, un poco tranquillo
03.Serenade in F Op.31 -III- Scherzo: Presto
04.Serenade in F Op.31 -IV- Notturno: Andante sostenuto
05.Serenade in F Op.31 -V- Finale: Tempo moderato
06.Symphony No.2 in G minor Op.34 -I- Allegro energico
07.Symphony No.2 in G minor Op.34 -II- Andante
08.Symphony No.2 in G minor Op.34 -III- Scherzo: Allegro, ma non troppo presto
09.Symphony No.2 in G minor Op.34 -IV- Finale: Sostenuto - Allegro vivace

Exact Audio Copy V0.99 prebeta 5 from 4. May 2009



EAC extraction logfile from 28. May 2010, 22:13



Gothenburg Symphony Orchestra; Neeme Järvi / Stenhammar: Symphonies, Serenade, Excelsior (Disc 2) - Järvi - Göteborgs Symfon



Used drive : HL-DT-STDVDRAM GH15F Adapter: 2 ID: 0



Read mode : Secure

Utilize accurate stream : Yes

Defeat audio cache : No

Make use of C2 pointers : No



Read offset correction : 667

Overread into Lead-In and Lead-Out : No

Fill up missing offset samples with silence : Yes

Delete leading and trailing silent blocks : No

Null samples used in CRC calculations : No

Used interface : Installed external ASPI interface



Used output format : User Defined Encoder

Selected bitrate : 768 kBit/s

Quality : High

Add ID3 tag : No

Command line compressor : C:\Archivos de programa\Exact Audio Copy\FLAC\FLAC.EXE

Additional command line options : -6 -V -T "ARTIST=%a" -T "TITLE=%t" -T "ALBUM=%g" -T "DATE=%y" -T "TRACKNUMBER=%n" -T "GENRE=%m" -T "COMMENT=%e" %s -o %d





TOC of the extracted CD



Track | Start | Length | Start sector | End sector

––––––––––––––––––––––––––––-

1 | 0:00.32 | 6:20.00 | 32 | 28531

2 | 6:20.32 | 4:45.00 | 28532 | 49906

3 | 11:05.32 | 6:59.00 | 49907 | 81331

4 | 18:04.32 | 6:25.00 | 81332 | 110206

5 | 24:29.32 | 8:21.00 | 110207 | 147781

6 | 32:50.32 | 11:56.00 | 147782 | 201481

7 | 44:46.32 | 8:52.00 | 201482 | 241381

8 | 53:38.32 | 6:58.00 | 241382 | 272731

9 | 60:36.32 | 14:18.00 | 272732 | 337081





Range status and errors



Selected range



Filename C:\musica\Gothenburg Symphony Orchestra; Neeme Järvi - Stenhammar Symphonies, Serenade, Excelsior (Disc 2) - Järvi - Göteborgs Symfon.wav



Peak level 99.9 %

Range quality 99.9 %

Copy CRC 18726626

Copy OK



No errors occurred





AccurateRip summary



Track 1 cannot be verified as accurate (confidence 2) [01BCAAF4], AccurateRip returned [181BDA80]

Track 2 cannot be verified as accurate (confidence 2) [1B5678A7], AccurateRip returned [D0D23581]

Track 3 cannot be verified as accurate (confidence 2) [0CC02BF6], AccurateRip returned [4B0B73E9]

Track 4 cannot be verified as accurate (confidence 2) [574F3664], AccurateRip returned [BAE4BBC1]

Track 5 cannot be verified as accurate (confidence 2) [FD8B8362], AccurateRip returned [4E99721F]

Track 6 cannot be verified as accurate (confidence 2) [F2BCE9DF], AccurateRip returned [CACFE34D]

Track 7 cannot be verified as accurate (confidence 2) [00BFF44C], AccurateRip returned [2414CC17]

Track 8 cannot be verified as accurate (confidence 2) [E2B94877], AccurateRip returned [C6402BF7]

Track 9 cannot be verified as accurate (confidence 2) [03F9FE15], AccurateRip returned [1AE84635]



No tracks could be verified as accurate

You may have a different pressing from the one(s) in the database



End of status report


Links
Rs 01
Rs 02
Rs 03
Rs 04
Rs 05
Rs 06