Subcategories

The Who - MFSL Gold Discs Collection [5 albums on 6 CDs] RE-UP

Posted By: perfecta
The Who - MFSL Gold Discs Collection [5 albums on 6 CDs] RE-UP

The Who - MFSL Gold Discs Collection [5 albums on 6 CDs]
EAC Rips | FLAC with CUEs & LOGs - 2,27 GB | Complete Scans | MP3 CBR 320 Kbps - 834 MB
Release years: 1990-1999 | TT - 361:13 minutes | Label: Mobile Fidelity Sound Lab / Cat. # below

The Who's MFSL Gold Discs Collection contains the albums: Tommy (UDCD-533), Live At Leeds (UDCD-755), Who's Next (UDCD-754), Quadrophenia (UDCD 2-550), and Who Are You (UDCD-561).


The Who - MFSL Gold Discs Collection [5 albums on 6 CDs] RE-UP

The Who - Tommy (1969) [MFSL Ultradisc Gold CD]
EAC | FLAC with CUE & LOG - 456 MB | Complete Scans | MP3 CBR 320 Kbps - 173 MB
This CD Released: May 1990 | TT - 74:59 minutes | Label: Mobile Fidelity Sound Lab / Cat. # UDCD 533

allmusic.com says: The full-blown rock opera about a deaf, dumb, and blind boy that launched the band to international superstardom, written almost entirely by Pete Townshend. Hailed as a breakthrough upon its release, its critical standing has diminished somewhat in the ensuing decades because of the occasional pretensions of the concept and because of the insubstantial nature of some of the songs that functioned as little more than devices to advance the rather sketchy plot. Nonetheless, the double album has many excellent songs, including "I'm Free," "Pinball Wizard," "Sensation," "Christmas," "We're Not Gonna Take It," and the dramatic ten-minute instrumental "Underture." Though the album was slightly flawed, Townshend's ability to construct a lengthy conceptual narrative brought new possibilities to rock music. Despite the complexity of the project, he and the Who never lost sight of solid pop melodies, harmonies, and forceful instrumentation, imbuing the material with a suitably powerful grace.

Tracks:

01. Overture / It's A Boy!
02. You Didn't Hear It
03. Amazing Journey / Sparks
04. Eyesight To The Blind
05. Christmas
06. Cousin Kevin
07. The Acid Queen
08. Underture
09. Do You Think It's Alright / Fiddle About
10. Pinball Wizard
11. There's A Doctor I've Found
12. Go To The Mirror Boy
13. Tommy, Can You Hear Me
14. Smash The Mirror
15. Sensation
16. Miracle Cure
17. Sally Simpson
18. I'm Free
19. Welcome
20. Tommy's Holiday Camp
21. We're Not Gonna Take It

More information @ Wikipedia

EAC extraction logfile from 15. April 2007, 23:10 for CD
The Who / Tommy (MFSL)

Used drive : MAD DOG MD-16XDVD9A4 Adapter: 1 ID: 1
Read mode : Secure with NO C2, accurate stream, disable cache
Read offset correction : 48
Overread into Lead-In and Lead-Out : No

Used output format : C:\Program Files\FLAC\flac.exe (User Defined Encoder)
128 kBit/s
Additional command line options : -V -8 -T "artist=%a" -T "title=%t" -T "album=%g" -T "date=%y" -T "tracknumber=%n" -T "genre=%m" %s

Other options :
Fill up missing offset samples with silence : Yes
Delete leading and trailing silent blocks : No
Installed external ASPI interface


Track 1
Filename D:\Full Albums\LOSSLESS\Who-Tommy-MFSL_GOLD_UDCD-1-533-1969-FLAC\01-The Who-Overture , It's a Boy!.wav

Pre-gap length 0:00:02.00

Peak level 72.9 %
Track quality 100.0 %
Test CRC 9ADB11F3
Copy CRC 9ADB11F3
Copy OK

Track 2
Filename D:\Full Albums\LOSSLESS\Who-Tommy-MFSL_GOLD_UDCD-1-533-1969-FLAC\02-The Who-You Didn't Hear It.wav

Peak level 66.4 %
Track quality 100.0 %
Test CRC 049E1093
Copy CRC 049E1093
Copy OK

Track 3
Filename D:\Full Albums\LOSSLESS\Who-Tommy-MFSL_GOLD_UDCD-1-533-1969-FLAC\03-The Who-Amazing Journey , Sparks.wav

Peak level 77.0 %
Track quality 100.0 %
Test CRC 34194A8C
Copy CRC 34194A8C
Copy OK

Track 4
Filename D:\Full Albums\LOSSLESS\Who-Tommy-MFSL_GOLD_UDCD-1-533-1969-FLAC\04-The Who-Eyesight to the Blind.wav

Peak level 71.5 %
Track quality 100.0 %
Test CRC F744965C
Copy CRC F744965C
Copy OK

Track 5
Filename D:\Full Albums\LOSSLESS\Who-Tommy-MFSL_GOLD_UDCD-1-533-1969-FLAC\05-The Who-Christmas.wav

Pre-gap length 0:00:01.04

Peak level 86.8 %
Track quality 100.0 %
Test CRC 456C10B5
Copy CRC 456C10B5
Copy OK

Track 6
Filename D:\Full Albums\LOSSLESS\Who-Tommy-MFSL_GOLD_UDCD-1-533-1969-FLAC\06-The Who-Cousin Kevin.wav

Peak level 75.9 %
Track quality 100.0 %
Test CRC E647C1C5
Copy CRC E647C1C5
Copy OK

Track 7
Filename D:\Full Albums\LOSSLESS\Who-Tommy-MFSL_GOLD_UDCD-1-533-1969-FLAC\07-The Who-The Acid Queen.wav

Peak level 77.1 %
Track quality 100.0 %
Test CRC B646D535
Copy CRC B646D535
Copy OK

Track 8
Filename D:\Full Albums\LOSSLESS\Who-Tommy-MFSL_GOLD_UDCD-1-533-1969-FLAC\08-The Who-Underture.wav

Peak level 86.3 %
Track quality 99.9 %
Test CRC B24F8C68
Copy CRC B24F8C68
Copy OK

Track 9
Filename D:\Full Albums\LOSSLESS\Who-Tommy-MFSL_GOLD_UDCD-1-533-1969-FLAC\09-The Who-Do You Think It's Alright , Fiddle About.wav

Pre-gap length 0:00:04.04

Peak level 70.9 %
Track quality 100.0 %
Test CRC A52D1F41
Copy CRC A52D1F41
Copy OK

Track 10
Filename D:\Full Albums\LOSSLESS\Who-Tommy-MFSL_GOLD_UDCD-1-533-1969-FLAC\10-The Who-Pinball Wizard.wav

Peak level 85.0 %
Track quality 99.9 %
Test CRC D0953913
Copy CRC D0953913
Copy OK

Track 11
Filename D:\Full Albums\LOSSLESS\Who-Tommy-MFSL_GOLD_UDCD-1-533-1969-FLAC\11-The Who-There's a Doctor I've Found.wav

Peak level 75.2 %
Track quality 100.0 %
Test CRC F889E9B2
Copy CRC F889E9B2
Copy OK

Track 12
Filename D:\Full Albums\LOSSLESS\Who-Tommy-MFSL_GOLD_UDCD-1-533-1969-FLAC\12-The Who-Go to the Mirror Boy.wav

Peak level 87.8 %
Track quality 100.0 %
Test CRC 69762004
Copy CRC 69762004
Copy OK

Track 13
Filename D:\Full Albums\LOSSLESS\Who-Tommy-MFSL_GOLD_UDCD-1-533-1969-FLAC\13-The Who-Tommy, Can You Hear Me .wav

Peak level 66.5 %
Track quality 100.0 %
Test CRC E33E2271
Copy CRC E33E2271
Copy OK

Track 14
Filename D:\Full Albums\LOSSLESS\Who-Tommy-MFSL_GOLD_UDCD-1-533-1969-FLAC\14-The Who-Smash the Mirror.wav

Peak level 74.7 %
Track quality 100.0 %
Test CRC 636499D6
Copy CRC 636499D6
Copy OK

Track 15
Filename D:\Full Albums\LOSSLESS\Who-Tommy-MFSL_GOLD_UDCD-1-533-1969-FLAC\15-The Who-Sensation.wav

Peak level 78.6 %
Track quality 100.0 %
Test CRC 613C0F76
Copy CRC 613C0F76
Copy OK

Track 16
Filename D:\Full Albums\LOSSLESS\Who-Tommy-MFSL_GOLD_UDCD-1-533-1969-FLAC\16-The Who-Miracle Cure.wav

Pre-gap length 0:00:01.16

Peak level 73.9 %
Track quality 100.0 %
Test CRC 9DA361CD
Copy CRC 9DA361CD
Copy OK

Track 17
Filename D:\Full Albums\LOSSLESS\Who-Tommy-MFSL_GOLD_UDCD-1-533-1969-FLAC\17-The Who-Sally Simpson.wav

Peak level 70.0 %
Track quality 99.9 %
Test CRC 7F5B58BE
Copy CRC 7F5B58BE
Copy OK

Track 18
Filename D:\Full Albums\LOSSLESS\Who-Tommy-MFSL_GOLD_UDCD-1-533-1969-FLAC\18-The Who-I'm Free.wav

Peak level 82.4 %
Track quality 100.0 %
Test CRC CD562AF4
Copy CRC CD562AF4
Copy OK

Track 19
Filename D:\Full Albums\LOSSLESS\Who-Tommy-MFSL_GOLD_UDCD-1-533-1969-FLAC\19-The Who-Welcome.wav

Peak level 66.8 %
Track quality 100.0 %
Test CRC 771172B4
Copy CRC 771172B4
Copy OK

Track 20
Filename D:\Full Albums\LOSSLESS\Who-Tommy-MFSL_GOLD_UDCD-1-533-1969-FLAC\20-The Who-Tommy's Holiday Camp.wav

Peak level 46.8 %
Track quality 100.0 %
Test CRC 10ADF414
Copy CRC 10ADF414
Copy OK

Track 21
Filename D:\Full Albums\LOSSLESS\Who-Tommy-MFSL_GOLD_UDCD-1-533-1969-FLAC\21-The Who-We're Not Gonna Take It.wav

Peak level 83.7 %
Track quality 100.0 %
Test CRC 2AD81D83
Copy CRC 2AD81D83
Copy OK

No errors occured


End of status report
________________________

[AccurateRip ID: 003dd2de-038ece75-2a119215] found.
Track [ CRC ] Status
01 [f1735bd8] (55/63) Accurately ripped
02 [f3ace3cf] (54/62) Accurately ripped
03 [2c7b9730] (54/62) Accurately ripped
04 [3816f7f6] (54/62) Accurately ripped
05 [0fc4aa6d] (54/62) Accurately ripped
06 [1fdf9202] (54/62) Accurately ripped
07 [eec3d028] (54/62) Accurately ripped
08 [d3827e20] (54/62) Accurately ripped
09 [8e735feb] (54/62) Accurately ripped
10 [b94d8d47] (55/63) Accurately ripped
11 [e1fa6c05] (54/62) Accurately ripped
12 [1be6e18f] (54/62) Accurately ripped
13 [04797741] (54/62) Accurately ripped
14 [79e6a542] (54/62) Accurately ripped
15 [c10b61c0] (54/62) Accurately ripped
16 [f9d96d65] (54/62) Accurately ripped
17 [82258972] (55/63) Accurately ripped
18 [fa94e94c] (57/65) Accurately ripped
19 [e434e7c5] (54/62) Accurately ripped
20 [fabd9d52] (54/62) Accurately ripped
21 [72de2d70] (54/62) Accurately ripped
AccurateRip v2:
01 [d4041b39] (08/63) Accurately ripped
02 [9fe7cc0f] (08/62) Accurately ripped
03 [4c6d3992] (08/62) Accurately ripped
04 [d649e743] (08/62) Accurately ripped
05 [51c69876] (08/62) Accurately ripped
06 [21e1e75c] (08/62) Accurately ripped
07 [72091b0a] (08/62) Accurately ripped
08 [d7a6a43b] (08/62) Accurately ripped
09 [1cc42837] (08/62) Accurately ripped
10 [195cfc15] (08/63) Accurately ripped
11 [ecea0153] (08/62) Accurately ripped
12 [85df782b] (08/62) Accurately ripped
13 [2cdd7f95] (08/62) Accurately ripped
14 [f5ced876] (08/62) Accurately ripped
15 [2f23ccfb] (08/62) Accurately ripped
16 [da735a82] (08/62) Accurately ripped
17 [486a6985] (08/63) Accurately ripped
18 [e749ad2e] (08/65) Accurately ripped
19 [b522b86e] (08/62) Accurately ripped
20 [887c6403] (08/62) Accurately ripped
21 [8bafc80a] (08/62) Accurately ripped

Track Peak [ CRC32 ] [W/O NULL] [ LOG ]
– 87,8 [5AF7491F] [2BB19A91]
01 72,9 [9ADB11F3] [B4E8CCE0] CRC32
02 66,4 [049E1093] [B4C3C179] CRC32
03 77,0 [34194A8C] [E5F248E4] CRC32
04 71,5 [F744965C] [E53D1C59] CRC32
05 86,8 [456C10B5] [1D3F1D03] CRC32
06 75,9 [E647C1C5] [5BBF71B5] CRC32
07 77,1 [B646D535] [02FF53EB] CRC32
08 86,3 [B24F8C68] [6FDD92BB] CRC32
09 70,9 [A52D1F41] [B3FC3C1E] CRC32
10 85,0 [D0953913] [61E0BB06] CRC32
11 75,2 [F889E9B2] [DB16220A] CRC32
12 87,8 [69762004] [A9D92F51] CRC32
13 66,5 [E33E2271] [1BCED8BE] CRC32
14 74,7 [636499D6] [CDDE0D47] CRC32
15 78,6 [613C0F76] [36052428] CRC32
16 73,9 [9DA361CD] [F66ABD66] CRC32
17 70,0 [7F5B58BE] [4548C92A] CRC32
18 82,4 [CD562AF4] [6D7BAE68] CRC32
19 66,8 [771172B4] [75BF2E99] CRC32
20 46,8 [10ADF414] [53B0807A] CRC32
21 83,7 [2AD81D83] [14188E38] CRC32



––––––––––––––––––––––––––––––––––––-


The Who - MFSL Gold Discs Collection [5 albums on 6 CDs] RE-UP

The Who - Live At Leeds (1970) [MFSL Ultradisc II Gold CD]
EAC | FLAC with CUE & LOG - 511 MB | Complete Scans | MP3 CBR 320 Kbps - 178 MB
This CD Released: 1999 | TT - 77:07 minutes | Label: Mobile Fidelity Sound Lab / Cat. # UDCD 755

allmusic.com says: Rushed out in 1970 as a way to bide time as the Who toiled away on their follow-up to Tommy, Live at Leeds wasn't intended to be the definitive Who live album, and many collectors maintain that the band had better shows available on bootlegs. But those shows weren't easily available whereas Live at Leeds was, and even if this show may not have been the absolute best, it's so damn close to it that it would be impossible for anybody but aficionados to argue. Here, the Who sound vicious – as heavy as Led Zeppelin but twice as volatile – as they careen through early classics with the confidence of a band that finally achieved acclaim but had yet to become preoccupied with making art. In that regard, this recording – in its many different forms – may have been perfectly timed in terms of capturing the band at a pivotal moment in its history.

Tracks:

01. Heaven And Hell
02. I Can't Explain
03. Fortune Teller
04. Tattoo
05. Young Man Blues
06. Substitute
07. Happy Jack
08. I'm A Boy
09. A Quick One, While He's Away
10. Amazing Journey - Sparks
11. Summertime Blues
12. Shakin' All Over
13. My Generation
14. Magic Bus

More information @ Wikipedia

EAC extraction logfile from 26. November 2006, 7:15 for CD
The Who / Live At Leeds (1999 MFSL Gold)

Used drive : PLEXTOR CD-R PREMIUM Adapter: 3 ID: 1
Read mode : Secure with NO C2, accurate stream, disable cache
Read offset correction : 30
Overread into Lead-In and Lead-Out : Yes

Used output format : C:\Program Files\Codec\FLAC\flac.exe (User Defined Encoder)
128 kBit/s
Additional command line options : -V -T "Title=%t" -T "Artist=%a" -T "Album=%g" -T "TrackNumber=%n" -T "Date=%y" -T "Genre=%m" %s

Other options :
Fill up missing offset samples with silence : Yes
Delete leading and trailing silent blocks : No
Installed external ASPI interface


Track 1
Filename D:\Temp\The Who\Live At Leeds (1999 MFSL Gold)\01 Heaven And Hell.wav

Pre-gap length 0:00:02.00

Peak level 96.2 %
Track quality 100.0 %
Test CRC 034219DC
Copy CRC 034219DC
Copy OK

Track 2
Filename D:\Temp\The Who\Live At Leeds (1999 MFSL Gold)\02 I Can't Explain.wav

Peak level 94.5 %
Track quality 100.0 %
Test CRC 21C0AB1B
Copy CRC 21C0AB1B
Copy OK

Track 3
Filename D:\Temp\The Who\Live At Leeds (1999 MFSL Gold)\03 Fortune Teller.wav

Pre-gap length 0:00:36.57

Peak level 93.9 %
Track quality 99.9 %
Test CRC 09A6A586
Copy CRC 09A6A586
Copy OK

Track 4
Filename D:\Temp\The Who\Live At Leeds (1999 MFSL Gold)\04 Tattoo.wav

Peak level 94.6 %
Track quality 100.0 %
Test CRC 9329548C
Copy CRC 9329548C
Copy OK

Track 5
Filename D:\Temp\The Who\Live At Leeds (1999 MFSL Gold)\05 Young Man Blues.wav

Pre-gap length 0:00:42.29

Peak level 97.1 %
Track quality 100.0 %
Test CRC 2FAF7E0F
Copy CRC 2FAF7E0F
Copy OK

Track 6
Filename D:\Temp\The Who\Live At Leeds (1999 MFSL Gold)\06 Substitute.wav

Pre-gap length 0:00:45.36

Peak level 97.5 %
Track quality 100.0 %
Test CRC 2E603C86
Copy CRC 2E603C86
Copy OK

Track 7
Filename D:\Temp\The Who\Live At Leeds (1999 MFSL Gold)\07 Happy Jack.wav

Peak level 96.2 %
Track quality 100.0 %
Test CRC 1E61C3F0
Copy CRC 1E61C3F0
Copy OK

Track 8
Filename D:\Temp\The Who\Live At Leeds (1999 MFSL Gold)\08 I'm A Boy.wav

Peak level 95.7 %
Track quality 100.0 %
Test CRC 435E42D5
Copy CRC 435E42D5
Copy OK

Track 9
Filename D:\Temp\The Who\Live At Leeds (1999 MFSL Gold)\09 A Quick One, While He's Away.wav

Pre-gap length 0:01:56.62

Peak level 100.0 %
Track quality 100.0 %
Test CRC 517B91CD
Copy CRC 517B91CD
Copy OK

Track 10
Filename D:\Temp\The Who\Live At Leeds (1999 MFSL Gold)\10 Amazing Journey-Sparks.wav

Peak level 96.5 %
Track quality 100.0 %
Test CRC 593332F9
Copy CRC 593332F9
Copy OK

Track 11
Filename D:\Temp\The Who\Live At Leeds (1999 MFSL Gold)\11 Summertime Blues.wav

Pre-gap length 0:00:10.60

Peak level 97.7 %
Track quality 100.0 %
Test CRC 522FD97C
Copy CRC 522FD97C
Copy OK

Track 12
Filename D:\Temp\The Who\Live At Leeds (1999 MFSL Gold)\12 Shakin' All Over.wav

Peak level 97.2 %
Track quality 100.0 %
Test CRC A2CF20F6
Copy CRC A2CF20F6
Copy OK

Track 13
Filename D:\Temp\The Who\Live At Leeds (1999 MFSL Gold)\13 My Generation.wav

Peak level 98.7 %
Track quality 100.0 %
Test CRC 1232AF70
Copy CRC 1232AF70
Copy OK

Track 14
Filename D:\Temp\The Who\Live At Leeds (1999 MFSL Gold)\14 Magic Bus.wav

Pre-gap length 0:00:54.06

Peak level 95.9 %
Track quality 100.0 %
Test CRC 30111D1E
Copy CRC 30111D1E
Copy OK

No errors occured


End of status report
_________________________

[AccurateRip ID: 001feb5f-0162b2cc-b012130e] found.
Track [ CRC ] Status
01 [7a1c60e9] (13/18) Accurately ripped
02 [4c34b3db] (13/18) Accurately ripped
03 [aa653627] (13/18) Accurately ripped
04 [cd893d94] (13/18) Accurately ripped
05 [9b8d712e] (13/18) Accurately ripped
06 [3a6657f3] (13/18) Accurately ripped
07 [3b916adf] (13/18) Accurately ripped
08 [215ac2ad] (13/18) Accurately ripped
09 [6586a00c] (13/18) Accurately ripped
10 [48dee398] (13/18) Accurately ripped
11 [934cbf25] (13/20) Accurately ripped
12 [6e8b56c7] (13/18) Accurately ripped
13 [8c39dee4] (14/19) Accurately ripped
14 [557d81ec] (13/18) Accurately ripped
AccurateRip v2:
01 [24359227] (03/18) Accurately ripped
02 [87714dbc] (03/18) Accurately ripped
03 [7cfaf6f0] (03/18) Accurately ripped
04 [68b81a0c] (03/18) Accurately ripped
05 [b3187dd8] (03/18) Accurately ripped
06 [89d8677b] (03/18) Accurately ripped
07 [e79fa65c] (03/18) Accurately ripped
08 [b21c1233] (03/18) Accurately ripped
09 [a7be4654] (03/18) Accurately ripped
10 [2bac47d4] (03/18) Accurately ripped
11 [065ee8e8] (03/20) Accurately ripped
12 [fdc0df5d] (03/18) Accurately ripped
13 [126a1995] (03/19) Accurately ripped
14 [04d6b1be] (03/18) Accurately ripped
Offsetted by -99:
01 [683db8b7] (02/18) Accurately ripped
02 [a576e216] (02/18) Accurately ripped
03 [57d1467e] (02/18) Accurately ripped
04 [1ea26caf] (02/18) Accurately ripped
05 [b03b20e7] (02/18) Accurately ripped
06 [f0bd11d0] (02/18) Accurately ripped
07 [dc75354a] (02/18) Accurately ripped
08 [9c6a7086] (02/18) Accurately ripped
09 [4b875d86] (02/18) Accurately ripped
10 [d247d1f1] (02/18) Accurately ripped
11 [9ed14324] (02/20) Accurately ripped
12 [20479ea6] (02/18) Accurately ripped
13 [ef378188] (02/19) Accurately ripped
14 [a4401f8f] (02/18) Accurately ripped
Offsetted by -18:
01 [12249290] (00/18) No match
02 [d7db848e] (00/18) No match
03 [058e583c] (00/18) No match
04 [e256ed2c] (00/18) No match
05 [c94d7476] (00/18) No match
06 [14e28938] (00/18) No match
07 [35e4ea8d] (00/18) No match
08 [5fdb488c] (00/18) No match
09 [ffced481] (00/18) No match
10 [83ac50fb] (00/18) No match
11 [31015bcc] (02/20) Accurately ripped
12 [3b8e52c2] (00/18) No match
13 [a3ef6991] (00/19) No match
14 [34d29e3e] (00/18) No match

Track Peak [ CRC32 ] [W/O NULL] [ LOG ]
– 100,0 [46A1AFF1] [E48D45B5]
01 96,2 [034219DC] [9368B8D1] CRC32
02 94,5 [21C0AB1B] [F1871A7E] CRC32
03 93,9 [09A6A586] [F23267DF] CRC32
04 94,6 [9329548C] [DD120B70] CRC32
05 97,1 [2FAF7E0F] [DA540AEC] CRC32
06 97,5 [2E603C86] [73D56A59] CRC32
07 96,2 [1E61C3F0] [8662E6B9] CRC32
08 95,7 [435E42D5] [818671EC] CRC32
09 100,0 [517B91CD] [FF04D895] CRC32
10 96,5 [593332F9] [163897AC] CRC32
11 97,7 [522FD97C] [86DB2858] CRC32
12 97,2 [A2CF20F6] [E0263DF8] CRC32
13 98,7 [1232AF70] [C196ABB9] CRC32
14 95,9 [30111D1E] [9F971C21] CRC32



––––––––––––––––––––––––––––––––-


The Who - MFSL Gold Discs Collection [5 albums on 6 CDs] RE-UP

The Who - Who's Next (1971) [MFSL Ultradisc II Gold CD]
EAC | FLAC with CUE & LOG - 514 MB | Complete Scans | MP3 CBR 320 Kbps - 180 MB
This CD Released: 1999 | TT - 78:07 minutes | Label: Mobile Fidelity Sound Lab / Cat. # UDCD 754

allmusic.com says: Much of Who's Next derives from Lifehouse, an ambitious sci-fi rock opera Pete Townshend abandoned after suffering a nervous breakdown, caused in part from working on the sequel to Tommy. There's no discernable theme behind these songs, yet this album is stronger than Tommy, falling just behind Who Sell Out as the finest record the Who ever cut. Townshend developed an infatuation with synthesizers during the recording of the album, and they're all over this album, adding texture where needed and amplifying the force, which is already at a fever pitch. Apart from Live at Leeds, the Who have never sounded as LOUD and unhinged as they do here, yet that's balanced by ballads, both lovely ("The Song Is Over") and scathing ("Behind Blue Eyes"). That's the key to Who's Next – there's anger and sorrow, humor and regret, passion and tumult, all wrapped up in a blistering package where the rage is as affecting as the heartbreak. This is a retreat from the '60s, as Townshend declares the "Song Is Over," scorns the teenage wasteland, and bitterly declares that we "Won't Get Fooled Again." For all the sorrow and heartbreak that runs beneath the surface, this is an invigorating record, not just because Keith Moon runs rampant or because Roger Daltrey has never sung better or because John Entwistle spins out manic basslines that are as captivating as his "My Wife" is funny. This is invigorating because it has all of that, plus Townshend laying his soul bare in ways that are funny, painful, and utterly life-affirming. That is what the Who was about, not the rock operas, and that's why Who's Next is truer than Tommy or the abandoned Lifehouse. Those were art – this, even with its pretensions, is rock & roll.

Tracks:

01. Baba O'Riley
02. Bargain
03. Love Ain't For Keeping
04. My Wife
05. The Song Is Over
06. Getting In Tune
07. Going Mobile
08. Behind Blue Eyes
09. Won't Get Fooled Again
10. Pure And Easy (Alt. version)
11. Baby Don't You Do It (Alt. version)
12. Naked Eye
13. Water (Alt. version)
14. Too Much Of Anything
15. I Don't Even Know Myself
16. Behind Blue Eyes (Alt. version)

More information @ Wikipedia

EAC extraction logfile from 1. August 2006, 4:29 for CD
The Who / Who's Next

Used drive : _NEC DVD_RW ND-3550A Adapter: 1 ID: 0
Read mode : Secure with NO C2, accurate stream, disable cache
Read offset correction : 48
Overread into Lead-In and Lead-Out : No

Used output format : Internal WAV Routines
44.100 Hz; 16 Bit; Stereo

Other options :
Fill up missing offset samples with silence : Yes
Delete leading and trailing silent blocks : No
Native Win32 interface for Win NT & 2000


Track 1
Filename C:\THE WHO\01 - Baba O'Riley.wav

Pre-gap length 0:00:02.00

Peak level 98.9 %
Track quality 100.0 %
Test CRC DF643358
Copy CRC DF643358
Copy OK

Track 2
Filename C:\THE WHO\02 - Bargain.wav

Peak level 96.8 %
Track quality 99.9 %
Test CRC 57DA64BB
Copy CRC 57DA64BB
Copy OK

Track 3
Filename C:\THE WHO\03 - Love Ain't For Keeping.wav

Pre-gap length 0:00:01.29

Peak level 92.6 %
Track quality 99.9 %
Test CRC 53A9BCAD
Copy CRC 53A9BCAD
Copy OK

Track 4
Filename C:\THE WHO\04 - My Wife.wav

Peak level 98.3 %
Track quality 99.9 %
Test CRC 77FC341F
Copy CRC 77FC341F
Copy OK

Track 5
Filename C:\THE WHO\05 - The Song Is Over.wav

Pre-gap length 0:00:02.06

Peak level 97.3 %
Track quality 100.0 %
Test CRC A869EAA1
Copy CRC A869EAA1
Copy OK

Track 6
Filename C:\THE WHO\06 - Getting In Tune.wav

Pre-gap length 0:00:01.60

Peak level 100.0 %
Track quality 100.0 %
Test CRC 60BA2D4E
Copy CRC 60BA2D4E
Copy OK

Track 7
Filename C:\THE WHO\07 - Going Mobile.wav

Peak level 98.1 %
Track quality 99.9 %
Test CRC 341E0227
Copy CRC 341E0227
Copy OK

Track 8
Filename C:\THE WHO\08 - Behind Blue Eyes.wav

Pre-gap length 0:00:01.93

Peak level 100.0 %
Track quality 99.9 %
Test CRC 40772761
Copy CRC 40772761
Copy OK

Track 9
Filename C:\THE WHO\09 - Won't Get Fooled Again.wav

Pre-gap length 0:00:01.09

Peak level 97.6 %
Track quality 99.9 %
Test CRC 2B8FE675
Copy CRC 2B8FE675
Copy OK

Track 10
Filename C:\THE WHO\10 - Pure And Easy (alt. version).wav

Pre-gap length 0:00:01.10

Peak level 98.5 %
Track quality 100.0 %
Test CRC 4242EF05
Copy CRC 4242EF05
Copy OK

Track 11
Filename C:\THE WHO\11 - Baby Don't You Do It (alt. version).wav

Pre-gap length 0:00:01.88

Peak level 97.4 %
Track quality 100.0 %
Test CRC 4E5CC365
Copy CRC 4E5CC365
Copy OK

Track 12
Filename C:\THE WHO\12 - Naked Eye.wav

Pre-gap length 0:00:01.16

Peak level 100.0 %
Track quality 100.0 %
Test CRC 7CE51BDB
Copy CRC 7CE51BDB
Copy OK

Track 13
Filename C:\THE WHO\13 - Water (alt. version).wav

Peak level 99.4 %
Track quality 100.0 %
Test CRC CE87DC9C
Copy CRC CE87DC9C
Copy OK

Track 14
Filename C:\THE WHO\14 - Too Much Of Anything.wav

Peak level 93.8 %
Track quality 100.0 %
Test CRC 47F32EA9
Copy CRC 47F32EA9
Copy OK

Track 15
Filename C:\THE WHO\15 - I Don't Even Know Myself.wav

Pre-gap length 0:00:01.06

Peak level 97.5 %
Track quality 100.0 %
Test CRC B6CA3C73
Copy CRC B6CA3C73
Copy OK

Track 16
Filename C:\THE WHO\16 - Behind Blue Eyes (alt. version).wav

Pre-gap length 0:00:02.06

Peak level 95.6 %
Track quality 100.0 %
Test CRC 6D5DBC98
Copy CRC 6D5DBC98
Copy OK

No errors occured


End of status report
_________________________

Track [ CRC ] Status
01 [0a7c81d7] (16/19) Accurately ripped
02 [dd9564c3] (16/18) Accurately ripped
03 [6359281e] (17/19) Accurately ripped
04 [d714e9a3] (16/18) Accurately ripped
05 [00d1b0d2] (16/18) Accurately ripped
06 [b494e592] (16/18) Accurately ripped
07 [e9d8d3f2] (16/18) Accurately ripped
08 [b2a1f3fe] (16/18) Accurately ripped
09 [2a80bcf6] (16/18) Accurately ripped
10 [3c5ab150] (16/18) Accurately ripped
11 [c7380796] (16/18) Accurately ripped
12 [4c2c09c9] (16/18) Accurately ripped
13 [0609004e] (15/17) Accurately ripped
14 [472f0082] (15/17) Accurately ripped
15 [51f680e1] (15/17) Accurately ripped
16 [20b480a8] (14/16) Accurately ripped
Offsetted by 6:
01 [778dcdf7] (03/19) Accurately ripped
02 [24ae2f7b] (02/18) Accurately ripped
03 [482bfdfa] (02/19) Accurately ripped
04 [4f1f2113] (02/18) Accurately ripped
05 [3ad9e13e] (02/18) Accurately ripped
06 [2903e02c] (02/18) Accurately ripped
07 [0d665c78] (02/18) Accurately ripped
08 [71df616e] (02/18) Accurately ripped
09 [2b73b286] (02/18) Accurately ripped
10 [4467913f] (02/18) Accurately ripped
11 [567c89b3] (02/18) Accurately ripped
12 [5f614c89] (02/18) Accurately ripped
13 [b33919a5] (02/17) Accurately ripped
14 [89377e11] (02/17) Accurately ripped
15 [b3ccb7bd] (02/17) Accurately ripped
16 [e5a0a28c] (02/16) Accurately ripped

Track Peak [ CRC32 ] [W/O NULL] [ LOG ]
– 100,0 [33F76E03] [87DEEA3F]
01 98,9 [DF643358] [8C51EE0D] CRC32
02 96,8 [57DA64BB] [F77CDE9C] CRC32
03 92,6 [53A9BCAD] [EE180162] CRC32
04 98,3 [77FC341F] [655E200B] CRC32
05 97,3 [A869EAA1] [E87AB999] CRC32
06 100,0 [60BA2D4E] [BF0E7A31] CRC32
07 98,1 [341E0227] [56329493] CRC32
08 100,0 [40772761] [F067C4CE] CRC32
09 97,6 [2B8FE675] [B661186F] CRC32
10 98,5 [4242EF05] [89B29B83] CRC32
11 97,4 [4E5CC365] [AFD84698] CRC32
12 100,0 [7CE51BDB] [94391E2A] CRC32
13 99,4 [CE87DC9C] [C4899FB3] CRC32
14 93,8 [47F32EA9] [6EFB7B7E] CRC32
15 97,5 [B6CA3C73] [7921E5D8] CRC32
16 95,6 [6D5DBC98] [725A9C17] CRC32



–––––––––––––––––––––––––––––––-


The Who - MFSL Gold Discs Collection [5 albums on 6 CDs] RE-UP

The Who - Quadrophenia (2CD, 1973) [MFSL Ultradisc Gold CD]
EAC | FLAC with CUEs and LOGs - 548 MB | Scans | MP3 CBR 320 Kbps - 190 MB
This CD Released: June 1991 | TT - 82:18 minutes | Label: Mobile Fidelity Sound Lab / Cat. # UDCD 2-550

allmusic.com says: Pete Townshend revisited the rock opera concept with another double-album opus, this time built around the story of a young mod's struggle to come of age in the mid-'60s. If anything, this was a more ambitious project than Tommy, given added weight by the fact that the Who weren't devising some fantasy but were re-examining the roots of their own birth in mod culture. In the end, there may have been too much weight, as Townshend tried to combine the story of a mixed-up mod named Jimmy with the examination of a four-way split personality (hence the title Quadrophenia), in turn meant to reflect the four conflicting personas at work within the Who itself. The concept might have ultimately been too obscure and confusing for a mass audience. But there's plenty of great music anyway, especially on "The Real Me," "The Punk Meets the Godfather," "I'm One," "Bell Boy," and "Love, Reign o'er Me." Some of Townshend's most direct, heartfelt writing is contained here, and production-wise it's a tour de force, with some of the most imaginative use of synthesizers on a rock record. Various members of the band griped endlessly about flaws in the mix, but really these will bug very few listeners, who in general will find this to be one of the Who's most powerful statements.

Tracks:

CD1:
01. I Am The Sea
02. The Real Me
03. Quadrophenia
04. Cut My Hair
05. The Punk Meets The Godfather
06. I'm One
07. The Dirty Jobs
08. Helpless Dancer
09. Is It In My Head
10. I've Had Enough

CD2:
11. 5-15
12. Sea And Sand
13. Drowned
14. Bell Boy
15. Doctor Jimmy
16. The Rock
17. Love, Reign O'er Me

More information @ Wikipedia

EAC extraction logfile from 27. November 2006, 7:31 for CD
The Who / Quadrophenia (1991 MFSL Gold) - Disc 1

Used drive : PLEXTOR CD-R PREMIUM Adapter: 3 ID: 1
Read mode : Secure with NO C2, accurate stream, disable cache
Read offset correction : 30
Overread into Lead-In and Lead-Out : Yes

Used output format : C:\Program Files\Codec\FLAC\flac.exe (User Defined Encoder)
128 kBit/s
Additional command line options : -V -T "Title=%t" -T "Artist=%a" -T "Album=%g" -T "TrackNumber=%n" -T "Date=%y" -T "Genre=%m" %s

Other options :
Fill up missing offset samples with silence : Yes
Delete leading and trailing silent blocks : No
Installed external ASPI interface


Track 1
Filename D:\Temp\The Who\Quadrophenia (1991 MFSL Gold) - Disc 1\01 I Am The Sea.wav

Pre-gap length 0:00:02.00

Peak level 70.4 %
Track quality 100.0 %
Test CRC 94628D04
Copy CRC 94628D04
Copy OK

Track 2
Filename D:\Temp\The Who\Quadrophenia (1991 MFSL Gold) - Disc 1\02 The Real Me.wav

Peak level 81.0 %
Track quality 100.0 %
Test CRC 75E48FFF
Copy CRC 75E48FFF
Copy OK

Track 3
Filename D:\Temp\The Who\Quadrophenia (1991 MFSL Gold) - Disc 1\03 Quadrophenia.wav

Peak level 84.8 %
Track quality 100.0 %
Test CRC 4ACD6D5A
Copy CRC 4ACD6D5A
Copy OK

Track 4
Filename D:\Temp\The Who\Quadrophenia (1991 MFSL Gold) - Disc 1\04 Cut My Hair.wav

Peak level 83.1 %
Track quality 100.0 %
Test CRC 796F96DB
Copy CRC 796F96DB
Copy OK

Track 5
Filename D:\Temp\The Who\Quadrophenia (1991 MFSL Gold) - Disc 1\05 The Punk Meets The Godfather.wav

Peak level 86.8 %
Track quality 100.0 %
Test CRC 4229DA1E
Copy CRC 4229DA1E
Copy OK

Track 6
Filename D:\Temp\The Who\Quadrophenia (1991 MFSL Gold) - Disc 1\06 I'm One.wav

Peak level 77.1 %
Track quality 100.0 %
Test CRC B1FCA201
Copy CRC B1FCA201
Copy OK

Track 7
Filename D:\Temp\The Who\Quadrophenia (1991 MFSL Gold) - Disc 1\07 The Dirty Jobs.wav

Peak level 82.0 %
Track quality 100.0 %
Test CRC 8B13F565
Copy CRC 8B13F565
Copy OK

Track 8
Filename D:\Temp\The Who\Quadrophenia (1991 MFSL Gold) - Disc 1\08 Helpless Dancer.wav

Peak level 63.6 %
Track quality 100.0 %
Test CRC 9A7771CA
Copy CRC 9A7771CA
Copy OK

Track 9
Filename D:\Temp\The Who\Quadrophenia (1991 MFSL Gold) - Disc 1\09 Is It In My Head.wav

Peak level 84.3 %
Track quality 99.9 %
Test CRC 9B2CDA5C
Copy CRC 9B2CDA5C
Copy OK

Track 10
Filename D:\Temp\The Who\Quadrophenia (1991 MFSL Gold) - Disc 1\10 I've Had Enough.wav

Peak level 77.0 %
Track quality 99.9 %
Test CRC 11D89AE5
Copy CRC 11D89AE5
Copy OK

No errors occured


End of status report
______________________________

Track [ CRC ] Status
01 [83968269] (28/28) Accurately ripped as in pressing(s) #1
02 [a3c93943] (28/28) Accurately ripped as in pressing(s) #1
03 [c88be5c1] (28/28) Accurately ripped as in pressing(s) #1
04 [f87a482d] (28/28) Accurately ripped as in pressing(s) #1
05 [91f356ca] (28/28) Accurately ripped as in pressing(s) #1
06 [ca24d813] (28/28) Accurately ripped as in pressing(s) #1
07 [6f394ea5] (28/28) Accurately ripped as in pressing(s) #1
08 [b0feb9f0] (28/28) Accurately ripped as in pressing(s) #1
09 [2fd3424b] (27/27) Accurately ripped as in pressing(s) #1
10 [4c369e98] (28/28) Accurately ripped as in pressing(s) #1

Track [ CRC32 ] [W/O NULL] [ LOG ]
– [B4B7386C] [9D17F664]
01 [94628D04] [4E0ED1B0] CRC32
02 [75E48FFF] [32E880DB] CRC32
03 [4ACD6D5A] [C1CC442C] CRC32
04 [796F96DB] [94108A3D] CRC32
05 [4229DA1E] [D22C469B] CRC32
06 [B1FCA201] [51EC5899] CRC32
07 [8B13F565] [2A113DCF] CRC32
08 [9A7771CA] [226D35A7] CRC32
09 [9B2CDA5C] [DEE15653] CRC32
10 [11D89AE5] [6AA76FBC] CRC32

********************************************************

EAC extraction logfile from 27. November 2006, 7:55 for CD
The Who / Quadrophenia (1991 MFSL Gold) - Disc 2

Used drive : PLEXTOR CD-R PREMIUM Adapter: 3 ID: 1
Read mode : Secure with NO C2, accurate stream, disable cache
Read offset correction : 30
Overread into Lead-In and Lead-Out : Yes

Used output format : C:\Program Files\Codec\FLAC\flac.exe (User Defined Encoder)
128 kBit/s
Additional command line options : -V -T "Title=%t" -T "Artist=%a" -T "Album=%g" -T "TrackNumber=%n" -T "Date=%y" -T "Genre=%m" %s

Other options :
Fill up missing offset samples with silence : Yes
Delete leading and trailing silent blocks : No
Installed external ASPI interface


Track 1
Filename D:\Temp\The Who\Quadrophenia (1991 MFSL Gold) - Disc 2\01 5-15.wav

Pre-gap length 0:00:02.00

Peak level 85.5 %
Track quality 100.0 %
Test CRC 7AD9193E
Copy CRC 7AD9193E
Copy OK

Track 2
Filename D:\Temp\The Who\Quadrophenia (1991 MFSL Gold) - Disc 2\02 Sea And Sand.wav

Peak level 83.1 %
Track quality 100.0 %
Test CRC 8858880B
Copy CRC 8858880B
Copy OK

Track 3
Filename D:\Temp\The Who\Quadrophenia (1991 MFSL Gold) - Disc 2\03 Drowned.wav

Peak level 83.1 %
Track quality 99.9 %
Test CRC E5B2AC9F
Copy CRC E5B2AC9F
Copy OK

Track 4
Filename D:\Temp\The Who\Quadrophenia (1991 MFSL Gold) - Disc 2\04 Bell Boy.wav

Peak level 79.1 %
Track quality 100.0 %
Test CRC 4ECC0EAF
Copy CRC 4ECC0EAF
Copy OK

Track 5
Filename D:\Temp\The Who\Quadrophenia (1991 MFSL Gold) - Disc 2\05 Doctor Jimmy.wav

Peak level 84.2 %
Track quality 100.0 %
Test CRC E7091409
Copy CRC E7091409
Copy OK

Track 6
Filename D:\Temp\The Who\Quadrophenia (1991 MFSL Gold) - Disc 2\06 The Rock.wav

Peak level 77.3 %
Track quality 100.0 %
Test CRC 5E0E2EBB
Copy CRC 5E0E2EBB
Copy OK

Track 7
Filename D:\Temp\The Who\Quadrophenia (1991 MFSL Gold) - Disc 2\07 Love, Reign O'er Me.wav

Peak level 69.0 %
Track quality 100.0 %
Test CRC 8B005B6C
Copy CRC 8B005B6C
Copy OK

No errors occured


End of status report
______________________________

Track [ CRC ] Status
01 [12199af2] (28/28) Accurately ripped as in pressing(s) #1
02 [3b47edf4] (28/28) Accurately ripped as in pressing(s) #1
03 [ff402ea9] (28/28) Accurately ripped as in pressing(s) #1
04 [8536f38e] (28/28) Accurately ripped as in pressing(s) #1
05 [2f85e7a1] (28/28) Accurately ripped as in pressing(s) #1
06 [36046129] (28/28) Accurately ripped as in pressing(s) #1
07 [99121271] (28/28) Accurately ripped as in pressing(s) #1

Track [ CRC32 ] [W/O NULL] [ LOG ]
– [24649CA6] [06AA8D89]
01 [7AD9193E] [335AA21C] CRC32
02 [8858880B] [D21BE9BF] CRC32
03 [E5B2AC9F] [61362167] CRC32
04 [4ECC0EAF] [AEB1717E] CRC32
05 [E7091409] [A2054465] CRC32
06 [5E0E2EBB] [202E75DD] CRC32
07 [8B005B6C] [B91C5B46] CRC32



–––––––––––––––––––––––––––––––––––


The Who - MFSL Gold Discs Collection [5 albums on 6 CDs] RE-UP

The Who - Who Are You (1978) [MFSL Ultradisc II Gold CD]
EAC-FLAC Image with CUE & LOG - 299 MB | Complete Scans | MP3 CBR 320 Kbps - 111 MB
This CD Released: June 1992 | TT - 48:42 minutes | Label: Mobile Fidelity Sound Lab / Cat. # UDCD 561

allmusic.com says: On the Who's final album with Keith Moon, their trademark honest power started to get diluted by fatigue and a sense that the group's collective vision was beginning to fade. As instrumentalists, their skills were intact. More problematic was the erratic quality of the material, which seemed torn between blustery attempts at contemporary relevance ("Sister Disco," "New Song," "Music Must Change") and bittersweet insecurity ("Love Is Coming Down"). Most problematic of all were the arrangements, heavy on the symphonic synthesizers and strings, which make the record sound cluttered and overanxious. Roger Daltrey's operatic tough-guy braggadocio in particular was beginning to sound annoying on several cuts. Yet Pete Townshend's better tunes – "Music Must Change," "Love Is Coming Down," and the anthemic title track – continued to explore the contradictions of aging rockers in interesting, effective ways. Whether due to Moon's death or not, it was the last reasonably interesting Who record.

Tracks:

01. New Song
02. Had Enough
03. 905
04. Sister Disco
05. Music Must Change
06. Trick Of The Light
07. Guitar And Pen
08. Love Is Coming Down
09. Who Are You
10. Guitar And Pen (Alternate version)

More information @ Wikipedia

EAC extraction logfile from 19. August 2006, 17:36 for CD
The Who / Who Are You (Gold Disc)

Used drive : PLEXTOR CD-R PREMIUM Adapter: 3 ID: 1
Read mode : Secure with NO C2, accurate stream, disable cache
Read offset correction : 30
Overread into Lead-In and Lead-Out : Yes

Used output format : Internal WAV Routines
44.100 Hz; 16 Bit; Stereo

Other options :
Fill up missing offset samples with silence : Yes
Delete leading and trailing silent blocks : No
Native Win32 interface for Win NT & 2000


Range status and errors
Selected range
Filename D:\Ripped MFSL\The Who - Who Are You (1978) [UDCD-561]\The Who - Who Are You (MFSL Gold Disc).wav

Peak level 87.5 %
Range quality 100.0 %
Test F0C54F49
Copy F0C54F49
Copy OK

No errors occured

End of status report

___________________________

Track [ CRC ] Status
01 [67e61dcf] (3/6) Accurately ripped
02 [d48804ef] (3/6) Accurately ripped
03 [5505dbe1] (3/6) Accurately ripped
04 [75308d20] (3/6) Accurately ripped
05 [c4b9fb11] (3/6) Accurately ripped
06 [5ee7dd90] (3/6) Accurately ripped
07 [c2390443] (3/6) Accurately ripped
08 [05f0fb13] (3/6) Accurately ripped
09 [d0660fdd] (3/7) Accurately ripped
10 [15186950] (3/7) Accurately ripped
Offsetted by -6:
01 [e00ec699] (3/6) Accurately ripped
02 [edd5cb1e] (3/6) Accurately ripped
03 [141ab564] (3/6) Accurately ripped
04 [d99d2059] (3/6) Accurately ripped
05 [2d9e226a] (3/6) Accurately ripped
06 [6124431a] (3/6) Accurately ripped
07 [87798b30] (3/6) Accurately ripped
08 [0149ebfe] (3/6) Accurately ripped
09 [b33578a9] (4/7) Accurately ripped
10 [36d9b850] (4/7) Accurately ripped

Track Peak [ CRC32 ] [W/O NULL]
– 87,5 [F0C54F49] [82093026]
01 78,1 [1C7D57A7] [D2678793]
02 87,5 [B821AD54] [9001AF05]
03 78,4 [3CF15C35] [B87F6126]
04 62,2 [E67C93E8] [24A44A03]
05 65,8 [AB939D08] [0F729C7B]
06 65,1 [50F31DEA] [FD1E97A3]
07 66,3 [2D6E8AE3] [9BCEB2BD]
08 65,0 [8DEEB2E2] [EA37F243]
09 86,4 [110C6C59] [BA5C9590]
10 64,9 [DA047BD5] [94D28DC3]


Thanks to the Original ripper(s)!
Tommy (1969) [UDCD 533]
FLAC | Scans incl. | MP3 320

Live At Leeds (1970) [UDCD 755]
FLAC | Scans | MP3 320

Who's Next (1971) [UDCD 754]
FLAC | Scans | MP3 320

Quadrophenia (2CD, 1973) [UDCD 2-550]
FLAC | Scans incl. | MP3 320

Who Are You (1978) [UDCD 561]
FLAC | Scans | MP3 320

Tommy (1969) [UDCD 533]
FLAC | Scans incl. | MP3 320

Live At Leeds (1970) [UDCD 755]
FLAC | Scans | MP3 320

Who's Next (1971) [UDCD 754]
FLAC | Scans | MP3 320

Quadrophenia (2CD, 1973) [UDCD 2-550]
FLAC | Scans incl. | MP3 320

Who Are You (1978) [UDCD 561]
FLAC | Scans | MP3 320