Weather Report - Weather Report (1971)

Posted By: ruskaval
Weather Report - Weather Report (1971)

Weather Report - Weather Report (1971)
EAC rip | FLAC+CUE+LOG -> 237Mb | MP3 @320 -> 91Mb | 40:12
Full artwork | Columbia | Fusion / Jazz-Rock

Weather Report - Weather Report (1971)

One of the most impressive debuts of all time by a jazz group…

One of the most impressive debuts of all time by a jazz group… When a good chunk of Miles Davis' jazz-rock crew left to form what would become Weather Report, few realized that the future of jazz-rock, the progenitor of "fusion," would never be the same. Weather Report spun the organic foundations of be-bop off into outer space, rigged with the galvanic energy of rock and funk, and changed the courses of two genres. WEATHER REPORT isn't exactly a barnburner of a record, and it doesn't transmit amplified power, or even a rock frisson–instead, this imaginative quintet look to rock's fragmented corpus in search of new frontiers. "Milky Way" is a luxurious vamp into the echoes of Zawinul's twin electric piano/organ set-up, while "Seventh Arrow" sets the controls for the heart of the sun, fulfilling the promise of the electric boogaloo of BITCHES BREW and AGHARTA.

Weather Report: Wayne Shorter (soprano saxophone); Joe Zawinul (piano, Fender Rhodes, syntheszier); Miroslav Vitous (acoustic bass); Alphonse Mouzon (drums); Airto Moreira (percussion).

Song Title
1. Milky Way
2. Umbrellas
3. Seventh Arrow
4. Orange Lady
5. Morning Lake
6. Waterfall
7. Tears
8. Eurydice

Weather Report - Weather Report (1971)

Exact Audio Copy V0.99 prebeta 5 from 4. May 2009

EAC extraction logfile from 9. December 2009, 18:14

Weather Report / Weather Report

Used drive : TSSTcorpCD/DVDW TS-H552L Adapter: 3 ID: 0

Read mode : Secure
Utilize accurate stream : Yes
Defeat audio cache : Yes
Make use of C2 pointers : No

Read offset correction : 6
Overread into Lead-In and Lead-Out : No
Fill up missing offset samples with silence : Yes
Delete leading and trailing silent blocks : No
Null samples used in CRC calculations : Yes
Used interface : Native Win32 interface for Win NT & 2000
Gap handling : Appended to previous track

Used output format : User Defined Encoder
Selected bitrate : 1024 kBit/s
Quality : High
Add ID3 tag : No
Command line compressor : C:\Program Files\FLAC\flac.exe
Additional command line options : -6 -V -T "ARTIST=%a" -T "TITLE=%t" -T "ALBUM=%g" -T "DATE=%y" -T "TRACKNUMBER=%n" -T "GENRE=%m" -T "COMMENT=EAC FLAC -6" %s


TOC of the extracted CD

Track | Start | Length | Start sector | End sector
––––––––––––––––––––––––––––-
1 | 0:00.00 | 2:34.05 | 0 | 11554
2 | 2:34.05 | 3:28.10 | 11555 | 27164
3 | 6:02.15 | 5:24.07 | 27165 | 51471
4 | 11:26.22 | 8:44.25 | 51472 | 90796
5 | 20:10.47 | 4:27.10 | 90797 | 110831
6 | 24:37.57 | 6:21.23 | 110832 | 139429
7 | 30:59.05 | 3:27.07 | 139430 | 154961
8 | 34:26.12 | 5:44.45 | 154962 | 180806


Track 1

Filename C:\Weather Report - Weather Report (1971)\01 - Milky Way.wav

Pre-gap length 0:00:02.00

Peak level 96.8 %
Track quality 99.9 %
Test CRC 25B50FF7
Copy CRC 25B50FF7
Accurately ripped (confidence 6) [B072ADB4]
Copy OK

Track 2

Filename C:\Weather Report - Weather Report (1971)\02 - Umbrellas.wav

Pre-gap length 0:00:02.64

Peak level 97.7 %
Track quality 100.0 %
Test CRC F5E9E55D
Copy CRC F5E9E55D
Accurately ripped (confidence 6) [277FDAE4]
Copy OK

Track 3

Filename C:\Weather Report - Weather Report (1971)\03 - Seventh Arrow.wav

Pre-gap length 0:00:02.61

Peak level 97.7 %
Track quality 99.9 %
Test CRC 57566D76
Copy CRC 57566D76
Accurately ripped (confidence 6) [24D54233]
Copy OK

Track 4

Filename C:\Weather Report - Weather Report (1971)\04 - Orange Lady.wav

Pre-gap length 0:00:02.61

Peak level 97.7 %
Track quality 99.9 %
Test CRC 5FFBCCDF
Copy CRC 5FFBCCDF
Accurately ripped (confidence 6) [87EDD4E5]
Copy OK

Track 5

Filename C:\Weather Report - Weather Report (1971)\05 - Morning Lake.wav

Pre-gap length 0:00:02.61

Peak level 81.2 %
Track quality 100.0 %
Test CRC 32FBF3BD
Copy CRC 32FBF3BD
Accurately ripped (confidence 6) [EFD10196]
Copy OK

Track 6

Filename C:\Weather Report - Weather Report (1971)\06 - Waterfall.wav

Pre-gap length 0:00:02.61

Peak level 82.6 %
Track quality 100.0 %
Test CRC E57CCBDA
Copy CRC E57CCBDA
Accurately ripped (confidence 6) [FEF471E3]
Copy OK

Track 7

Filename C:\Weather Report - Weather Report (1971)\07 - Tears.wav

Pre-gap length 0:00:02.61

Peak level 97.7 %
Track quality 100.0 %
Test CRC 5260BF4E
Copy CRC 5260BF4E
Accurately ripped (confidence 6) [097AB184]
Copy OK

Track 8

Filename C:\Weather Report - Weather Report (1971)\08 - Eurydice.wav

Pre-gap length 0:00:02.63

Peak level 97.7 %
Track quality 100.0 %
Test CRC D98CFD11
Copy CRC D98CFD11
Accurately ripped (confidence 6) [B39A806E]
Copy OK


All tracks accurately ripped

No errors occurred

End of status report