Subcategories

Vangelis - Voices (1995) [Repost]

Posted By: Speedyclick
Vangelis - Voices (1995) [Repost]

Vangelis - Voices (1995)
EAC Rip | FLAC (image & cue & log) & mp3 @ 320 kbps | tracks: 9 | Scans | 54:43 | ~ 319 Mb & 147 Mb
Label: East-West | 5% recovery record | Ambient, new age, electronic

Excellent CD composed by Vangelis at 1995. Its music was used in the soundtrack for the 1998 documentary Deep Seas, Deep Secrets co-produced by The Learning Channel and Discovery Channel, together with music from Vangelis next album, Oceanic. Enjoy a masterpiece in lossless.

TRACKLIST
01. Voices (Athens Opera Company)
02. Echoes
03. Come To Me (Caroline Lavelle)
04. P.S.
05. Ask The Mountains (Stina Nordenstam)
06. Prelude
07. Losing Sleep (Still, My Heart - Paul Young)
08. Messages
09. Dream In An Open Place

Exact Audio Copy V0.99 prebeta 5 from 4. May 2009

EAC extraction logfile from 20. February 2011, 0:59

Vangelis / Voices

Used drive : HL-DT-STDVDRAM GP08LU11 Adapter: 3 ID: 1

Read mode : Secure
Utilize accurate stream : Yes
Defeat audio cache : Yes
Make use of C2 pointers : No

Read offset correction : 667
Overread into Lead-In and Lead-Out : No
Fill up missing offset samples with silence : Yes
Delete leading and trailing silent blocks : No
Null samples used in CRC calculations : No
Used interface : Native Win32 interface for Win NT & 2000

Used output format : User Defined Encoder
Selected bitrate : 896 kBit/s
Quality : High
Add ID3 tag : No
Command line compressor : C:\Program Files\FLAC\flac.exe
Additional command line options : -V -5 -T "artist=%a" -T "title=%t" -T "album=%g" -T "date=%y" -T "tracknumber=%n" -T "genre=%m" -5 %s


TOC of the extracted CD

Track | Start | Length | Start sector | End sector
––––––––––––––––––––––––––––-
1 | 0:00.00 | 7:01.38 | 0 | 31612
2 | 7:01.38 | 8:24.70 | 31613 | 69482
3 | 15:26.33 | 4:34.00 | 69483 | 90032
4 | 20:00.33 | 2:06.02 | 90033 | 99484
5 | 22:06.35 | 7:53.10 | 99485 | 134969
6 | 29:59.45 | 4:24.63 | 134970 | 154832
7 | 34:24.33 | 6:42.07 | 154833 | 184989
8 | 41:06.40 | 7:39.60 | 184990 | 219474
9 | 48:46.25 | 5:56.70 | 219475 | 246244


Range status and errors

Selected range

Filename S:\EAC Rips\Vangelis - Voices\Vangelis - Voices.wav

Peak level 97.7 %
Range quality 100.0 %
Test CRC E742E7C6
Copy CRC E742E7C6
Copy OK

No errors occurred


AccurateRip summary

Track 1 accurately ripped (confidence 195) [DD6546F4]
Track 2 accurately ripped (confidence 195) [F62ABA89]
Track 3 accurately ripped (confidence 195) [1E81DB9D]
Track 4 accurately ripped (confidence 195) [25FC0EF1]
Track 5 accurately ripped (confidence 196) [93DAAAA7]
Track 6 accurately ripped (confidence 190) [E7D3C522]
Track 7 accurately ripped (confidence 191) [598A14E4]
Track 8 accurately ripped (confidence 193) [64317EFF]
Track 9 accurately ripped (confidence 191) [153DAB70]

All tracks accurately ripped

End of status report