Vangelis - Reprise 1990-1999 (1999) [Repost]

Posted By: Speedyclick
Vangelis - Reprise 1990-1999 (1999) [Repost]

Vangelis - Reprise 1990-1999 (1999)
EAC Rip | FLAC (image & cue & log) & mp3 @ 320 kbps | tracks: 17 | Scans | 1:06:17 | ~ 378 Mb & 156 Mb
Label: Warner Music | 5% recovery record | Ambient, new age, electronic

The 90's was a very fruitful decade for Vangelis. During this period, he released some of his most popular albums and among them some very successful soundtracks. So, in 1999, just before the millenium, Vangelis released this uplifting album, under the title Reprise 1990-1999, with beautiful selections from all these albums. Enjoy an excellent sampler of Vangelis' music.

TRACKLIST
01. Bon Voyage [from Oceanic (1996)]
02. Dreams Of Surf [from Oceanic (1996)]
03. Opening [from 1492 (1992)]
04. Conquest Of Paradise (Langsamer Walzer) [from 1492 (1992)]
05. Monastery Of La Rabida [from 1492 (1992)]
06. Come To Me [from Voices (1995)]
07. Light And Shadow [from 1492 (1992)]
08. Fields Of Coral [from Oceanic (1996)]
09. 'El Greco' Movement 5
10. 'El Greco' Movement 6
11. West Across The Ocean Sea [from 1492 (1992)]
12. Theme From 'Bitter Moon' [Previously unreleased (1992)]
13. Rachel's Song [from Blade Runner (1994)]
14. 'El Greco' Movement 4
15. Psalmus Ode Theme From 'The Plague' [Previously unreleased (1992)]
16. Dawn [from The City (1990)]
17. Prelude [from Voices (1995)]

Exact Audio Copy V1.0 beta 3 from 29. August 2011

EAC extraction logfile from 19. July 2013, 14:26

Vangelis / 1990 Reprise 1999

Used drive : HL-DT-STDVDRAM GH10N Adapter: 1 ID: 1

Read mode : Secure
Utilize accurate stream : Yes
Defeat audio cache : Yes
Make use of C2 pointers : No

Read offset correction : 667
Overread into Lead-In and Lead-Out : No
Fill up missing offset samples with silence : Yes
Delete leading and trailing silent blocks : No
Null samples used in CRC calculations : Yes
Used interface : Native Win32 interface for Win NT & 2000

Used output format : User Defined Encoder
Selected bitrate : 1024 kBit/s
Quality : High
Add ID3 tag : Yes
Command line compressor : C:\Program Files\Exact Audio Copy New\Flac\flac.exe
Additional command line options : -V -5 -T "artist=%artist%" -T "title=%title%" -T "album=%albumtitle%" -T "tracknumber=%tracknr2%" -T "genre=%genre%" -5 %source%


TOC of the extracted CD

Track | Start | Length | Start sector | End sector
––––––––––––––––––––––––––––-
1 | 0:00.00 | 2:15.55 | 0 | 10179
2 | 2:15.55 | 2:39.42 | 10180 | 22146
3 | 4:55.22 | 0:56.73 | 22147 | 26419
4 | 5:52.20 | 4:42.05 | 26420 | 47574
5 | 10:34.25 | 3:46.65 | 47575 | 64589
6 | 14:21.15 | 4:22.45 | 64590 | 84284
7 | 18:43.60 | 3:48.57 | 84285 | 101441
8 | 22:32.42 | 3:40.03 | 101442 | 117944
9 | 26:12.45 | 3:36.35 | 117945 | 134179
10 | 29:49.05 | 4:47.60 | 134180 | 155764
11 | 34:36.65 | 2:52.25 | 155765 | 168689
12 | 37:29.15 | 3:40.37 | 168690 | 185226
13 | 41:09.52 | 4:28.65 | 185227 | 205391
14 | 45:38.42 | 6:25.10 | 205392 | 234276
15 | 52:03.52 | 4:44.68 | 234277 | 255644
16 | 56:48.45 | 4:37.67 | 255645 | 276486
17 | 61:26.37 | 4:50.43 | 276487 | 298279


Range status and errors

Selected range

Filename S:\MUSIC\Uploaded\SPANIOS\Vangelis - Reprise (1999)\Vangelis - 1990 Reprise 1999.wav

Peak level 99.4 %
Extraction speed 6.0 X
Range quality 99.9 %
Test CRC 93BC2316
Copy CRC 93BC2316
Copy OK

No errors occurred


AccurateRip summary

Track 1 accurately ripped (confidence 11) [4C7DD414] (AR v2)
Track 2 accurately ripped (confidence 11) [A9F5C7AB] (AR v2)
Track 3 accurately ripped (confidence 11) [7FA42DD0] (AR v2)
Track 4 accurately ripped (confidence 11) [37F19C84] (AR v2)
Track 5 accurately ripped (confidence 11) [DF5D2902] (AR v2)
Track 6 accurately ripped (confidence 11) [9EECC426] (AR v2)
Track 7 accurately ripped (confidence 11) [5FD5F17A] (AR v2)
Track 8 accurately ripped (confidence 11) [E3BDBCEC] (AR v2)
Track 9 accurately ripped (confidence 11) [464F63BB] (AR v2)
Track 10 accurately ripped (confidence 11) [EEA766E6] (AR v2)
Track 11 accurately ripped (confidence 11) [0821F4F8] (AR v2)
Track 12 accurately ripped (confidence 11) [ACA18808] (AR v2)
Track 13 accurately ripped (confidence 11) [967D4985] (AR v2)
Track 14 accurately ripped (confidence 11) [7407E96D] (AR v2)
Track 15 accurately ripped (confidence 11) [C2108BA9] (AR v2)
Track 16 accurately ripped (confidence 11) [04D93217] (AR v2)
Track 17 accurately ripped (confidence 11) [4F4536C7] (AR v2)

All tracks accurately ripped

End of status report

–– CUETools DB Plugin V2.1.3

[CTDB TOCID: 3ZkaCZhiLDjltqhaj7bSNjuEzDw-] found, Submit result: 3ZkaCZhiLDjltqhaj7bSNjuEzDw- has been confirmed
[fe252f89] (145/153) Accurately ripped
[1a227fc1] (001/153) No match
[46d68f1d] (001/153) No match
[95d7be6e] (001/153) No match
[ebcd45e7] (001/153) No match
[16701939] (001/153) No match
[571bf35d] (001/153) No match
[6446f3f6] (001/153) No match
[d3ebfdef] (001/153) No match


==== Log checksum 835BFD0EA8036FCD9F5FBC6FCCD22C1EF54F7D88E96EACA042E271D2AE00222A ====