Subcategories

VA - Rolling Stone Rare Trax Vol. 49 - Out Of Texas: Songs From The Big Sky Country (2007)

Posted By: luckburz
VA - Rolling Stone Rare Trax Vol. 49 - Out Of Texas: Songs From The Big Sky Country (2007)

VA - Rolling Stone Rare Trax Vol. 49 - Out Of Texas: Songs From The Big Sky Country
EAC+LOG+CUE | FLAC: 274 MB | Full Artwork | 5% Recovery Info
Label/Cat#: None, Promo | Country/Year: Germany 2007
Genre: Rock | Style: Alternative Rock, Blues Rock, Pop Rock

MD5 [X] CUE [X] LOG [X] INFO TEXT [X] ARTWORK [X]

selfrip [X] not my rip []

VA - Rolling Stone Rare Trax Vol. 49 - Out Of Texas: Songs From The Big Sky Country (2007)


Exact Audio Copy V1.0 beta 3 from 29. August 2011

EAC extraction logfile from 3. July 2013, 16:17

RSRT Various / Vol. 49: Out Of Texas

Used drive : PLEXTOR CD-R PX-W1210A Adapter: 1 ID: 0

Read mode : Secure
Utilize accurate stream : Yes
Defeat audio cache : Yes
Make use of C2 pointers : No

Read offset correction : 99
Overread into Lead-In and Lead-Out : No
Fill up missing offset samples with silence : Yes
Delete leading and trailing silent blocks : No
Null samples used in CRC calculations : Yes
Used interface : Native Win32 interface for Win NT & 2000

Used output format : User Defined Encoder
Selected bitrate : 1024 kBit/s
Quality : High
Add ID3 tag : Yes
Command line compressor : C:\Program Files\FLAC\flac.exe
Additional command line options : -5 -T "Artist=%artist%" -T "Title=%title%" -T "Album=%albumtitle%" -T "Date=%year%" -T "Tracknumber=%tracknr%" -T "Genre=%genre%" %source% -o %dest%


TOC of the extracted CD

Track | Start | Length | Start sector | End sector
––––––––––––––––––––––––––––-
1 | 0:00.00 | 4:02.25 | 0 | 18174
2 | 4:02.25 | 5:03.11 | 18175 | 40910
3 | 9:05.36 | 2:26.20 | 40911 | 51880
4 | 11:31.56 | 4:42.47 | 51881 | 73077
5 | 16:14.28 | 4:47.30 | 73078 | 94632
6 | 21:01.58 | 3:13.69 | 94633 | 109176
7 | 24:15.52 | 4:34.17 | 109177 | 129743
8 | 28:49.69 | 3:38.46 | 129744 | 146139
9 | 32:28.40 | 6:20.19 | 146140 | 174658
10 | 38:48.59 | 4:20.66 | 174659 | 194224


Range status and errors

Selected range

Filename F:\=== VINYL RIPS ===\=== EAC===\X FRESH RIP\Rare Trax - Vol. 49 - Out Of Texas.wav

Peak level 100.0 %
Extraction speed 3.3 X
Range quality 99.9 %
Copy CRC 821EA5AD
Copy OK

No errors occurred


AccurateRip summary

Track 1 accurately ripped (confidence 2) [D7162CE6] (AR v2)
Track 2 accurately ripped (confidence 2) [B5286433] (AR v2)
Track 3 accurately ripped (confidence 2) [ECF6395A] (AR v2)
Track 4 accurately ripped (confidence 2) [8CDA3F64] (AR v2)
Track 5 accurately ripped (confidence 2) [A339E91F] (AR v2)
Track 6 accurately ripped (confidence 2) [10A0DE23] (AR v2)
Track 7 accurately ripped (confidence 2) [8AE708ED] (AR v2)
Track 8 accurately ripped (confidence 2) [8FF0ADEC] (AR v2)
Track 9 accurately ripped (confidence 2) [B5393F13] (AR v2)
Track 10 accurately ripped (confidence 2) [5376ED08] (AR v2)

All tracks accurately ripped

End of status report

–– CUETools DB Plugin V2.1.3

[CTDB TOCID: PJk0koPvGZBmUybB5qcgMUSdZpI-] found, Submit result: PJk0koPvGZBmUybB5qcgMUSdZpI- has been confirmed
[8704a3a9] (1/1) Accurately ripped


==== Log checksum FB34FEA7FF483C5311166CA07D3A8B4F3D8EA793D26A0A5409379C2E2358B3DA ====

foobar2000 1.1.14a / Dynamic Range Meter 1.1.1
log date: 2013-07-04 08:33:19

––––––––––––––––––––––––––––––––––––––––
Statistics for: 05-Slip
Number of samples: 12674340
Duration: 4:47
––––––––––––––––––––––––––––––––––––––––

Left Right

Peak Value: -0.20 dB –- -0.20 dB
Avg RMS: -10.12 dB –- -10.23 dB
DR channel: 7.50 dB –- 7.83 dB
––––––––––––––––––––––––––––––––––––––––

Official DR Value: DR8

Samplerate: 44100 Hz
Channels: 2
Bits per sample: 16
Bitrate: 841 kbps
Codec: FLAC
================================================================================


foobar2000 1.1.14a / Dynamic Range Meter 1.1.1
log date: 2013-07-04 08:33:23

––––––––––––––––––––––––––––––––––––––––
Analyzed: Calvin Russell / Vol. 49: Out Of Texas (1)
Chris Whitley / Vol. 49: Out Of Texas (2)
Guy Clark / Vol. 49: Out Of Texas (3)
James McMurtry / Vol. 49: Out Of Texas (4)
––––––––––––––––––––––––––––––––––––––––

DR Peak RMS Duration Track
––––––––––––––––––––––––––––––––––––––––
DR9 0.00 dB -10.70 dB 5:03 02-Mr. Mudd And Mr. Gold
DR8 -0.19 dB -9.89 dB 4:43 04-Big Sky Country
DR9 0.00 dB -12.59 dB 3:14 06-Instant Coffee Blues
DR9 -1.20 dB -11.71 dB 4:21 10-Out Here In The Middle
––––––––––––––––––––––––––––––––––––––––

Number of tracks: 4
Official DR value: DR9

Samplerate: 44100 Hz
Channels: 2
Bits per sample: 16
Bitrate: 841 kbps
Codec: FLAC
================================================================================

––––––––––––––––––––––––––––––––––––––––
Statistics for: 07-No Time To Live
Number of samples: 12093396
Duration: 4:34
––––––––––––––––––––––––––––––––––––––––

Left Right

Peak Value: -0.60 dB –- -0.60 dB
Avg RMS: -10.85 dB –- -11.72 dB
DR channel: 7.51 dB –- 8.72 dB
––––––––––––––––––––––––––––––––––––––––

Official DR Value: DR8

Samplerate: 44100 Hz
Channels: 2
Bits per sample: 16
Bitrate: 841 kbps
Codec: FLAC
================================================================================
––––––––––––––––––––––––––––––––––––––––
Analyzed: Roky Erickson / Vol. 49: Out Of Texas (1)
Sir Douglas Quintet / Vol. 49: Out Of Texas (2)
––––––––––––––––––––––––––––––––––––––––

DR Peak RMS Duration Track
––––––––––––––––––––––––––––––––––––––––
DR8 -1.50 dB -10.00 dB 2:26 03-I Am
DR9 -0.16 dB -11.79 dB 3:39 08-If This Ain't Love
––––––––––––––––––––––––––––––––––––––––

Number of tracks: 2
Official DR value: DR8

Samplerate: 44100 Hz
Channels: 2
Bits per sample: 16
Bitrate: 841 kbps
Codec: FLAC
================================================================================

––––––––––––––––––––––––––––––––––––––––
Analyzed: Steve Earle / Vol. 49: Out Of Texas (1)
Terry Allen / Vol. 49: Out Of Texas (2)
––––––––––––––––––––––––––––––––––––––––

DR Peak RMS Duration Track
––––––––––––––––––––––––––––––––––––––––
DR6 -1.50 dB -8.44 dB 4:02 01-Ashes To Ashes
DR10 0.00 dB -11.91 dB 6:20 09-The Doll
––––––––––––––––––––––––––––––––––––––––

Number of tracks: 2
Official DR value: DR8

Samplerate: 44100 Hz
Channels: 2
Bits per sample: 16
Bitrate: 841 kbps
Codec: FLAC
================================================================================



CD Info:

Vol. 49 - Out Of Texas - Songs From The Big Sky Country

Released: Jan 2007
Genre: Rock
Style: Alternative Rock, Blues Rock, Pop Rock, Country Rock

Tracklist:

1 Steve Earle – Ashes To Ashes 4:04
2 Calvin Russell – Mr. Mudd And Mr. Gold 5:10
3 Roky Erickson – I Am 2:30
4 Chris Whitley – Big Sky Country 4:47
5 Alejandro Escovedo – Slip 4:49
6 Guy Clark – Instant Coffee Blues 3:19
7 Johnny Winter – No Time To Live 4:38
8 Sir Douglas Quintet – If This Ain't Love 3:40
9 Terry Allen – The Doll 6:22
10 James McMurtry – Out Here In The Middle 4:21

Released with issue 01/07 of German "Rolling Stone" magazine in cardboard sleeve.



01 - Rare Trax - Unreleased Material & Collector's Items
02 - Guess Who? Coole Coverversionen, die keiner kennt
03 - Der andere Soundtrack: Coole Filmmusik-Versionen
04 - Sing This All Together (See What Happens) - Stones Songs relativ cool gecovert
05 - Summer In The City
06 - Blues Today
07 - Perlen der frühen Pop Musik
08 - Unerhört! Die Heimlichen Hits von 98
09 - Black & White Beatz

10 - Version 1.0 - Ohrwürmer im Original
11 - Sweet Soul Music
12 - Let's Swing
13 - Helter Skelter
14 - Brasilectric
15 - Dub And Beyond: Jamaican Traditions In Modern Sounds
16 - Deep Throat - von Robert Mitchum bis Lee Marvin: Moviestars am Mikrophon
17 - East Meets West: A Journey Into Asian Groove
18 - Electricity
19 - Barrio Latino: New Cuban-Flavoured Club Tunes

20 - Junglefever: Modern Vibes From The Tribes
21 - This is Soul - Black Music From The 70's Till Today
22 - 12 Golden Greats - Songperlen die die Welt vergaß
23 - Funk Off! Black Grooves From The 70's
24 - First Wave Part One: 14 Post-Punk Greats
25 - First Wave Part Two: 14 Pre & Post Punk Greats
26 - Jamaican Gold: 15 Original Reggea Rockers
27 - Blow Your Mind: Schwarze Songs aus der Drogerie
28 - Blow Your Mind² - White Punks On Dope
29 - Funk Around The Jazz

30 - Nailed To The Dancefloor: The Other Side Of Disco
31 - The French Connection: Pop aus Frankreich von Gestern bis Heute
32 - Eight Miles High: US Psychedelic Underground from the 60's & 70's
33 - Nine Miles High: British Psychedelia from the 60's & 70's
34 - Quality Kraut
35 - The British Progressive Blues Experiment: The Early Days Of Blues-Rock
36 - Going Down The River: Songs vom Mississippi Delta
37 - Boys Will Be Girls: The Roots Of Britpop
38 - Americana Vol. 1: The Early Years 1980-1994
39 - Born On the Bayou: Music From Cajun Country

40 - Americana Vol. 2: The Later Years 1980-2005
41 - Clouds Like Sugar: Shoegazing & Dream Pop
42 - Girls, Girrls, Grrls: Female-Fronted Post-Punk
43 - Americana Vol. 3
44 - The Dark Stuff: Music From Industrial Cities
45 - Hear This Robert Zimmerman: A Birthday Tribute
46 - Brasilectric Vol. 2
47 - Another Time Another Planet - A Journey Into A Far-Out Sound
48 - Freak Folk: Die neue Schule der Empfindsamkeit
49 - Out Of Texas: Songs From The Big Sky Country

50 - Fuzz Tones: US-Garage-Rock From The Sixties, Seventies & Eighties
51 - Darkness On The Edge Of Town - Alternative Hardcore From The 80's
52 - White Men Can Dub - Roots Rock in a Jamaican Style
53 - Cuba Latina
54 - Discover America
55 - R&B Jukebox - Schwarze Roots Für Weissen Rock
56 - This Is Not A Folk Song
57 - Lonesome Riders - Von Wichita Nach Hollywood ‎
58 - Let There Be Drums
59 - Alien Soundtracks

60 - Allez Pop!
61 - A Northern Affair
62 - The Eclectic Kool Aid Sound Spectacle
63 - Von Burg Waldeck Zum Goldenen Pudel
64 - The Song Remains Not The Same - 10 Songs, die Sie so noch nicht kannten
65 - Decade 00
66 - No Bling Bling
67 - Planet Pop
68 - Township Slang
69 - Kunst & Künstlichkeit - Deutsche Elektronik zwischen Krautrock und Post-Techno

70 - Attacke vom Planeten Venus - Girls empowered by Punk
71 - Round Midnight - A Compilation Of Quiet Songs
72 - It Ain´t Me, Babe - Bob Dylan - Die Besten Cover-Versionen Von
73 - Gentle Waves of Sound - Shoegaze & Dream Pop
74 - Rare TV-Trax - Die besten Songs aus den besten Serien
75 - Caught by the Fuzz - 50 Jahre Garage-Rock
76 - Kick & Rush - 10 eigenwillige Songs über Fußball
77 - Rare Wave Tracks
78 - Lost & Found - 10 neu entdeckte Schätze
79 - Soulful Nuggets - Von Folk Bis Funk - 10 Neu Entdeckte Schätze ‎
80 - Red Trax: Highlights aus dem Archiv Cherry Red Records
81 - Live & Exklusiv

XX - Rare Trax Special - DVD "Beat Club"


VA - Rolling Stone Rare Trax Vol. 49 - Out Of Texas: Songs From The Big Sky Country (2007)


all of my uploads in my blog
________________

Download:

Music & Artwork
________________