Various Artists - Blaxploitation. The Sequel (1997) [2CD] {Global}

Posted By: ruskaval
Various Artists - Blaxploitation. The Sequel (1997) [2CD] {Global}

Various Artists - Blaxploitation. The Sequel (1997) [2CD] {Global}
EAC rip (secure mode) | FLAC (tracks)+CUE+LOG -> 967 Mb | MP3 @320 -> 347 Mb
Full Artwork @ 300 dpi (png) -> 33 Mb | 5% repair rar
© 1997 Global Television / BMG | RADCD54
Jazz / Funk / Soul / Fusion

Since the first volume of Blaxploitation used most of the obvious picks for this kind of compilation, the compilers of this volume are left free to make plenty of fresh choices. As a result, Blaxploitation, Vol. 2: The Sequel boasts plenty of enticing rarities like "Let's Clean Up the Ghetto" by the Philadelphia All-Stars, a funky message tune voiced by a collection of the stars from the Philadelphia-International label (including Lou Rawls and Teddy Pendergrass). Another fine rarity is the album-length version of the Temptations' classic "Papa Was a Rollin' Stone": At 11-plus minutes, this slickly orchestrated slice of ghetto realism plays out like an urban symphony.
Various Artists - Blaxploitation. The Sequel (1997) [2CD] {Global}

Ample room is also given to instrumental excursions with a jazz-funk twist, two of the standout choices being the Herbie Hancock classic "Chameleon" and the more obscure "24 Carat Black Theme" by the Stax Records album group 24 Carat Black. Another notable track in this instrumental vein is Grover Washington's epic reinterpretation of the Temptations' classic "Masterpiece," which effectively pits a wordless chorus and a lush orchestral arrangement against an unrelenting groove laid down by the rhythm section. Like the first volume of this series, Blaxploitation, Vol. 2: The Sequel could use better sequencing: If the vocal and instrumental cuts were alternated with greater frequency, they might pack a stronger punch. This volume also lacks the fun liner notes that graced the first one. These caveats aside, Blaxploitation, Vol. 2: The Sequel remains a fine collection of soul tracks that will find favor with hardcore soul music enthusiasts.

tracklist:
Disc 1:

01 - Little Child Runnin' Wild - Curtis Mayfield
02 - Papa Was a Rollin' Stone - The Temptations
03 - Trouble Man - Grover Washington
04 - The Boss - James Brown
05 - (I Got) So Much Trouble in My Mind - Sir Joe Quarterman
06 - Superstition - Quincy Jones
07 - Children's World - Maceo Parker
08 - Celestial Blues - Gary Bartz Ntu Troop
09 - Liberation Conversation - Marlena Shaw
10 - Family Affair - Sly & the Family Stone
11 - Do Your Thing - Isaac Hayes
12 - The Ghetto '74 - Leroy Hutson

Disc 2:
01 - Let's Clean Up the Ghetto - Philadelphia International All Stars
02 - Masterpiece - Grover Washington
03 - 24 Carat Black - 24-Carat Black
04 - Freddie's Dead - Curtis Mayfield
05 - From a Whisper to a Scream - Esther Phillips
06 - Use Me - Bill Withers
07 - Low Rider - War
08 - Got to Give It Up - Marvin Gaye
09 - Chameleon - Herbie Hancock
10 - Wake up Everybody - Harold Melvin & the Blue Notes

Exact Audio Copy V0.99 prebeta 4 from 23. January 2008

EAC extraction logfile from 22. July 2008, 23:45

Various / Blaxploitation - The Sequel (Disc 1 of 2)

Used drive : TSSTcorpCDDVDW TS-H653N Adapter: 2 ID: 2

Read mode : Secure
Utilize accurate stream : Yes
Defeat audio cache : Yes
Make use of C2 pointers : No

Read offset correction : 6
Overread into Lead-In and Lead-Out : No
Fill up missing offset samples with silence : Yes
Delete leading and trailing silent blocks : No
Null samples used in CRC calculations : Yes
Used interface : Installed external ASPI interface
Gap handling : Appended to previous track

Used output format : User Defined Encoder
Selected bitrate : 160 kBit/s
Quality : High
Add ID3 tag : No
Command line compressor : C:\Program Files\FLAC\flac.exe
Additional command line options : -8 -V -T "ARTIST=%a" -T "TITLE=%t" -T "ALBUM=%g" -T "DATE=%y" -T "TRACKNUMBER=%n" -T "GENRE=%m" -T "COMMENT=EAC FLAC -8" %s


TOC of the extracted CD

Track | Start | Length | Start sector | End sector
––––––––––––––––––––––––––––-
1 | 0:00.00 | 5:24.55 | 0 | 24354
2 | 5:24.55 | 11:47.27 | 24355 | 77406
3 | 17:12.07 | 7:07.60 | 77407 | 109491
4 | 24:19.67 | 3:13.50 | 109492 | 124016
5 | 27:33.42 | 6:17.73 | 124017 | 152364
6 | 33:51.40 | 3:54.12 | 152365 | 169926
7 | 37:45.52 | 10:47.58 | 169927 | 218509
8 | 48:33.35 | 7:32.32 | 218510 | 252441
9 | 56:05.67 | 2:03.38 | 252442 | 261704
10 | 58:09.30 | 3:04.67 | 261705 | 275571
11 | 61:14.22 | 11:23.13 | 275572 | 326809
12 | 72:37.35 | 4:26.40 | 326810 | 346799


Track 1

Filename G:\01 - Curtis Mayfield - Little Child Running Wild.wav

Pre-gap length 0:00:02.00

Peak level 100.0 %
Track quality 99.9 %
Test CRC EC3D1DA5
Copy CRC EC3D1DA5
Cannot be verified as accurate (confidence 3) [CD7302F0], AccurateRip returned [E893D23C]
Copy OK

Track 2

Filename G:\02 - The Temptations - Papa Was A Rollin' Stone.wav

Pre-gap length 0:00:02.64

Peak level 100.0 %
Track quality 100.0 %
Test CRC 0E23002D
Copy CRC 0E23002D
Cannot be verified as accurate (confidence 3) [AFC26A30], AccurateRip returned [7E47D194]
Copy OK

Track 3

Filename G:\03 - Grover Washington Jr - Trouble Man.wav

Pre-gap length 0:00:02.26

Peak level 99.9 %
Track quality 100.0 %
Test CRC 48ADB811
Copy CRC 48ADB811
Cannot be verified as accurate (confidence 3) [05011E39], AccurateRip returned [7184A251]
Copy OK

Track 4

Filename G:\04 - James Brown - The Boss.wav

Pre-gap length 0:00:01.96

Peak level 100.0 %
Track quality 100.0 %
Test CRC CAAE97E7
Copy CRC CAAE97E7
Cannot be verified as accurate (confidence 3) [33BE36C4], AccurateRip returned [A6B59D7C]
Copy OK

Track 5

Filename G:\05 - Joe Quarterman & Free Soul - I Got So Much Trouble In My Mind.wav

Pre-gap length 0:00:02.49

Peak level 100.0 %
Track quality 100.0 %
Test CRC 40B4E2C3
Copy CRC 40B4E2C3
Cannot be verified as accurate (confidence 3) [DF2D00CC], AccurateRip returned [E897F3B0]
Copy OK

Track 6

Filename G:\06 - Quincy Jones - Superstition.wav

Pre-gap length 0:00:02.26

Peak level 100.0 %
Track quality 100.0 %
Test CRC 9AA92FAF
Copy CRC 9AA92FAF
Cannot be verified as accurate (confidence 3) [2A91CA23], AccurateRip returned [73B74C5D]
Copy OK

Track 7

Filename G:\07 - Maceo Parker - Childrens World.wav

Pre-gap length 0:00:01.60

Peak level 100.0 %
Track quality 100.0 %
Test CRC 836B1B54
Copy CRC 836B1B54
Cannot be verified as accurate (confidence 3) [7768F5A5], AccurateRip returned [89BD6FF5]
Copy OK

Track 8

Filename G:\08 - Gary Bartz Ntu Troop - Celestial Blues.wav

Pre-gap length 0:00:01.26

Peak level 100.0 %
Track quality 100.0 %
Test CRC ACFF4E91
Copy CRC ACFF4E91
Cannot be verified as accurate (confidence 3) [A38F8F69], AccurateRip returned [DDBF2375]
Copy OK

Track 9

Filename G:\09 - Marlena Shaw - Liberation Conversation.wav

Pre-gap length 0:00:01.82

Peak level 99.9 %
Track quality 99.9 %
Test CRC AED60435
Copy CRC AED60435
Cannot be verified as accurate (confidence 3) [34AA2BA9], AccurateRip returned [777016BB]
Copy OK

Track 10

Filename G:\10 - Sly & The Family Stone - Family Affair.wav

Pre-gap length 0:00:01.97

Peak level 100.0 %
Track quality 100.0 %
Test CRC 6CA69024
Copy CRC 6CA69024
Cannot be verified as accurate (confidence 3) [569ACF9B], AccurateRip returned [5FE74603]
Copy OK

Track 11

Filename G:\11 - Isaac Hayes - Do Your Thing.wav

Pre-gap length 0:00:02.20

Peak level 100.0 %
Track quality 100.0 %
Test CRC 0EC14158
Copy CRC 0EC14158
Cannot be verified as accurate (confidence 3) [7CD38958], AccurateRip returned [27259CF4]
Copy OK

Track 12

Filename G:\12 - Leroy Hutson - The Ghetto '74.wav

Peak level 96.1 %
Track quality 100.0 %
Test CRC 1F87D5C4
Copy CRC 1F87D5C4
Cannot be verified as accurate (confidence 3) [AEB8BDC6], AccurateRip returned [BE852462]
Copy OK


No tracks could be verified as accurate
You may have a different pressing from the one(s) in the database

No errors occurred

End of status report

Exact Audio Copy V0.99 prebeta 4 from 23. January 2008

EAC extraction logfile from 23. July 2008, 12:39

Various / Blaxploitation - The Sequel - Disc 2 of 2

Used drive : TSSTcorpCDDVDW TS-H653N Adapter: 2 ID: 2

Read mode : Secure
Utilize accurate stream : Yes
Defeat audio cache : Yes
Make use of C2 pointers : No

Read offset correction : 6
Overread into Lead-In and Lead-Out : No
Fill up missing offset samples with silence : Yes
Delete leading and trailing silent blocks : No
Null samples used in CRC calculations : Yes
Used interface : Installed external ASPI interface
Gap handling : Appended to previous track

Used output format : User Defined Encoder
Selected bitrate : 160 kBit/s
Quality : High
Add ID3 tag : No
Command line compressor : C:\Program Files\FLAC\flac.exe
Additional command line options : -8 -V -T "ARTIST=%a" -T "TITLE=%t" -T "ALBUM=%g" -T "DATE=%y" -T "TRACKNUMBER=%n" -T "GENRE=%m" -T "COMMENT=EAC FLAC -8" %s


TOC of the extracted CD

Track | Start | Length | Start sector | End sector
––––––––––––––––––––––––––––-
1 | 0:00.00 | 8:36.32 | 0 | 38731
2 | 8:36.32 | 13:16.65 | 38732 | 98496
3 | 21:53.22 | 7:14.53 | 98497 | 131099
4 | 29:08.00 | 5:27.40 | 131100 | 155664
5 | 34:35.40 | 4:23.42 | 155665 | 175431
6 | 38:59.07 | 3:42.58 | 175432 | 192139
7 | 42:41.65 | 3:12.70 | 192140 | 206609
8 | 45:54.60 | 4:09.45 | 206610 | 225329
9 | 50:04.30 | 15:32.67 | 225330 | 295296
10 | 65:37.22 | 3:37.58 | 295297 | 311629


Track 1

Filename G:\01 - The Philadelphia All Stars - Let's Clean Up The Ghetto.wav

Pre-gap length 0:00:02.00

Peak level 100.0 %
Track quality 100.0 %
Test CRC 9EC1CE1C
Copy CRC 9EC1CE1C
Cannot be verified as accurate (confidence 4) [372817CF], AccurateRip returned [E238D2FE]
Copy OK

Track 2

Filename G:\02 - Grover Washington Jr - Masterpiece.wav

Pre-gap length 0:00:01.60

Peak level 100.0 %
Track quality 100.0 %
Test CRC C0C3230F
Copy CRC C0C3230F
Cannot be verified as accurate (confidence 4) [285F2A32], AccurateRip returned [75F0E272]
Copy OK

Track 3

Filename G:\03 - The 24 Carat Black - 24 Carat Black.wav

Pre-gap length 0:00:02.26

Peak level 100.0 %
Track quality 100.0 %
Test CRC A4821C0D
Copy CRC A4821C0D
Cannot be verified as accurate (confidence 4) [0DF064B6], AccurateRip returned [89154769]
Copy OK

Track 4

Filename G:\04 - Curtis Mayfield - Freddie's Dead.wav

Pre-gap length 0:00:02.10

Peak level 100.0 %
Track quality 100.0 %
Test CRC DED2A18F
Copy CRC DED2A18F
Cannot be verified as accurate (confidence 4) [71224239], AccurateRip returned [510C1028]
Copy OK

Track 5

Filename G:\05 - Esther Phillips - From A Whisper To A Scream.wav

Pre-gap length 0:00:01.84

Peak level 100.0 %
Track quality 100.0 %
Test CRC D77B42C9
Copy CRC D77B42C9
Cannot be verified as accurate (confidence 4) [E0F3F03B], AccurateRip returned [11C2142E]
Copy OK

Track 6

Filename G:\06 - Bill Withers - Use Me.wav

Pre-gap length 0:00:02.13

Peak level 100.0 %
Track quality 100.0 %
Test CRC 37045183
Copy CRC 37045183
Cannot be verified as accurate (confidence 4) [9F9B25B7], AccurateRip returned [FB0964C6]
Copy OK

Track 7

Filename G:\07 - War - Low Rider (On The Boulevard).wav

Pre-gap length 0:00:02.06

Peak level 100.0 %
Track quality 99.9 %
Test CRC 1E6A4A74
Copy CRC 1E6A4A74
Cannot be verified as accurate (confidence 4) [5176C07E], AccurateRip returned [7ABD0B24]
Copy OK

Track 8

Filename G:\08 - Marvin Gaye - Got To Give It Up.wav

Pre-gap length 0:00:02.46

Peak level 100.0 %
Track quality 100.0 %
Test CRC FF14BA2B
Copy CRC FF14BA2B
Cannot be verified as accurate (confidence 4) [387F90BA], AccurateRip returned [C47016FF]
Copy OK

Track 9

Filename G:\09 - Herbie Hancock - Chameleon.wav

Pre-gap length 0:00:02.26

Peak level 100.0 %
Track quality 99.9 %
Test CRC 1CDF5CBC
Copy CRC 1CDF5CBC
Cannot be verified as accurate (confidence 4) [E03637BC], AccurateRip returned [E34B2106]
Copy OK

Track 10

Filename G:\10 - Harold Melvin & The Bluenotes - Wake Up Everybody.wav

Pre-gap length 0:00:01.93

Peak level 99.9 %
Track quality 100.0 %
Test CRC 8E0844CB
Copy CRC 8E0844CB
Cannot be verified as accurate (confidence 4) [7C25C2CB], AccurateRip returned [FF3FC41B]
Copy OK


No tracks could be verified as accurate
You may have a different pressing from the one(s) in the database

No errors occurred

End of status report


Various Artists - Blaxploitation. The Sequel (1997) [2CD] {Global}

Various Artists - Blaxploitation. The Sequel (1997) [2CD] {Global}


All thanks goes to the original releaser!

More Blaxploitation:
Various Artists - Blaxploitation. Soul Jazz & Funk From The Inner City (1996) [2CD] {Global}
Various Artists - Blaxploitation. Harlem Hustle (1998) [2CD] {Global}


NEXT -> Various Artists - Blaxploitation. The Payback (1997) [2CD] {Global}