Subcategories

VA - Saint-Germain Des-Pres Cafe Paris (Limited Edition 10 CD boxset)

Posted By: FLESH
VA - Saint-Germain Des-Pres Cafe Paris (Limited Edition 10 CD boxset)

VA - Saint-Germain Des-Pres Cafe Paris (Limited Edition 10 CD boxset)
Electronic, Trip Hop, Broken Beat, Future Jazz, Downtempo, Jazzdance
FLAC [track]+cue+log | 4.5 Gb | Covers
Label: Wagram | Catalog#: 3126672 | Country: France | Released: 2007

Special Limited Edition 10 CD box featuring the finest selection of Nu-Jazz in the world. The 150 songs and/or mixes contained in this set are exclusive to Saint-Germain Des-Pres Cafe including cuts from Alex Gopher, Bebel Gilberto, De Phazz, Diana Krall, Norah Jones, Dimitri Fro Paris, DJ Food, Funki Porcini, Gotan Project, Jazzanova, Kruder & Dorfmeister, Koop, Terry Callier, Quantic and many others.
Tracklist

CD 1
1. Club Des Belugas - Wildcats Gotta Move (5:25)
2. Bobby Hughes Combination feat Karin Krog - Karins Kerma (5:10)
3. Alex Gopher - The Child (4:32)
4. Belleruche - Minor Swing (3:57)
5. De-Phazz - Jazz Music (3:35)
6. Zimpala - Doo You Bop (5:24)
7. The Bamboos - Happy (3:54)
8. Quantic - Mishaps Happening (Prins Thomas Edit) (6:13)
9. Jamie Cullum - Well You Needn't (3:17)
10. Earl Zinger - Escape From Ibiza (Original Mix) (3:39)
11. Quasimode - Oneself - Likeness (5:54)
12. Diana Krall - As Long As I Live (4:38)
13. Music Nuda (Petra Magoni and Ferruccio Spinetti) - Like A Virgin (2:49)
14. The Cinematic Orchestra feat. Fontella Bass - Evolution (6:33)
15. Terry Callier - Speak Your Peace (4:19)

CD 2
1. Bugge Wesseltoft - Eve Nin (Les Gammas Remix) (6:11)
2. Bobby Hughes Combination - Microneseren (5:58)
3. Paolo Fedreghini & Marco Bianchi feat Sahib Shibab - Please Don't Leave (The Essential Mix) (5:52)
4. Alif Tree - Forgotten Places (4:45)
5. Tok Tok Tok - Get Away (6:23)
6. Wei-Chi - Heaven (5:52)
7. Reminiscence Quartet - Jazz Thing (4:01)
8. S-Tone Inc - Dreamer (5:17)
9. Metropolitan Jazz Affair - Bird Of Spring (5:23)
10. Micatone - Shake It Baby (4:41)
11. Kinny & Horne - Why Me (3:21)
12. The Dinning Roms - No Problems (7 Samurai Instrumental Remix) (4:43)
13. Timo Lassy - Sweet Spot (4:05)
14. Beady Belle - Irony (6:04)
15. Beat Assailant feat Tash - Chronik Break (5:14)

CD 3
1. Jazzanova - Tres Bien (7:27)
2. Soulstance - Eclipse (5:52)
3. Rosalia De Souza & Marcos Valle - Que Bandeira (2:52)
4. Victor Davies - Better Place (4:26)
5. Sylvain Luc & Bireli Lagrene - Isn't She Lovely (3:58)
6. TM Juke feat Sophie Faricy - Come Away (8:01)
7. Balanco - Metti Una Sera A Cena (Jazzanova Mix) (6:17)
8. Club Des Belugas - Hip Hip Chin Chin (Yaziko Club Mix) (5:33)
9. Diesler feat Laura Vane - A Little Something (Gerardo Frisina Mix) (6:12)
10. Gotan Project - Una Musica Brutal (4:00)
11. The Dining Rooms - Tunnel (The Dining Rooms Rework) (4:42)
12. Elisabeth Kontomanou - Fever (4:02)
13. Bebel Gilberto - Cada Beijo (Thievery Corporation Mix) (4:13)
14. Matthias Vogt Trio - Expecting Repercussions (3:33)
15. Ninine Garcia - My Dream Of Love (4:09)

CD 4
1. Karl Off - Capoeira Makes Them Wet (David Borsu Remix) (4:12)
2. Kruder & Dorfmeister - Black Baby (6:15)
3. Sara Lazarus - It's Crazy (2:28)
4. Michael Buble - Tell Him He's Yours (2:03)
5. Povo - Hi Fly (5:15)
6. Rubin Steiner - Lo-Fi Nu Jazz # 8 (2:44)
7. Reminiscence Quartet - Inspiration (4:07)
8. Ronnie Ross & His Band - Last Of The Wine (2:55)
9. Elisabeth Kontomanou - Sunny (5:38)
10. De-Phazz - Good Boy (Live Version) (4:51)
11. DJ Matsouka - Piano Objective 3 (3:14)
12. Dimitri From Paris - Live Jazz (4:02)
13. Nicola Conte - Love Me 'Till Sunday (4:24)
14. Joseph Malik - Aquarius Song (6:53)
15. Norah Jones & Joel Harrison - I Walk The Line (5:01)

CD 5
1. Funki Porcini - Surge (5:46)
2. Jazzanova - Caravelle (7:15)
3. Mousse T. & Emma Lanford - Horny Jazz (3:24)
4. Deyampert & Clover From Amraah 8 - Held Him First (5:05)
5. Pathless - Forecast (6:52)
6. Zimpala - Sugar (4:09)
7. The Dinning Rooms - Thin Ice (Paolo Fedreghini & Marco Bianchi Remix) (6:34)
8. Terranova - Contact (4:45)
9. 0509 - Chвteau Flight - Camping Jazz
10. Quantic feat Alice Russell - The Sound Of Everything (3:59)
11. A Bossa Electrica - Skindo LeLe (S.U.M.O. Rebounce) (6:55)
12. Micatone - Step Into Gallery (Mighty Bob Mix) (5:29)
13. Marco Di Marco & Nathan Haines - Take Off (4:36)
14. Clare Teal & Jamie Cullum - The Road Less Travelled (3:32)
15. Dani Siciliano - Come As You Are (5:06)

CD 6
1. Kennedy Jenson - My Heart Belongs To Daddy (2:12)
2. Viktoria Tolstoy - The Way Young Lovers Do (3:07)
3. The Five Corners Quintet - Three Corners (Nicola Conte Sahib's Samba Version) (7:13)
4. Slow Train - Trail Of Dawn (Varano's Hotel Of Dawn Remix) (5:18)
5. [Re-Jazz] feat Alice Russell - Gabrielle (Alternate 12' Take) (6:03)
6. Salvador Group - Moksa (5:42)
7. Gerardo Frisina - The Gods Of The Yoruba (Belem) (6:48)
8. Nicola Conte & Gianluca Petrella - New Standards (7:21)
9. The Invisible Session - Till The End (5:02)
10. Stacey Kent - Under A Blanket Of Blue (3:56)
11. Tok Tok Tok - Flow Of Joy (4:49)
12. Tosca - Heidi Bruehl (4:39)
13. Nemo - Darkest Day (Original 7' Mix) (3:34)
14. [Re-Jazz] feat Jo Laundy - Style (Dublex Inc. Rework) (7:01)
15. The Cinematic Orchestra - Ode To The Big Sea (5:35)

CD 7
1. Troublemakers - Get Misunderstood (4:04)
2. Alice Russell feat Natureboy - Sweet Is The Air (4:43)
3. Kinny & Horne - Forgetting To Remember (Nostalgia 77 Mix) (3:30)
4. Mr. Scruff - Beyond (3:44)
5. Bobby Hughes Combination - Clive The Runner (4:42)
6. Earl Zinger - Who Killed Saturday Night (4:10)
7. Archie Shepp - Hipnosis (Eddy & Dus Mix) (4:46)
8. Lonesome Echo Productions feat Pharoah Sanders & Apani - Love (7:26)
9. Shawn Lee's Ping Pong Orchestra & Ohmega Watts - The Hour Glass Effect (3:32)
10. Greyboy - Land Of The Lost (7:02)
11. Dwight Trible - Africa (6:34)
12. Anne Ducros - God Bless The Child (4:39)
13. Big Bang - Speak Low (7:14)
14. Nu Tropic feat Stephane Belmondo - We've Got It ! (5:25)
15. Ursula Rucker - Black Erotica (3:59)

CD 8
1. Outlines - Just A Lil Lovin' (3:55)
2. The Five Corners Quintet feat Mark Murphy - Before We Say Goodbye (3:38)
3. Diesler - Sandcastlers (4:10)
4. 0804 - Extended Spirit - Solid Water (Rainer Trьby Trio Remix)
5. Les Gammas - La Vie Des Anges (7:01)
6. Susie Arioli - Why Do I (2:08)
7. Andre Caccarelli & Stephy Haik - Walk On The Wild Side (5:32)
8. Nicola Conte & Micatone - Arabesque (Vocal Version) (6:01)
9. Kinny & Horne - Us On Fire (3:19)
10. Marco Di Marco & Nathan Haines - Walking In St. James' Park (3:10)
11. Mario Biondi & The High Five Quintet - This Is What Your Are (7:05)
12. Micatone - That's The Way It Goes (3:52)
13. Radio Citizen feat Bajka - Championsound (3:52)
14. TM Juke - High Rise (5:05)
15. Slope feat Jane Hamilton - Fin Our Love (Volker Meitz Acoustic Replay) (5:25)

CD 9
1. Big Bang - Spinning 6 Turning 8 (7:19)
2. DJ Food - Half Step (5:02)
3. Stacey Kent - Let Yourself Go (3:41)
4. Jazzanova feat Clara Hill - No Use (4:07)
5. Mitchell & Dewbury feat Billie Godfrey - Beyond The Rains (6:43)
6. The Invisible Session - I'll Be Your Wings (6:26)
7. Juryman - The Morning (6:00)
8. Kinny & Horne - Queen Of Boredness (Diesler Mix) (4:11)
9. The Quantic Soul Orchestra feat Alice Russell - Take Your Time, Change Your Mind (5:32)
10. Dominique Dalcan - The Look Of Love (2:40)
11. Les Gammas - Guauanco (The Cinematic Orchestra Remix) (7:00)
12. Jumbonics - Sandy (4:04)
13. The Herbaliser - Something Wicked (5:09)
14. Micatone - You've Taken All (5:34)
15. Musica Nuda (Petra Magoni & Ferruccio Spinetti) feat Erik Truffaz - Take A Bow (4:09)

CD 10
1. Mr. Scruff - Valley Of The Sausages (4:59)
2. Ben Mono feat Bajka - Suburban Resident (6:20)
3. Bugge Wesseltoft & Sidsel Endresen - Try (3:57)
4. Kyoto Jazz Massive feat Vanessa Freeman - The Brightness Of Theses Days (Quantic Remix) (8:08)
5. The Right Vibes - What Is Jazz (2:55)
6. Jumbonics - (You Little) Jezebel (Diesler Mix) (3:36)
7. Koop feat Earl Zinger - Forces… Darling (4:58)
8. Jhelisa - Walking On Air (4:25)
9. Radio Citizen feat Bajka - Voices (2:09)
10. Ian Simmonds - Alvin's Blues (4:30)
11. Diesler - Cannibal Lunch (3:14)
12. Povo - Eyes Closed (6:26)
13. Georg Levin - Can't Hold Back (5:51)
14. Platnum - Greatest (4:27)
15. Outlines - Outro (2:32)

Exact Audio Copy V0.99 prebeta 5 from 4. May 2009

EAC extraction logfile from 15. May 2009, 20:17

Various / Saint-Germain-Des-Pres Cafe Paris 'Paris' (Limited Edition)

Used drive : TSSTcorpCDDVDW SH-S203B Adapter: 2 ID: 1

Read mode : Secure
Utilize accurate stream : Yes
Defeat audio cache : Yes
Make use of C2 pointers : No

Read offset correction : 6
Overread into Lead-In and Lead-Out : No
Fill up missing offset samples with silence : Yes
Delete leading and trailing silent blocks : No
Null samples used in CRC calculations : Yes
Used interface : Native Win32 interface for Win NT & 2000
Gap handling : Appended to previous track

Used output format : User Defined Encoder
Selected bitrate : 320 kBit/s
Quality : High
Add ID3 tag : No
Command line compressor : C:\Program Files\Exact Audio Copy\flac.exe
Additional command line options : -V -8 -T "artist=%a" -T "title=%t" -T "album=%g" -T "date=%y" -T "tracknumber=%n" -T "genre=%m" %s


TOC of the extracted CD

Track | Start | Length | Start sector | End sector
––––––––––––––––––––––––––––-
1 | 0:00.00 | 5:25.73 | 0 | 24447
2 | 5:25.73 | 5:10.13 | 24448 | 47710
3 | 10:36.11 | 4:32.30 | 47711 | 68140
4 | 15:08.41 | 3:57.44 | 68141 | 85959
5 | 19:06.10 | 3:35.01 | 85960 | 102085
6 | 22:41.11 | 5:24.26 | 102086 | 126411
7 | 28:05.37 | 3:54.70 | 126412 | 144031
8 | 32:00.32 | 6:13.21 | 144032 | 172027
9 | 38:13.53 | 3:17.34 | 172028 | 186836
10 | 41:31.12 | 3:39.10 | 186837 | 203271
11 | 45:10.22 | 5:54.09 | 203272 | 229830
12 | 51:04.31 | 4:38.68 | 229831 | 250748
13 | 55:43.24 | 2:49.11 | 250749 | 263434
14 | 58:32.35 | 6:33.12 | 263435 | 292921
15 | 65:05.47 | 4:19.12 | 292922 | 312358


Track 1

Filename F:\0-Ripping\Saint Germain\CD1\01 - Club Des Belugas - Wildcats Gotta Move.wav

Pre-gap length 0:00:02.00

Peak level 100.0 %
Track quality 100.0 %
Test CRC F1AEBCFB
Copy CRC F1AEBCFB
Accurately ripped (confidence 7) [034AF7F3]
Copy OK

Track 2

Filename F:\0-Ripping\Saint Germain\CD1\02 - Bobby Hughes Combination feat Karin Krog - Karins Kerma.wav

Peak level 86.0 %
Track quality 100.0 %
Test CRC D767C931
Copy CRC D767C931
Accurately ripped (confidence 6) [3AAEA6CF]
Copy OK

Track 3

Filename F:\0-Ripping\Saint Germain\CD1\03 - Alex Gopher - The Child.wav

Peak level 93.3 %
Track quality 100.0 %
Test CRC B0713168
Copy CRC B0713168
Accurately ripped (confidence 6) [F473CEE0]
Copy OK

Track 4

Filename F:\0-Ripping\Saint Germain\CD1\04 - Belleruche - Minor Swing.wav

Peak level 93.4 %
Track quality 100.0 %
Test CRC 078E298E
Copy CRC 078E298E
Accurately ripped (confidence 6) [44E8ADE2]
Copy OK

Track 5

Filename F:\0-Ripping\Saint Germain\CD1\05 - De-Phazz - Jazz Music.wav

Peak level 100.0 %
Track quality 100.0 %
Test CRC FC9199E1
Copy CRC FC9199E1
Accurately ripped (confidence 6) [1D460A79]
Copy OK

Track 6

Filename F:\0-Ripping\Saint Germain\CD1\06 - Zimpala - Doo You Bop.wav

Peak level 100.0 %
Track quality 100.0 %
Test CRC C4D497FB
Copy CRC C4D497FB
Accurately ripped (confidence 6) [7CB54503]
Copy OK

Track 7

Filename F:\0-Ripping\Saint Germain\CD1\07 - The Bamboos - Happy.wav

Peak level 81.1 %
Track quality 100.0 %
Test CRC B9255F89
Copy CRC B9255F89
Accurately ripped (confidence 6) [3BA56282]
Copy OK

Track 8

Filename F:\0-Ripping\Saint Germain\CD1\08 - Quantic - Mishaps Happening (Prins Thomas Edit).wav

Peak level 88.2 %
Track quality 100.0 %
Test CRC C2082AC5
Copy CRC C2082AC5
Accurately ripped (confidence 6) [4890AF94]
Copy OK

Track 9

Filename F:\0-Ripping\Saint Germain\CD1\09 - Jamie Cullum - Well You Needn't.wav

Peak level 100.0 %
Track quality 100.0 %
Test CRC 865B6C02
Copy CRC 865B6C02
Accurately ripped (confidence 6) [08FAA368]
Copy OK

Track 10

Filename F:\0-Ripping\Saint Germain\CD1\10 - Earl Zinger - Escape From Ibiza (Original Mix).wav

Peak level 100.0 %
Track quality 99.9 %
Test CRC B6836441
Copy CRC B6836441
Accurately ripped (confidence 6) [86F6A4CF]
Copy OK

Track 11

Filename F:\0-Ripping\Saint Germain\CD1\11 - Quasimode - Oneself - Likeness.wav

Peak level 97.0 %
Track quality 100.0 %
Test CRC F41BB9F6
Copy CRC F41BB9F6
Accurately ripped (confidence 6) [0462CBAE]
Copy OK

Track 12

Filename F:\0-Ripping\Saint Germain\CD1\12 - Diana Krall - As Long As I Live.wav

Peak level 100.0 %
Track quality 100.0 %
Test CRC 34571C6A
Copy CRC 34571C6A
Accurately ripped (confidence 6) [8FF934A4]
Copy OK

Track 13

Filename F:\0-Ripping\Saint Germain\CD1\13 - Music Nuda (Petra Magoni and Ferruccio Spinetti) - Like A Virgin.wav

Peak level 100.0 %
Track quality 100.0 %
Test CRC 22DB8667
Copy CRC 22DB8667
Accurately ripped (confidence 6) [6BC745A0]
Copy OK

Track 14

Filename F:\0-Ripping\Saint Germain\CD1\14 - The Cinematic Orchestra feat. Fontella Bass - Evolution.wav

Peak level 100.0 %
Track quality 99.9 %
Test CRC DB1AD3BF
Copy CRC DB1AD3BF
Accurately ripped (confidence 6) [467E90B4]
Copy OK

Track 15

Filename F:\0-Ripping\Saint Germain\CD1\15 - Terry Callier - Speak Your Peace.wav

Peak level 100.0 %
Track quality 99.8 %
Test CRC 60B62F63
Copy CRC 60B62F63
Accurately ripped (confidence 6) [FE849207]
Copy OK


All tracks accurately ripped

No errors occurred

End of status report

Exact Audio Copy V0.99 prebeta 5 from 4. May 2009

EAC extraction logfile from 15. May 2009, 22:27

Various / Saint-Germain-Des-Pres Cafe 'Paris' (Limited Edition)

Used drive : TSSTcorpCDDVDW SH-S203B Adapter: 2 ID: 1

Read mode : Secure
Utilize accurate stream : Yes
Defeat audio cache : Yes
Make use of C2 pointers : No

Read offset correction : 6
Overread into Lead-In and Lead-Out : No
Fill up missing offset samples with silence : Yes
Delete leading and trailing silent blocks : No
Null samples used in CRC calculations : Yes
Used interface : Native Win32 interface for Win NT & 2000
Gap handling : Appended to previous track

Used output format : User Defined Encoder
Selected bitrate : 320 kBit/s
Quality : High
Add ID3 tag : No
Command line compressor : C:\Program Files\Exact Audio Copy\flac.exe
Additional command line options : -V -8 -T "artist=%a" -T "title=%t" -T "album=%g" -T "date=%y" -T "tracknumber=%n" -T "genre=%m" %s


TOC of the extracted CD

Track | Start | Length | Start sector | End sector
––––––––––––––––––––––––––––-
1 | 0:00.00 | 6:11.29 | 0 | 27853
2 | 6:11.29 | 5:58.22 | 27854 | 54725
3 | 12:09.51 | 5:52.58 | 54726 | 81183
4 | 18:02.34 | 4:45.72 | 81184 | 102630
5 | 22:48.31 | 6:23.62 | 102631 | 131417
6 | 29:12.18 | 5:52.28 | 131418 | 157845
7 | 35:04.46 | 4:01.09 | 157846 | 175929
8 | 39:05.55 | 5:17.70 | 175930 | 199774
9 | 44:23.50 | 5:23.20 | 199775 | 224019
10 | 49:46.70 | 4:41.20 | 224020 | 245114
11 | 54:28.15 | 3:21.56 | 245115 | 260245
12 | 57:49.71 | 4:43.49 | 260246 | 281519
13 | 62:33.45 | 4:05.03 | 281520 | 299897
14 | 66:38.48 | 6:04.52 | 299898 | 327249
15 | 72:43.25 | 5:14.19 | 327250 | 350818


Track 1

Filename F:\0-Ripping\Saint Germain\CD2\01 - Bugge Wesseltoft - Eve Nin (Les Gammas Remix).wav

Pre-gap length 0:00:02.00

Peak level 100.0 %
Track quality 100.0 %
Test CRC 664D7CB0
Copy CRC 664D7CB0
Accurately ripped (confidence 5) [04642468]
Copy OK

Track 2

Filename F:\0-Ripping\Saint Germain\CD2\02 - Bobby Hughes Combination - Microneseren.wav

Peak level 100.0 %
Track quality 99.9 %
Test CRC D52E1C6B
Copy CRC D52E1C6B
Accurately ripped (confidence 5) [A3FB46B3]
Copy OK

Track 3

Filename F:\0-Ripping\Saint Germain\CD2\03 - Paolo Fedreghini & Marco Bianchi feat Sahib Shibab - Please Don't Leave (The Essential Mix).wav

Peak level 99.6 %
Track quality 100.0 %
Test CRC 06BB6A5F
Copy CRC 06BB6A5F
Accurately ripped (confidence 5) [ECA2E711]
Copy OK

Track 4

Filename F:\0-Ripping\Saint Germain\CD2\04 - Alif Tree - Forgotten Places.wav

Peak level 99.1 %
Track quality 100.0 %
Test CRC B299DF8D
Copy CRC B299DF8D
Accurately ripped (confidence 5) [2126BDF7]
Copy OK

Track 5

Filename F:\0-Ripping\Saint Germain\CD2\05 - Tok Tok Tok - Get Away.wav

Peak level 79.8 %
Track quality 100.0 %
Test CRC 8730E87A
Copy CRC 8730E87A
Accurately ripped (confidence 5) [F092246F]
Copy OK

Track 6

Filename F:\0-Ripping\Saint Germain\CD2\06 - Wei-Chi - Heaven.wav

Peak level 86.0 %
Track quality 100.0 %
Test CRC 63EA99E5
Copy CRC 63EA99E5
Accurately ripped (confidence 5) [1DE2E425]
Copy OK

Track 7

Filename F:\0-Ripping\Saint Germain\CD2\07 - Reminiscence Quartet - Jazz Thing.wav

Peak level 100.0 %
Track quality 100.0 %
Test CRC 20C892E2
Copy CRC 20C892E2
Accurately ripped (confidence 5) [77718322]
Copy OK

Track 8

Filename F:\0-Ripping\Saint Germain\CD2\08 - S-Tone Inc - Dreamer.wav

Peak level 84.9 %
Track quality 100.0 %
Test CRC 0467CCAF
Copy CRC 0467CCAF
Accurately ripped (confidence 5) [80E14869]
Copy OK

Track 9

Filename F:\0-Ripping\Saint Germain\CD2\09 - Metropolitan Jazz Affair - Bird Of Spring.wav

Peak level 100.0 %
Track quality 100.0 %
Test CRC 8D8822C7
Copy CRC 8D8822C7
Accurately ripped (confidence 5) [CF01E00F]
Copy OK

Track 10

Filename F:\0-Ripping\Saint Germain\CD2\10 - Micatone - Shake It Baby.wav

Peak level 100.0 %
Track quality 99.9 %
Test CRC 433D38D8
Copy CRC 433D38D8
Accurately ripped (confidence 5) [BEFACC6B]
Copy OK

Track 11

Filename F:\0-Ripping\Saint Germain\CD2\11 - Kinny & Horne - Why Me.wav

Peak level 99.1 %
Track quality 100.0 %
Test CRC C2B293A8
Copy CRC C2B293A8
Accurately ripped (confidence 5) [FC5D8973]
Copy OK

Track 12

Filename F:\0-Ripping\Saint Germain\CD2\12 - The Dinning Roms - No Problems (7 Samurai Instrumental Remix).wav

Peak level 74.2 %
Track quality 100.0 %
Test CRC ECBDA4AF
Copy CRC ECBDA4AF
Accurately ripped (confidence 5) [F8FB238C]
Copy OK

Track 13

Filename F:\0-Ripping\Saint Germain\CD2\13 - Timo Lassy - Sweet Spot.wav

Peak level 100.0 %
Track quality 99.9 %
Test CRC 3AF5B55D
Copy CRC 3AF5B55D
Accurately ripped (confidence 5) [895CC294]
Copy OK

Track 14

Filename F:\0-Ripping\Saint Germain\CD2\14 - Beady Belle - Irony.wav

Peak level 100.0 %
Track quality 100.0 %
Test CRC 49580624
Copy CRC 49580624
Accurately ripped (confidence 5) [BBE53BD5]
Copy OK

Track 15

Filename F:\0-Ripping\Saint Germain\CD2\15 - Beat Assailant feat Tash - Chronik Break.wav

Peak level 100.0 %
Track quality 100.0 %
Test CRC 21DE34AB
Copy CRC 21DE34AB
Accurately ripped (confidence 4) [D05D4431]
Copy OK


All tracks accurately ripped

No errors occurred

End of status report

Exact Audio Copy V0.99 prebeta 5 from 4. May 2009

EAC extraction logfile from 15. May 2009, 22:52

Various / Saint-Germain-Des-Pres Cafe 'Paris' (Limited Edition)

Used drive : TSSTcorpCDDVDW SH-S203B Adapter: 2 ID: 1

Read mode : Secure
Utilize accurate stream : Yes
Defeat audio cache : Yes
Make use of C2 pointers : No

Read offset correction : 6
Overread into Lead-In and Lead-Out : No
Fill up missing offset samples with silence : Yes
Delete leading and trailing silent blocks : No
Null samples used in CRC calculations : Yes
Used interface : Native Win32 interface for Win NT & 2000
Gap handling : Appended to previous track

Used output format : User Defined Encoder
Selected bitrate : 320 kBit/s
Quality : High
Add ID3 tag : No
Command line compressor : C:\Program Files\Exact Audio Copy\flac.exe
Additional command line options : -V -8 -T "artist=%a" -T "title=%t" -T "album=%g" -T "date=%y" -T "tracknumber=%n" -T "genre=%m" %s


TOC of the extracted CD

Track | Start | Length | Start sector | End sector
––––––––––––––––––––––––––––-
1 | 0:00.00 | 7:27.30 | 0 | 33554
2 | 7:27.30 | 5:52.39 | 33555 | 59993
3 | 13:19.69 | 2:52.13 | 59994 | 72906
4 | 16:12.07 | 4:26.46 | 72907 | 92902
5 | 20:38.53 | 3:58.65 | 92903 | 110817
6 | 24:37.43 | 8:01.60 | 110818 | 146952
7 | 32:39.28 | 6:17.12 | 146953 | 175239
8 | 38:56.40 | 5:33.11 | 175240 | 200225
9 | 44:29.51 | 6:12.01 | 200226 | 228126
10 | 50:41.52 | 4:00.12 | 228127 | 246138
11 | 54:41.64 | 4:42.42 | 246139 | 267330
12 | 59:24.31 | 4:02.21 | 267331 | 285501
13 | 63:26.52 | 4:13.22 | 285502 | 304498
14 | 67:39.74 | 3:33.23 | 304499 | 320496
15 | 71:13.22 | 4:09.30 | 320497 | 339201


Track 1

Filename F:\0-Ripping\Saint Germain\CD3\01 - Jazzanova - Trиs Bien.wav

Pre-gap length 0:00:02.00

Peak level 78.6 %
Track quality 100.0 %
Test CRC 095E8596
Copy CRC 095E8596
Accurately ripped (confidence 5) [E577214F]
Copy OK

Track 2

Filename F:\0-Ripping\Saint Germain\CD3\02 - Soulstance - Eclipse.wav

Peak level 88.6 %
Track quality 100.0 %
Test CRC 098D16EC
Copy CRC 098D16EC
Accurately ripped (confidence 5) [C40D4597]
Copy OK

Track 3

Filename F:\0-Ripping\Saint Germain\CD3\03 - Rosalia De Souza & Marcos Valle - Que Bandeira.wav

Peak level 94.3 %
Track quality 100.0 %
Test CRC 1ED3D36F
Copy CRC 1ED3D36F
Accurately ripped (confidence 5) [06112A57]
Copy OK

Track 4

Filename F:\0-Ripping\Saint Germain\CD3\04 - Victor Davies - Better Place.wav

Peak level 98.1 %
Track quality 99.9 %
Test CRC 9882D5F7
Copy CRC 9882D5F7
Accurately ripped (confidence 5) [9F43236B]
Copy OK

Track 5

Filename F:\0-Ripping\Saint Germain\CD3\05 - Sylvain Luc & Bireli Lagrene - Isn't She Lovely.wav

Peak level 100.0 %
Track quality 100.0 %
Test CRC 418DEF5D
Copy CRC 418DEF5D
Accurately ripped (confidence 5) [95E3EB05]
Copy OK

Track 6

Filename F:\0-Ripping\Saint Germain\CD3\06 - TM Juke feat Sophie Faricy - Come Away.wav

Peak level 100.0 %
Track quality 99.9 %
Test CRC 56D5E44B
Copy CRC 56D5E44B
Accurately ripped (confidence 5) [DF1DDD94]
Copy OK

Track 7

Filename F:\0-Ripping\Saint Germain\CD3\07 - Balanco - Metti Una Sera A Cena (Jazzanova Mix).wav

Peak level 100.0 %
Track quality 100.0 %
Test CRC 723E5BB0
Copy CRC 723E5BB0
Accurately ripped (confidence 5) [D5C8FE33]
Copy OK

Track 8

Filename F:\0-Ripping\Saint Germain\CD3\08 - Club Des Belugas - Hip Hip Chin Chin (Yaziko Club Mix).wav

Peak level 95.2 %
Track quality 100.0 %
Test CRC A0FE11EB
Copy CRC A0FE11EB
Accurately ripped (confidence 5) [8CC86072]
Copy OK

Track 9

Filename F:\0-Ripping\Saint Germain\CD3\09 - Diesler feat Laura Vane - A Little Something (Gerardo Frisina Mix).wav

Peak level 86.8 %
Track quality 100.0 %
Test CRC A467DBB9
Copy CRC A467DBB9
Accurately ripped (confidence 5) [014164A8]
Copy OK

Track 10

Filename F:\0-Ripping\Saint Germain\CD3\10 - Gotan Project - Una Musica Brutal.wav

Peak level 92.3 %
Track quality 100.0 %
Test CRC 4CECFD90
Copy CRC 4CECFD90
Accurately ripped (confidence 5) [6441EEA2]
Copy OK

Track 11

Filename F:\0-Ripping\Saint Germain\CD3\11 - The Dining Rooms - Tunnel (The Dining Rooms Rework).wav

Peak level 91.9 %
Track quality 99.9 %
Test CRC 9D318691
Copy CRC 9D318691
Accurately ripped (confidence 5) [756ACBB5]
Copy OK

Track 12

Filename F:\0-Ripping\Saint Germain\CD3\12 - Elisabeth Kontomanou - Fever.wav

Peak level 100.0 %
Track quality 100.0 %
Test CRC 6B959C05
Copy CRC 6B959C05
Accurately ripped (confidence 5) [86AE4613]
Copy OK

Track 13

Filename F:\0-Ripping\Saint Germain\CD3\13 - Bebel Gilberto - Cada Beijo (Thievery Corporation Mix).wav

Peak level 80.5 %
Track quality 100.0 %
Test CRC 2E159AF1
Copy CRC 2E159AF1
Accurately ripped (confidence 5) [C91D0B51]
Copy OK

Track 14

Filename F:\0-Ripping\Saint Germain\CD3\14 - Matthias Vogt Trio - Expecting Repercussions.wav

Peak level 100.0 %
Track quality 100.0 %
Test CRC 2FF245D3
Copy CRC 2FF245D3
Accurately ripped (confidence 5) [BE6FDF3E]
Copy OK

Track 15

Filename F:\0-Ripping\Saint Germain\CD3\15 - Ninine Garcia - My Dream Of Love.wav

Peak level 100.0 %
Track quality 99.9 %
Test CRC EE267933
Copy CRC EE267933
Accurately ripped (confidence 5) [CAC2DFBA]
Copy OK


All tracks accurately ripped

No errors occurred

End of status report

Exact Audio Copy V0.99 prebeta 5 from 4. May 2009

EAC extraction logfile from 15. May 2009, 23:15

Various / Saint-Germain-Des-Pres Cafe 'Paris' (Limited Edition)

Used drive : TSSTcorpCDDVDW SH-S203B Adapter: 2 ID: 1

Read mode : Secure
Utilize accurate stream : Yes
Defeat audio cache : Yes
Make use of C2 pointers : No

Read offset correction : 6
Overread into Lead-In and Lead-Out : No
Fill up missing offset samples with silence : Yes
Delete leading and trailing silent blocks : No
Null samples used in CRC calculations : Yes
Used interface : Native Win32 interface for Win NT & 2000
Gap handling : Appended to previous track

Used output format : User Defined Encoder
Selected bitrate : 320 kBit/s
Quality : High
Add ID3 tag : No
Command line compressor : C:\Program Files\Exact Audio Copy\flac.exe
Additional command line options : -V -8 -T "artist=%a" -T "title=%t" -T "album=%g" -T "date=%y" -T "tracknumber=%n" -T "genre=%m" %s


TOC of the extracted CD

Track | Start | Length | Start sector | End sector
––––––––––––––––––––––––––––-
1 | 0:00.00 | 4:12.40 | 0 | 18939
2 | 4:12.40 | 6:15.40 | 18940 | 47104
3 | 10:28.05 | 2:28.35 | 47105 | 58239
4 | 12:56.40 | 2:03.34 | 58240 | 67498
5 | 14:59.74 | 5:15.72 | 67499 | 91195
6 | 20:15.71 | 2:44.10 | 91196 | 103505
7 | 23:00.06 | 4:07.62 | 103506 | 122092
8 | 27:07.68 | 2:55.27 | 122093 | 135244
9 | 30:03.20 | 5:38.66 | 135245 | 160660
10 | 35:42.11 | 4:51.71 | 160661 | 182556
11 | 40:34.07 | 3:14.50 | 182557 | 197156
12 | 43:48.57 | 4:02.28 | 197157 | 215334
13 | 47:51.10 | 4:24.47 | 215335 | 235181
14 | 52:15.57 | 6:53.39 | 235182 | 266195
15 | 59:09.21 | 5:01.14 | 266196 | 288784


Track 1

Filename F:\0-Ripping\Saint Germain\CD4\01 - Karl Off - Capoeira Makes Them Wet (David Borsu Remix).wav

Pre-gap length 0:00:02.00

Peak level 100.0 %
Track quality 100.0 %
Test CRC 009324CD
Copy CRC 009324CD
Accurately ripped (confidence 5) [3FC6191E]
Copy OK

Track 2

Filename F:\0-Ripping\Saint Germain\CD4\02 - Kruder & Dorfmeister - Black Baby.wav

Peak level 90.0 %
Track quality 100.0 %
Test CRC 33FC19B8
Copy CRC 33FC19B8
Accurately ripped (confidence 5) [142E4D7E]
Copy OK

Track 3

Filename F:\0-Ripping\Saint Germain\CD4\03 - Sara Lazarus - It's Crazy.wav

Peak level 91.3 %
Track quality 100.0 %
Test CRC CA049AAD
Copy CRC CA049AAD
Accurately ripped (confidence 5) [E071D717]
Copy OK

Track 4

Filename F:\0-Ripping\Saint Germain\CD4\04 - Michael Buble - Tell Him He's Yours.wav

Peak level 100.0 %
Track quality 100.0 %
Test CRC 655EE999
Copy CRC 655EE999
Accurately ripped (confidence 5) [7F205031]
Copy OK

Track 5

Filename F:\0-Ripping\Saint Germain\CD4\05 - Povo - Hi Fly.wav

Peak level 100.0 %
Track quality 100.0 %
Test CRC E6B3F7EE
Copy CRC E6B3F7EE
Accurately ripped (confidence 5) [E9F36FD5]
Copy OK

Track 6

Filename F:\0-Ripping\Saint Germain\CD4\06 - Rubin Steiner - Lo-Fi Nu Jazz # 8.wav

Peak level 100.0 %
Track quality 100.0 %
Test CRC CEAD897B
Copy CRC CEAD897B
Accurately ripped (confidence 5) [6073380C]
Copy OK

Track 7

Filename F:\0-Ripping\Saint Germain\CD4\07 - Reminiscence Quartet - Inspiration.wav

Peak level 100.0 %
Track quality 100.0 %
Test CRC 3EFB7C26
Copy CRC 3EFB7C26
Accurately ripped (confidence 5) [BD969A0A]
Copy OK

Track 8

Filename F:\0-Ripping\Saint Germain\CD4\08 - Ronnie Ross & His Band - Last Of The Wine.wav

Peak level 100.0 %
Track quality 100.0 %
Test CRC 8AE2693D
Copy CRC 8AE2693D
Accurately ripped (confidence 5) [89A63647]
Copy OK

Track 9

Filename F:\0-Ripping\Saint Germain\CD4\09 - Elisabeth Kontomanou - Sunny.wav

Peak level 90.2 %
Track quality 100.0 %
Test CRC A49B8302
Copy CRC A49B8302
Accurately ripped (confidence 5) [A1D477F9]
Copy OK

Track 10

Filename F:\0-Ripping\Saint Germain\CD4\10 - De-Phazz - Good Boy (Live Version).wav

Peak level 100.0 %
Track quality 100.0 %
Test CRC D8C6D871
Copy CRC D8C6D871
Accurately ripped (confidence 5) [78E92DF5]
Copy OK

Track 11

Filename F:\0-Ripping\Saint Germain\CD4\11 - DJ Matsouka - Piano Objective 3.wav

Peak level 98.8 %
Track quality 100.0 %
Test CRC 9A8B839B
Copy CRC 9A8B839B
Accurately ripped (confidence 5) [44A8060C]
Copy OK

Track 12

Filename F:\0-Ripping\Saint Germain\CD4\12 - Dimitri From Paris - Live Jazz.wav

Peak level 100.0 %
Track quality 100.0 %
Test CRC F4803E96
Copy CRC F4803E96
Accurately ripped (confidence 5) [5C58C560]
Copy OK

Track 13

Filename F:\0-Ripping\Saint Germain\CD4\13 - Nicola Conte - Love Me 'Till Sunday.wav

Peak level 94.4 %
Track quality 100.0 %
Test CRC 6A150705
Copy CRC 6A150705
Accurately ripped (confidence 5) [EF3A1957]
Copy OK

Track 14

Filename F:\0-Ripping\Saint Germain\CD4\14 - Joseph Malik - Aquarius Song.wav

Peak level 100.0 %
Track quality 100.0 %
Test CRC B6FF273E
Copy CRC B6FF273E
Accurately ripped (confidence 5) [B9BCF701]
Copy OK

Track 15

Filename F:\0-Ripping\Saint Germain\CD4\15 - Norah Jones & Joel Harrison - I Walk The Line.wav

Peak level 100.0 %
Track quality 99.9 %
Test CRC F5873DB7
Copy CRC F5873DB7
Accurately ripped (confidence 5) [15262669]
Copy OK


All tracks accurately ripped

No errors occurred

End of status report

Exact Audio Copy V0.99 prebeta 5 from 4. May 2009

EAC extraction logfile from 16. May 2009, 20:33

Various / Saint-Germain-Des-Pres Cafe 'Paris' (Limited Edition)

Used drive : TSSTcorpCDDVDW SH-S203B Adapter: 2 ID: 1

Read mode : Secure
Utilize accurate stream : Yes
Defeat audio cache : Yes
Make use of C2 pointers : No

Read offset correction : 6
Overread into Lead-In and Lead-Out : No
Fill up missing offset samples with silence : Yes
Delete leading and trailing silent blocks : No
Null samples used in CRC calculations : Yes
Used interface : Native Win32 interface for Win NT & 2000
Gap handling : Appended to previous track

Used output format : User Defined Encoder
Selected bitrate : 320 kBit/s
Quality : High
Add ID3 tag : No
Command line compressor : C:\Program Files\Exact Audio Copy\flac.exe
Additional command line options : -V -8 -T "artist=%a" -T "title=%t" -T "album=%g" -T "date=%y" -T "tracknumber=%n" -T "genre=%m" %s


TOC of the extracted CD

Track | Start | Length | Start sector | End sector
––––––––––––––––––––––––––––-
1 | 0:00.00 | 5:46.56 | 0 | 26005
2 | 5:46.56 | 7:15.02 | 26006 | 58632
3 | 13:01.58 | 3:24.38 | 58633 | 73970
4 | 16:26.21 | 5:05.26 | 73971 | 96871
5 | 21:31.47 | 6:52.26 | 96872 | 127797
6 | 28:23.73 | 4:09.40 | 127798 | 146512
7 | 32:33.38 | 6:34.47 | 146513 | 176109
8 | 39:08.10 | 4:45.71 | 176110 | 197555
9 | 43:54.06 | 4:15.17 | 197556 | 216697
10 | 48:09.23 | 3:59.74 | 216698 | 234696
11 | 52:09.22 | 6:55.73 | 234697 | 265894
12 | 59:05.20 | 5:29.71 | 265895 | 290640
13 | 64:35.16 | 4:36.69 | 290641 | 311409
14 | 69:12.10 | 3:32.62 | 311410 | 327371
15 | 72:44.72 | 5:06.47 | 327372 | 350368


Track 1

Filename F:\0-Ripping\Saint Germain\CD5\01 - Funki Porcini - Surge.wav

Pre-gap length 0:00:02.00

Peak level 93.7 %
Track quality 100.0 %
Test CRC D316C15E
Copy CRC D316C15E
Accurately ripped (confidence 5) [A73B622C]
Copy OK

Track 2

Filename F:\0-Ripping\Saint Germain\CD5\02 - Jazzanova - Caravelle.wav

Peak level 92.1 %
Track quality 100.0 %
Test CRC ADB815FC
Copy CRC ADB815FC
Accurately ripped (confidence 5) [12A6633F]
Copy OK

Track 3

Filename F:\0-Ripping\Saint Germain\CD5\03 - Mousse T. & Emma Lanford - Horny Jazz.wav

Peak level 100.0 %
Track quality 100.0 %
Test CRC 818C740C
Copy CRC 818C740C
Accurately ripped (confidence 5) [1A804100]
Copy OK

Track 4

Filename F:\0-Ripping\Saint Germain\CD5\04 - Deyampert & Clover From Amraah 8 - Held Him First.wav

Peak level 100.0 %
Track quality 100.0 %
Test CRC B4F5A69A
Copy CRC B4F5A69A
Accurately ripped (confidence 5) [656B6A1B]
Copy OK

Track 5

Filename F:\0-Ripping\Saint Germain\CD5\05 - Pathless - Forecast.wav

Peak level 83.7 %
Track quality 100.0 %
Test CRC F19901D1
Copy CRC F19901D1
Accurately ripped (confidence 5) [D0AE7A66]
Copy OK

Track 6

Filename F:\0-Ripping\Saint Germain\CD5\06 - Zimpala - Sugar.wav

Peak level 81.6 %
Track quality 100.0 %
Test CRC 5AC2F414
Copy CRC 5AC2F414
Accurately ripped (confidence 5) [1ED188C5]
Copy OK

Track 7

Filename F:\0-Ripping\Saint Germain\CD5\07 - The Dinning Rooms - Thin Ice (Paolo Fedreghini & Marco Bianchi Remix).wav

Peak level 83.7 %
Track quality 100.0 %
Test CRC FD0E0AEB
Copy CRC FD0E0AEB
Accurately ripped (confidence 5) [5E3AB878]
Copy OK

Track 8

Filename F:\0-Ripping\Saint Germain\CD5\08 - Terranova - Contact.wav

Peak level 98.6 %
Track quality 100.0 %
Test CRC 1803AE72
Copy CRC 1803AE72
Accurately ripped (confidence 5) [E1A51F62]
Copy OK

Track 9

Filename F:\0-Ripping\Saint Germain\CD5\09 - Chвteau Flight - Camping Jazz.wav

Peak level 98.8 %
Track quality 100.0 %
Test CRC B6294E0E
Copy CRC B6294E0E
Accurately ripped (confidence 5) [3C2B2527]
Copy OK

Track 10

Filename F:\0-Ripping\Saint Germain\CD5\10 - Quantic feat Alice Russell - The Sound Of Everything.wav

Peak level 87.1 %
Track quality 100.0 %
Test CRC 37BB8A6E
Copy CRC 37BB8A6E
Accurately ripped (confidence 5) [F918EF26]
Copy OK

Track 11

Filename F:\0-Ripping\Saint Germain\CD5\11 - A Bossa Electrica - Skindo LeLe (S.U.M.O. Rebounce).wav

Peak level 100.0 %
Track quality 100.0 %
Test CRC A972642B
Copy CRC A972642B
Accurately ripped (confidence 5) [380ACFB4]
Copy OK

Track 12

Filename F:\0-Ripping\Saint Germain\CD5\12 - Micatone - Step Into Gallery (Mighty Bob Mix).wav

Peak level 95.1 %
Track quality 100.0 %
Test CRC 25090A90
Copy CRC 25090A90
Accurately ripped (confidence 5) [E63D0FAF]
Copy OK

Track 13

Filename F:\0-Ripping\Saint Germain\CD5\13 - Marco Di Marco & Nathan Haines - Take Off.wav

Peak level 100.0 %
Track quality 99.9 %
Test CRC 13B20346
Copy CRC 13B20346
Accurately ripped (confidence 5) [F937E084]
Copy OK

Track 14

Filename F:\0-Ripping\Saint Germain\CD5\14 - Clare Teal & Jamie Cullum - The Road Less Travelled.wav

Peak level 100.0 %
Track quality 99.9 %
Test CRC A5AFC494
Copy CRC A5AFC494
Accurately ripped (confidence 5) [F72F3EB5]
Copy OK

Track 15

Filename F:\0-Ripping\Saint Germain\CD5\15 - Dani Siciliano - Come As You Are.wav

Peak level 100.0 %
Track quality 100.0 %
Test CRC E0A8D169
Copy CRC E0A8D169
Accurately ripped (confidence 5) [34F5ABE5]
Copy OK


All tracks accurately ripped

No errors occurred

End of status report

Exact Audio Copy V0.99 prebeta 5 from 4. May 2009

EAC extraction logfile from 16. May 2009, 21:03

Various / Saint-Germain-Des-Pres Cafe 'Paris' (Limited Edition)

Used drive : TSSTcorpCDDVDW SH-S203B Adapter: 2 ID: 1

Read mode : Secure
Utilize accurate stream : Yes
Defeat audio cache : Yes
Make use of C2 pointers : No

Read offset correction : 6
Overread into Lead-In and Lead-Out : No
Fill up missing offset samples with silence : Yes
Delete leading and trailing silent blocks : No
Null samples used in CRC calculations : Yes
Used interface : Native Win32 interface for Win NT & 2000
Gap handling : Appended to previous track

Used output format : User Defined Encoder
Selected bitrate : 320 kBit/s
Quality : High
Add ID3 tag : No
Command line compressor : C:\Program Files\Exact Audio Copy\flac.exe
Additional command line options : -V -8 -T "artist=%a" -T "title=%t" -T "album=%g" -T "date=%y" -T "tracknumber=%n" -T "genre=%m" %s


TOC of the extracted CD

Track | Start | Length | Start sector | End sector
––––––––––––––––––––––––––––-
1 | 0:00.00 | 2:12.19 | 0 | 9918
2 | 2:12.19 | 3:07.44 | 9919 | 23987
3 | 5:19.63 | 7:13.27 | 23988 | 56489
4 | 12:33.15 | 5:18.36 | 56490 | 80375
5 | 17:51.51 | 6:03.43 | 80376 | 107643
6 | 23:55.19 | 5:42.50 | 107644 | 133343
7 | 29:37.69 | 6:48.15 | 133344 | 163958
8 | 36:26.09 | 7:21.64 | 163959 | 197097
9 | 43:47.73 | 5:02.10 | 197098 | 219757
10 | 48:50.08 | 3:56.31 | 219758 | 237488
11 | 52:46.39 | 4:49.53 | 237489 | 259216
12 | 57:36.17 | 4:39.69 | 259217 | 280210
13 | 62:16.11 | 3:34.62 | 280211 | 296322
14 | 65:50.73 | 7:01.02 | 296323 | 327899
15 | 72:52.00 | 5:35.66 | 327900 | 353090


Track 1

Filename F:\0-Ripping\Saint Germain\CD6\01 - Kennedy Jenson - My Heart Belongs To Daddy.wav

Pre-gap length 0:00:02.00

Peak level 100.0 %
Track quality 100.0 %
Test CRC 36FA2E4C
Copy CRC 36FA2E4C
Accurately ripped (confidence 5) [5A4C3D0B]
Copy OK

Track 2

Filename F:\0-Ripping\Saint Germain\CD6\02 - Viktoria Tolstoy - The Way Young Lovers Do.wav

Peak level 100.0 %
Track quality 100.0 %
Test CRC E076129C
Copy CRC E076129C
Accurately ripped (confidence 5) [47689237]
Copy OK

Track 3

Filename F:\0-Ripping\Saint Germain\CD6\03 - The Five Corners Quintet - Three Corners (Nicola Conte Sahib's Samba Version).wav

Peak level 100.0 %
Track quality 100.0 %
Test CRC 2D491859
Copy CRC 2D491859
Accurately ripped (confidence 5) [8A1F4712]
Copy OK

Track 4

Filename F:\0-Ripping\Saint Germain\CD6\04 - Slow Train - Trail Of Dawn (Varano's Hotel Of Dawn Remix).wav

Peak level 88.0 %
Track quality 100.0 %
Test CRC F589EF98
Copy CRC F589EF98
Accurately ripped (confidence 5) [CA6E7296]
Copy OK

Track 5

Filename F:\0-Ripping\Saint Germain\CD6\05 - [Re-Jazz] feat Alice Russell - Gabrielle (Alternate 12' Take).wav

Peak level 100.0 %
Track quality 99.9 %
Test CRC 04D94C95
Copy CRC 04D94C95
Accurately ripped (confidence 5) [98EC2DC0]
Copy OK

Track 6

Filename F:\0-Ripping\Saint Germain\CD6\06 - Salvador Group - Moksa.wav

Peak level 92.8 %
Track quality 99.9 %
Test CRC 7B6B149D
Copy CRC 7B6B149D
Accurately ripped (confidence 5) [859B9B48]
Copy OK

Track 7

Filename F:\0-Ripping\Saint Germain\CD6\07 - Gerardo Frisina - The Gods Of The Yoruba (Belem).wav

Peak level 75.4 %
Track quality 100.0 %
Test CRC 9965D126
Copy CRC 9965D126
Accurately ripped (confidence 5) [8748AB3D]
Copy OK

Track 8

Filename F:\0-Ripping\Saint Germain\CD6\08 - Nicola Conte & Gianluca Petrella - New Standards.wav

Peak level 88.9 %
Track quality 100.0 %
Test CRC 4CA26FEF
Copy CRC 4CA26FEF
Accurately ripped (confidence 5) [B1B70E66]
Copy OK

Track 9

Filename F:\0-Ripping\Saint Germain\CD6\09 - The Invisible Session - Till The End.wav

Peak level 100.0 %
Track quality 100.0 %
Test CRC 1FDE16AA
Copy CRC 1FDE16AA
Accurately ripped (confidence 5) [0C4EEF8D]
Copy OK

Track 10

Filename F:\0-Ripping\Saint Germain\CD6\10 - Stacey Kent - Under A Blanket Of Blue.wav

Peak level 100.0 %
Track quality 99.9 %
Test CRC A892FABA
Copy CRC A892FABA
Accurately ripped (confidence 5) [D8E5B169]
Copy OK

Track 11

Filename F:\0-Ripping\Saint Germain\CD6\11 - Tok Tok Tok - Flow Of Joy.wav

Peak level 84.5 %
Track quality 100.0 %
Test CRC 1E7D28F7
Copy CRC 1E7D28F7
Accurately ripped (confidence 5) [61340C9B]
Copy OK

Track 12

Filename F:\0-Ripping\Saint Germain\CD6\12 - Tosca - Heidi Bruehl.wav

Peak level 90.8 %
Track quality 99.9 %
Test CRC 54E45C25
Copy CRC 54E45C25
Accurately ripped (confidence 5) [5078E2A2]
Copy OK

Track 13

Filename F:\0-Ripping\Saint Germain\CD6\13 - Nemo - Darkest Day (Original 7' Mix).wav

Peak level 94.3 %
Track quality 99.9 %
Test CRC 0961F51F
Copy CRC 0961F51F
Accurately ripped (confidence 5) [17F734BB]
Copy OK

Track 14

Filename F:\0-Ripping\Saint Germain\CD6\14 - [Re-Jazz] feat Jo Laundy - Style (Dublex Inc. Rework).wav

Peak level 100.0 %
Track quality 99.9 %
Test CRC E4909BEC
Copy CRC E4909BEC
Accurately ripped (confidence 5) [EB43425F]
Copy OK

Track 15

Filename F:\0-Ripping\Saint Germain\CD6\15 - The Cinematic Orchestra - Ode To The Big Sea.wav

Peak level 80.9 %
Track quality 100.0 %
Test CRC E4597BF7
Copy CRC E4597BF7
Accurately ripped (confidence 4) [108C04E9]
Copy OK


All tracks accurately ripped

No errors occurred

End of status report

Exact Audio Copy V0.99 prebeta 5 from 4. May 2009

EAC extraction logfile from 16. May 2009, 21:34

Various / Saint-Germain-Des-Pres Cafe 'Paris' (Limited Edition)

Used drive : TSSTcorpCDDVDW SH-S203B Adapter: 2 ID: 1

Read mode : Secure
Utilize accurate stream : Yes
Defeat audio cache : Yes
Make use of C2 pointers : No

Read offset correction : 6
Overread into Lead-In and Lead-Out : No
Fill up missing offset samples with silence : Yes
Delete leading and trailing silent blocks : No
Null samples used in CRC calculations : Yes
Used interface : Native Win32 interface for Win NT & 2000
Gap handling : Appended to previous track

Used output format : User Defined Encoder
Selected bitrate : 320 kBit/s
Quality : High
Add ID3 tag : No
Command line compressor : C:\Program Files\Exact Audio Copy\flac.exe
Additional command line options : -V -8 -T "artist=%a" -T "title=%t" -T "album=%g" -T "date=%y" -T "tracknumber=%n" -T "genre=%m" %s


TOC of the extracted CD

Track | Start | Length | Start sector | End sector
––––––––––––––––––––––––––––-
1 | 0:00.00 | 4:04.48 | 0 | 18347
2 | 4:04.48 | 4:43.29 | 18348 | 39601
3 | 8:48.02 | 3:30.20 | 39602 | 55371
4 | 12:18.22 | 3:44.13 | 55372 | 72184
5 | 16:02.35 | 4:42.10 | 72185 | 93344
6 | 20:44.45 | 4:10.07 | 93345 | 112101
7 | 24:54.52 | 4:46.60 | 112102 | 133611
8 | 29:41.37 | 7:26.05 | 133612 | 167066
9 | 37:07.42 | 3:32.60 | 167067 | 183026
10 | 40:40.27 | 7:02.39 | 183027 | 214715
11 | 47:42.66 | 6:34.19 | 214716 | 244284
12 | 54:17.10 | 4:39.11 | 244285 | 265220
13 | 58:56.21 | 7:14.06 | 265221 | 297776
14 | 66:10.27 | 5:25.72 | 297777 | 322223
15 | 71:36.24 | 3:59.27 | 322224 | 340175


Track 1

Filename F:\0-Ripping\Saint Germain\CD7\01 - Troublemakers - Get Misunderstood.wav

Pre-gap length 0:00:02.00

Peak level 99.7 %
Track quality 100.0 %
Test CRC F88E469C
Copy CRC F88E469C
Accurately ripped (confidence 5) [AB167409]
Copy OK

Track 2

Filename F:\0-Ripping\Saint Germain\CD7\02 - Alice Russell feat Natureboy - Sweet Is The Air.wav

Peak level 98.5 %
Track quality 100.0 %
Test CRC 9C401425
Copy CRC 9C401425
Accurately ripped (confidence 5) [F7532D3C]
Copy OK

Track 3

Filename F:\0-Ripping\Saint Germain\CD7\03 - Kinny & Horne - Forgetting To Remember (Nostalgia 77 Mix).wav

Peak level 100.0 %
Track quality 100.0 %
Test CRC 2773F588
Copy CRC 2773F588
Accurately ripped (confidence 5) [B0355558]
Copy OK

Track 4

Filename F:\0-Ripping\Saint Germain\CD7\04 - Mr. Scruff - Beyond.wav

Peak level 100.0 %
Track quality 100.0 %
Test CRC 758D8F77
Copy CRC 758D8F77
Accurately ripped (confidence 5) [1AF3CF3E]
Copy OK

Track 5

Filename F:\0-Ripping\Saint Germain\CD7\05 - Bobby Hughes Combination - Clive The Runner.wav

Peak level 100.0 %
Track quality 100.0 %
Test CRC AC72ECB7
Copy CRC AC72ECB7
Accurately ripped (confidence 5) [9B224F3E]
Copy OK

Track 6

Filename F:\0-Ripping\Saint Germain\CD7\06 - Earl Zinger - Who Killed Saturday Night.wav

Peak level 100.0 %
Track quality 100.0 %
Test CRC 41E34E44
Copy CRC 41E34E44
Accurately ripped (confidence 5) [D74912FC]
Copy OK

Track 7

Filename F:\0-Ripping\Saint Germain\CD7\07 - Archie Shepp - Hipnosis (Eddy & Dus Mix).wav

Peak level 92.6 %
Track quality 100.0 %
Test CRC CBEAC136
Copy CRC CBEAC136
Accurately ripped (confidence 5) [4AFE508A]
Copy OK

Track 8

Filename F:\0-Ripping\Saint Germain\CD7\08 - Lonesome Echo Productions feat Pharoah Sanders & Apani - Love.wav

Peak level 100.0 %
Track quality 100.0 %
Test CRC 80FD3202
Copy CRC 80FD3202
Accurately ripped (confidence 5) [3F909DC6]
Copy OK

Track 9

Filename F:\0-Ripping\Saint Germain\CD7\09 - Shawn Lee's Ping Pong Orchestra & Ohmega Watts - The Hour Glass Effect.wav

Peak level 82.6 %
Track quality 100.0 %
Test CRC 7170CE31
Copy CRC 7170CE31
Accurately ripped (confidence 5) [C62721CE]
Copy OK

Track 10

Filename F:\0-Ripping\Saint Germain\CD7\10 - Greyboy - Land Of The Lost.wav

Peak level 100.0 %
Track quality 100.0 %
Test CRC B8EB082D
Copy CRC B8EB082D
Accurately ripped (confidence 5) [1BF4137C]
Copy OK

Track 11

Filename F:\0-Ripping\Saint Germain\CD7\11 - Dwight Trible - Africa.wav

Peak level 100.0 %
Track quality 100.0 %
Test CRC F74A5213
Copy CRC F74A5213
Accurately ripped (confidence 5) [1A31160E]
Copy OK

Track 12

Filename F:\0-Ripping\Saint Germain\CD7\12 - Anne Ducros - God Bless The Child.wav

Peak level 100.0 %
Track quality 100.0 %
Test CRC 2417A6EE
Copy CRC 2417A6EE
Accurately ripped (confidence 5) [ABD4DA50]
Copy OK

Track 13

Filename F:\0-Ripping\Saint Germain\CD7\13 - Big Bang - Speak Low.wav

Peak level 100.0 %
Track quality 100.0 %
Test CRC 2411BA17
Copy CRC 2411BA17
Accurately ripped (confidence 5) [5AE53961]
Copy OK

Track 14

Filename F:\0-Ripping\Saint Germain\CD7\14 - Nu Tropic feat Stephane Belmondo - We've Got It !.wav

Peak level 100.0 %
Track quality 100.0 %
Test CRC 11A92F2F
Copy CRC 11A92F2F
Accurately ripped (confidence 5) [50D9D300]
Copy OK

Track 15

Filename F:\0-Ripping\Saint Germain\CD7\15 - Ursula Rucker - Black Erotica.wav

Peak level 100.0 %
Track quality 100.0 %
Test CRC 7ABD4143
Copy CRC 7ABD4143
Accurately ripped (confidence 5) [40F93CE5]
Copy OK


All tracks accurately ripped

No errors occurred

End of status report

Exact Audio Copy V0.99 prebeta 5 from 4. May 2009

EAC extraction logfile from 17. May 2009, 22:44

Various / Saint-Germain-Des-Pres Cafe 'Paris' (Limited Edition)

Used drive : TSSTcorpCDDVDW SH-S203B Adapter: 2 ID: 1

Read mode : Secure
Utilize accurate stream : Yes
Defeat audio cache : Yes
Make use of C2 pointers : No

Read offset correction : 6
Overread into Lead-In and Lead-Out : No
Fill up missing offset samples with silence : Yes
Delete leading and trailing silent blocks : No
Null samples used in CRC calculations : Yes
Used interface : Native Win32 interface for Win NT & 2000
Gap handling : Appended to previous track

Used output format : User Defined Encoder
Selected bitrate : 320 kBit/s
Quality : High
Add ID3 tag : No
Command line compressor : C:\Program Files\Exact Audio Copy\flac.exe
Additional command line options : -V -8 -T "artist=%a" -T "title=%t" -T "album=%g" -T "date=%y" -T "tracknumber=%n" -T "genre=%m" %s


TOC of the extracted CD

Track | Start | Length | Start sector | End sector
––––––––––––––––––––––––––––-
1 | 0:00.00 | 3:55.14 | 0 | 17638
2 | 3:55.14 | 3:38.46 | 17639 | 34034
3 | 7:33.60 | 4:10.61 | 34035 | 52845
4 | 11:44.46 | 4:25.37 | 52846 | 72757
5 | 16:10.08 | 7:01.39 | 72758 | 104371
6 | 23:11.47 | 2:08.71 | 104372 | 114042
7 | 25:20.43 | 5:32.34 | 114043 | 138976
8 | 30:53.02 | 6:01.09 | 138977 | 166060
9 | 36:54.11 | 3:19.22 | 166061 | 181007
10 | 40:13.33 | 3:10.26 | 181008 | 195283
11 | 43:23.59 | 7:05.36 | 195284 | 227194
12 | 50:29.20 | 3:52.67 | 227195 | 244661
13 | 54:22.12 | 3:52.71 | 244662 | 262132
14 | 58:15.08 | 5:05.27 | 262133 | 285034
15 | 63:20.35 | 5:25.02 | 285035 | 309411


Track 1

Filename F:\0-Ripping\Saint Germain\CD8\01 - Outlines - Just A Lil Lovin'.wav

Pre-gap length 0:00:02.00

Peak level 100.0 %
Track quality 100.0 %
Test CRC 72ED3B08
Copy CRC 72ED3B08
Accurately ripped (confidence 5) [846B3F95]
Copy OK

Track 2

Filename F:\0-Ripping\Saint Germain\CD8\02 - The Five Corners Quintet feat Mark Murphy - Before We Say Goodbye.wav

Peak level 100.0 %
Track quality 100.0 %
Test CRC 0C7F0162
Copy CRC 0C7F0162
Accurately ripped (confidence 5) [5B3DA959]
Copy OK

Track 3

Filename F:\0-Ripping\Saint Germain\CD8\03 - Diesler - Sandcastlers.wav

Peak level 88.4 %
Track quality 100.0 %
Test CRC B0AD9847
Copy CRC B0AD9847
Accurately ripped (confidence 5) [1C16FE7F]
Copy OK

Track 4

Filename F:\0-Ripping\Saint Germain\CD8\04 - Extended Spirit - Solid Water (Rainer Trьby Trio Remix).wav

Peak level 100.0 %
Track quality 100.0 %
Test CRC EB8A1683
Copy CRC EB8A1683
Accurately ripped (confidence 5) [39501016]
Copy OK

Track 5

Filename F:\0-Ripping\Saint Germain\CD8\05 - Les Gammas - La Vie Des Anges.wav

Peak level 100.0 %
Track quality 100.0 %
Test CRC 134A62A7
Copy CRC 134A62A7
Accurately ripped (confidence 5) [310DC652]
Copy OK

Track 6

Filename F:\0-Ripping\Saint Germain\CD8\06 - Susie Arioli - Why Do I.wav

Peak level 100.0 %
Track quality 100.0 %
Test CRC A5068BCF
Copy CRC A5068BCF
Accurately ripped (confidence 5) [5E52DA13]
Copy OK

Track 7

Filename F:\0-Ripping\Saint Germain\CD8\07 - Andre Caccarelli & Stephy Haik - Walk On The Wild Side.wav

Peak level 100.0 %
Track quality 100.0 %
Test CRC 621FBD8D
Copy CRC 621FBD8D
Accurately ripped (confidence 5) [BAB21070]
Copy OK

Track 8

Filename F:\0-Ripping\Saint Germain\CD8\08 - Nicola Conte & Micatone - Arabesque (Vocal Version).wav

Peak level 100.0 %
Track quality 100.0 %
Test CRC 663FD64D
Copy CRC 663FD64D
Accurately ripped (confidence 5) [50FCC3EF]
Copy OK

Track 9

Filename F:\0-Ripping\Saint Germain\CD8\09 - Kinny & Horne - Us On Fire.wav

Peak level 100.0 %
Track quality 100.0 %
Test CRC 19ADEB2D
Copy CRC 19ADEB2D
Accurately ripped (confidence 5) [2AF57C79]
Copy OK

Track 10

Filename F:\0-Ripping\Saint Germain\CD8\10 - Marco Di Marco & Nathan Haines - Walking In St. James' Park.wav

Peak level 100.0 %
Track quality 100.0 %
Test CRC 6730025E
Copy CRC 6730025E
Accurately ripped (confidence 5) [863B3D0A]
Copy OK

Track 11

Filename F:\0-Ripping\Saint Germain\CD8\11 - Mario Biondi & The High Five Quintet - This Is What Your Are.wav

Peak level 100.0 %
Track quality 100.0 %
Test CRC E73B3C0A
Copy CRC E73B3C0A
Accurately ripped (confidence 5) [865F5098]
Copy OK

Track 12

Filename F:\0-Ripping\Saint Germain\CD8\12 - Micatone - That's The Way It Goes.wav

Peak level 100.0 %
Track quality 100.0 %
Test CRC B5A75672
Copy CRC B5A75672
Accurately ripped (confidence 5) [AB4A99FA]
Copy OK

Track 13

Filename F:\0-Ripping\Saint Germain\CD8\13 - Radio Citizen feat Bajka - Championsound.wav

Peak level 100.0 %
Track quality 100.0 %
Test CRC F648E739
Copy CRC F648E739
Accurately ripped (confidence 5) [2F809BA2]
Copy OK

Track 14

Filename F:\0-Ripping\Saint Germain\CD8\14 - TM Juke - High Rise.wav

Peak level 100.0 %
Track quality 100.0 %
Test CRC 0CF7D2A4
Copy CRC 0CF7D2A4
Accurately ripped (confidence 5) [83931CE8]
Copy OK

Track 15

Filename F:\0-Ripping\Saint Germain\CD8\15 - Slope feat Jane Hamilton - Fin Our Love (Volker Meitz Acoustic Replay).wav

Pre-gap length 0:00:00.01

Peak level 100.0 %
Track quality 100.0 %
Test CRC 16C0E46C
Copy CRC 16C0E46C
Accurately ripped (confidence 5) [3D333626]
Copy OK


All tracks accurately ripped

No errors occurred

End of status report

Exact Audio Copy V0.99 prebeta 5 from 4. May 2009

EAC extraction logfile from 17. May 2009, 20:39

Various / Saint-Germain-Des-Prйs Cafй 'Paris' (Limited Edition)

Used drive : TSSTcorpCDDVDW SH-S203B Adapter: 2 ID: 1

Read mode : Secure
Utilize accurate stream : Yes
Defeat audio cache : Yes
Make use of C2 pointers : No

Read offset correction : 6
Overread into Lead-In and Lead-Out : No
Fill up missing offset samples with silence : Yes
Delete leading and trailing silent blocks : No
Null samples used in CRC calculations : Yes
Used interface : Native Win32 interface for Win NT & 2000
Gap handling : Appended to previous track

Used output format : User Defined Encoder
Selected bitrate : 320 kBit/s
Quality : High
Add ID3 tag : No
Command line compressor : C:\Program Files\Exact Audio Copy\flac.exe
Additional command line options : -V -8 -T "artist=%a" -T "title=%t" -T "album=%g" -T "date=%y" -T "tracknumber=%n" -T "genre=%m" %s


TOC of the extracted CD

Track | Start | Length | Start sector | End sector
––––––––––––––––––––––––––––-
1 | 0:00.00 | 7:19.60 | 0 | 32984
2 | 7:19.60 | 5:02.08 | 32985 | 55642
3 | 12:21.68 | 3:41.19 | 55643 | 72236
4 | 16:03.12 | 4:07.54 | 72237 | 90815
5 | 20:10.66 | 6:43.70 | 90816 | 121110
6 | 26:54.61 | 6:26.07 | 121111 | 150067
7 | 33:20.68 | 6:00.62 | 150068 | 177129
8 | 39:21.55 | 4:11.68 | 177130 | 196022
9 | 43:33.48 | 5:32.02 | 196023 | 220924
10 | 49:05.50 | 2:40.18 | 220925 | 232942
11 | 51:45.68 | 7:00.03 | 232943 | 264445
12 | 58:45.71 | 4:04.59 | 264446 | 282804
13 | 62:50.55 | 5:09.27 | 282805 | 306006
14 | 68:00.07 | 5:34.63 | 306007 | 331119
15 | 73:34.70 | 4:09.37 | 331120 | 349831


Track 1

Filename F:\0-Ripping\Saint Germain\CD9\01 - Big Bang - Spinning 6 Turning 8.wav

Pre-gap length 0:00:02.00

Peak level 100.0 %
Track quality 100.0 %
Test CRC CB245183
Copy CRC CB245183
Accurately ripped (confidence 4) [2F9B58EC]
Copy OK

Track 2

Filename F:\0-Ripping\Saint Germain\CD9\02 - DJ Food - Half Step.wav

Peak level 100.0 %
Track quality 100.0 %
Test CRC 31CC4D6C
Copy CRC 31CC4D6C
Accurately ripped (confidence 4) [9D39C9D7]
Copy OK

Track 3

Filename F:\0-Ripping\Saint Germain\CD9\03 - Stacey Kent - Let Yourself Go.wav

Peak level 100.0 %
Track quality 100.0 %
Test CRC 22F4419A
Copy CRC 22F4419A
Accurately ripped (confidence 4) [1AC8EBB2]
Copy OK

Track 4

Filename F:\0-Ripping\Saint Germain\CD9\04 - Jazzanova feat Clara Hill - No Use.wav

Peak level 96.7 %
Track quality 99.9 %
Test CRC E7FCF527
Copy CRC E7FCF527
Accurately ripped (confidence 4) [9305566C]
Copy OK

Track 5

Filename F:\0-Ripping\Saint Germain\CD9\05 - Mitchell & Dewbury feat Billie Godfrey - Beyond The Rains.wav

Peak level 100.0 %
Track quality 100.0 %
Test CRC 1F6D5CDC
Copy CRC 1F6D5CDC
Accurately ripped (confidence 4) [5AF17C7B]
Copy OK

Track 6

Filename F:\0-Ripping\Saint Germain\CD9\06 - The Invisible Session - I'll Be Your Wings.wav

Peak level 100.0 %
Track quality 100.0 %
Test CRC 4DE22485
Copy CRC 4DE22485
Accurately ripped (confidence 4) [E9CCE2D6]
Copy OK

Track 7

Filename F:\0-Ripping\Saint Germain\CD9\07 - Juryman - The Morning.wav

Peak level 100.0 %
Track quality 100.0 %
Test CRC E32013A8
Copy CRC E32013A8
Accurately ripped (confidence 4) [438001ED]
Copy OK

Track 8

Filename F:\0-Ripping\Saint Germain\CD9\08 - Kinny & Horne - Queen Of Boredness (Diesler Mix).wav

Peak level 100.0 %
Track quality 100.0 %
Test CRC 58D6D74E
Copy CRC 58D6D74E
Accurately ripped (confidence 4) [4B5E12EA]
Copy OK

Track 9

Filename F:\0-Ripping\Saint Germain\CD9\09 - The Quantic Soul Orchestra feat Alice Russell - Take Your Time, Change Your Mind.wav

Peak level 100.0 %
Track quality 100.0 %
Test CRC 56B214A5
Copy CRC 56B214A5
Accurately ripped (confidence 4) [76CE7DD1]
Copy OK

Track 10

Filename F:\0-Ripping\Saint Germain\CD9\10 - Dominique Dalcan - The Look Of Love.wav

Peak level 100.0 %
Track quality 100.0 %
Test CRC 739671B7
Copy CRC 739671B7
Accurately ripped (confidence 4) [7DCCF54F]
Copy OK

Track 11

Filename F:\0-Ripping\Saint Germain\CD9\11 - Les Gammas - Guauanco (The Cinematic Orchestra Remix).wav

Peak level 86.5 %
Track quality 99.9 %
Test CRC 6327202F
Copy CRC 6327202F
Accurately ripped (confidence 4) [0DD155C5]
Copy OK

Track 12

Filename F:\0-Ripping\Saint Germain\CD9\12 - Jumbonics - Sandy.wav

Peak level 100.0 %
Track quality 100.0 %
Test CRC 46CAC59C
Copy CRC 46CAC59C
Accurately ripped (confidence 4) [54DDEB96]
Copy OK

Track 13

Filename F:\0-Ripping\Saint Germain\CD9\13 - The Herbaliser - Something Wicked.wav

Peak level 100.0 %
Track quality 100.0 %
Test CRC 731F9B02
Copy CRC 731F9B02
Accurately ripped (confidence 4) [43A8E1CC]
Copy OK

Track 14

Filename F:\0-Ripping\Saint Germain\CD9\14 - Micatone - You've Taken All.wav

Peak level 71.4 %
Track quality 100.0 %
Test CRC BBB566E7
Copy CRC BBB566E7
Accurately ripped (confidence 4) [D8597E7A]
Copy OK

Track 15

Filename F:\0-Ripping\Saint Germain\CD9\15 - Musica Nuda (Petra Magoni & Ferruccio Spinetti) feat Erik Truffaz - Take A Bow.wav

Peak level 85.7 %
Track quality 100.0 %
Test CRC 06DB61D3
Copy CRC 06DB61D3
Accurately ripped (confidence 4) [2DF8CD2D]
Copy OK


All tracks accurately ripped

No errors occurred

End of status report

Exact Audio Copy V0.99 prebeta 5 from 4. May 2009

EAC extraction logfile from 17. May 2009, 21:04

Various / Saint-Germain-Des-Prйs Cafй 'Paris' (Limited Edition)

Used drive : TSSTcorpCDDVDW SH-S203B Adapter: 2 ID: 1

Read mode : Secure
Utilize accurate stream : Yes
Defeat audio cache : Yes
Make use of C2 pointers : No

Read offset correction : 6
Overread into Lead-In and Lead-Out : No
Fill up missing offset samples with silence : Yes
Delete leading and trailing silent blocks : No
Null samples used in CRC calculations : Yes
Used interface : Native Win32 interface for Win NT & 2000
Gap handling : Appended to previous track

Used output format : User Defined Encoder
Selected bitrate : 320 kBit/s
Quality : High
Add ID3 tag : No
Command line compressor : C:\Program Files\Exact Audio Copy\flac.exe
Additional command line options : -V -8 -T "artist=%a" -T "title=%t" -T "album=%g" -T "date=%y" -T "tracknumber=%n" -T "genre=%m" %s


TOC of the extracted CD

Track | Start | Length | Start sector | End sector
––––––––––––––––––––––––––––-
1 | 0:00.00 | 4:59.00 | 0 | 22424
2 | 4:59.00 | 6:20.40 | 22425 | 50964
3 | 11:19.40 | 3:57.55 | 50965 | 68794
4 | 15:17.20 | 8:08.33 | 68795 | 105427
5 | 23:25.53 | 2:55.18 | 105428 | 118570
6 | 26:20.71 | 3:36.66 | 118571 | 134836
7 | 29:57.62 | 4:58.28 | 134837 | 157214
8 | 34:56.15 | 4:25.68 | 157215 | 177157
9 | 39:22.08 | 2:09.09 | 177158 | 186841
10 | 41:31.17 | 4:30.19 | 186842 | 207110
11 | 46:01.36 | 3:14.00 | 207111 | 221660
12 | 49:15.36 | 6:26.49 | 221661 | 250659
13 | 55:42.10 | 5:51.31 | 250660 | 277015
14 | 61:33.41 | 4:27.08 | 277016 | 297048
15 | 66:00.49 | 2:32.64 | 297049 | 308512


Track 1

Filename F:\0-Ripping\Saint Germain\CD10\01 - Mr. Scruff - Valley Of The Sausages.wav

Pre-gap length 0:00:02.00

Peak level 98.4 %
Track quality 100.0 %
Test CRC 14A86DD8
Copy CRC 14A86DD8
Accurately ripped (confidence 5) [7304A73B]
Copy OK

Track 2

Filename F:\0-Ripping\Saint Germain\CD10\02 - Ben Mono feat Bajka - Suburban Resident.wav

Peak level 83.3 %
Track quality 99.9 %
Test CRC ACBFF3A9
Copy CRC ACBFF3A9
Accurately ripped (confidence 5) [792EA8D1]
Copy OK

Track 3

Filename F:\0-Ripping\Saint Germain\CD10\03 - Bugge Wesseltoft & Sidsel Endresen - Try.wav

Peak level 100.0 %
Track quality 99.9 %
Test CRC 2224C243
Copy CRC 2224C243
Accurately ripped (confidence 5) [56FD4E2A]
Copy OK

Track 4

Filename F:\0-Ripping\Saint Germain\CD10\04 - Kyoto Jazz Massive feat Vanessa Freeman - The Brightness Of Theses Days (Quantic Remix).wav

Peak level 98.1 %
Track quality 100.0 %
Test CRC 2F5BC9BF
Copy CRC 2F5BC9BF
Accurately ripped (confidence 5) [1C5AE7A8]
Copy OK

Track 5

Filename F:\0-Ripping\Saint Germain\CD10\05 - The Right Vibes - What Is Jazz.wav

Peak level 100.0 %
Track quality 100.0 %
Test CRC 5C9B6C72
Copy CRC 5C9B6C72
Accurately ripped (confidence 5) [7B897C77]
Copy OK

Track 6

Filename F:\0-Ripping\Saint Germain\CD10\06 - Jumbonics - (You Little) Jezebel (Diesler Mix).wav

Peak level 100.0 %
Track quality 100.0 %
Test CRC 2E464A67
Copy CRC 2E464A67
Accurately ripped (confidence 5) [ED234C1C]
Copy OK

Track 7

Filename F:\0-Ripping\Saint Germain\CD10\07 - Koop feat Earl Zinger - Forces… Darling.wav

Peak level 100.0 %
Track quality 100.0 %
Test CRC E865F108
Copy CRC E865F108
Accurately ripped (confidence 5) [F724EB74]
Copy OK

Track 8

Filename F:\0-Ripping\Saint Germain\CD10\08 - Jhelisa - Walking On Air.wav

Peak level 98.5 %
Track quality 100.0 %
Test CRC 486C9168
Copy CRC 486C9168
Accurately ripped (confidence 5) [AA9C661B]
Copy OK

Track 9

Filename F:\0-Ripping\Saint Germain\CD10\09 - Radio Citizen feat Bajka - Voices.wav

Peak level 100.0 %
Track quality 100.0 %
Test CRC 0E95DE41
Copy CRC 0E95DE41
Accurately ripped (confidence 5) [49FE8304]
Copy OK

Track 10

Filename F:\0-Ripping\Saint Germain\CD10\10 - Ian Simmonds - Alvin's Blues.wav

Peak level 77.1 %
Track quality 100.0 %
Test CRC 81C20F6A
Copy CRC 81C20F6A
Accurately ripped (confidence 5) [57BF9602]
Copy OK

Track 11

Filename F:\0-Ripping\Saint Germain\CD10\11 - Diesler - Cannibal Lunch.wav

Peak level 95.2 %
Track quality 100.0 %
Test CRC D83BC046
Copy CRC D83BC046
Accurately ripped (confidence 5) [9E012649]
Copy OK

Track 12

Filename F:\0-Ripping\Saint Germain\CD10\12 - Povo - Eyes Closed.wav

Peak level 86.3 %
Track quality 100.0 %
Test CRC D4CA5AE1
Copy CRC D4CA5AE1
Accurately ripped (confidence 5) [A52EFFEA]
Copy OK

Track 13

Filename F:\0-Ripping\Saint Germain\CD10\13 - Georg Levin - Can't Hold Back.wav

Peak level 93.8 %
Track quality 100.0 %
Test CRC E8432825
Copy CRC E8432825
Accurately ripped (confidence 5) [6ECABFF2]
Copy OK

Track 14

Filename F:\0-Ripping\Saint Germain\CD10\14 - Platnum - Greatest.wav

Peak level 93.9 %
Track quality 100.0 %
Test CRC FB9F7F4A
Copy CRC FB9F7F4A
Accurately ripped (confidence 5) [BEC015EA]
Copy OK

Track 15

Filename F:\0-Ripping\Saint Germain\CD10\15 - Outlines - Outro.wav

Peak level 97.2 %
Track quality 100.0 %
Test CRC 2A91A2DD
Copy CRC 2A91A2DD
Accurately ripped (confidence 5) [6882E087]
Copy OK


All tracks accurately ripped

No errors occurred

End of status report