Subcategories

Ute Lemper - Life Is A Cabaret (1987, CBS # CBS 460493 2)

Posted By: luckburz
Ute Lemper - Life Is A Cabaret (1987, CBS # CBS 460493 2)

Ute Lemper - Life Is A Cabaret
EAC+LOG+CUE | FLAC: 233 MB | Full Artwork: 40 MB | 5% Recovery Info
Label/Cat#: CBS # CBS 460493 2 | Country/Year: Germany 1987
Genre: Pop, Stage & Screen | Style: Chanson

MD5 [X] CUE [X] LOG [X] INFO TEXT [X] ARTWORK [X]

my rip [X] not my rip [ ]

Ute Lemper - Life Is A Cabaret (1987, CBS # CBS 460493 2)


Exact Audio Copy V1.0 beta 3 from 29. August 2011

EAC extraction logfile from 18. July 2013, 21:48

Ute Lemper / Life Is A Cabaret

Used drive : PIONEER BD-RW BDR-206 Adapter: 0 ID: 2

Read mode : Secure
Utilize accurate stream : Yes
Defeat audio cache : Yes
Make use of C2 pointers : No

Read offset correction : 667
Overread into Lead-In and Lead-Out : No
Fill up missing offset samples with silence : Yes
Delete leading and trailing silent blocks : No
Null samples used in CRC calculations : Yes
Used interface : Native Win32 interface for Win NT & 2000

Used output format : User Defined Encoder
Selected bitrate : 1024 kBit/s
Quality : High
Add ID3 tag : Yes
Command line compressor : C:\Program Files\FLAC\flac.exe
Additional command line options : -5 -T "Artist=%artist%" -T "Title=%title%" -T "Album=%albumtitle%" -T "Date=%year%" -T "Tracknumber=%tracknr%" -T "Genre=%genre%" %source% -o %dest%


TOC of the extracted CD

Track | Start | Length | Start sector | End sector
––––––––––––––––––––––––––––-
1 | 0:00.00 | 1:42.35 | 0 | 7684
2 | 1:42.35 | 3:10.30 | 7685 | 21964
3 | 4:52.65 | 3:40.25 | 21965 | 38489
4 | 8:33.15 | 3:31.65 | 38490 | 54379
5 | 12:05.05 | 3:46.60 | 54380 | 71389
6 | 15:51.65 | 3:39.15 | 71390 | 87829
7 | 19:31.05 | 5:23.62 | 87830 | 112116
8 | 24:54.67 | 4:23.15 | 112117 | 131856
9 | 29:18.07 | 3:22.45 | 131857 | 147051
10 | 32:40.52 | 4:37.60 | 147052 | 167886
11 | 37:18.37 | 3:34.35 | 167887 | 183971


Range status and errors

Selected range

Filename F:\=== VINYL RIPS ===\=== EAC===\X FRESH RIP\Ute Lemper - Life Is A Cabaret.wav

Peak level 100.0 %
Extraction speed 1.6 X
Range quality 100.0 %
Test CRC 436E79C4
Copy CRC 436E79C4
Copy OK

No errors occurred


AccurateRip summary

Track 1 accurately ripped (confidence 8) [649ED35A] (AR v1)
Track 2 accurately ripped (confidence 8) [469B0E34] (AR v1)
Track 3 accurately ripped (confidence 8) [CD88E858] (AR v1)
Track 4 accurately ripped (confidence 8) [D423909D] (AR v1)
Track 5 accurately ripped (confidence 8) [B7EC496A] (AR v1)
Track 6 accurately ripped (confidence 8) [063C17E7] (AR v1)
Track 7 accurately ripped (confidence 8) [5DC3817E] (AR v1)
Track 8 accurately ripped (confidence 8) [5E66E939] (AR v1)
Track 9 accurately ripped (confidence 8) [B036BE1D] (AR v1)
Track 10 accurately ripped (confidence 8) [02A00EB1] (AR v1)
Track 11 accurately ripped (confidence 8) [3E3B557B] (AR v1)

All tracks accurately ripped

End of status report

–– CUETools DB Plugin V2.1.3

[CTDB TOCID: Szz.t1fWJChuKWqcOwez2WTOXBA-] found, Submit result: Szz.t1fWJChuKWqcOwez2WTOXBA- has been confirmed
[7daf5d34] (4/4) Accurately ripped


==== Log checksum 760E00FE7DBC318F584EDD92FC823D8034AE90FE63D2D92BA95C681F741F58AF ====

foobar2000 1.1.14a / Dynamic Range Meter 1.1.1
log date: 2013-07-19 10:35:25

––––––––––––––––––––––––––––––––––––––––
Analyzed: Ute Lemper / Life Is A Cabaret
––––––––––––––––––––––––––––––––––––––––

DR Peak RMS Duration Track
––––––––––––––––––––––––––––––––––––––––
DR10 -3.99 dB -18.81 dB 1:42 01-Willkommen
DR12 0.00 dB -16.97 dB 3:10 02-Mein Herr
DR13 -0.35 dB -18.05 dB 3:40 03-Maybe This Time
DR14 -0.41 dB -17.45 dB 3:32 04-Don't Tell Mama
DR14 -0.52 dB -20.91 dB 3:47 05-Cabaret
DR12 -3.15 dB -19.65 dB 3:39 06-Non C'est Rien
DR13 -0.94 dB -19.21 dB 5:24 07-I Dreamed A Dream
DR14 0.00 dB -16.70 dB 4:23 08-One Night Only
DR13 -0.75 dB -16.36 dB 3:23 09-Miss Celie's Blues (Sister)
DR13 -0.58 dB -16.71 dB 4:38 10-Arthur's Theme (Best That You Can Do)
DR11 -3.44 dB -18.92 dB 3:34 11-The Rose
––––––––––––––––––––––––––––––––––––––––

Number of tracks: 11
Official DR value: DR13

Samplerate: 44100 Hz
Channels: 2
Bits per sample: 16
Bitrate: 798 kbps
Codec: FLAC
================================================================================



CD Info:

Ute Lemper - Life Is A Cabaret

Label: CBS
Catalog#: CBS 460493 2
Format: CD, Album
Country: Germany
Released: 1987
Genre: Pop, Stage & Screen
Style: Chanson

Tracklist:

1 Willkommen 1:37
2 Mein Herr 3:06
3 Maybe This Time 3:36
4 Don't Tell Mama 3:28
5 Cabaret 3:42
6 Non C'est Rien 3:35
7 I Dreamed A Dream 5:21
8 One Night Only 4:19
9 Miss Celie's Blues (Sister) 3:17
10 Arthur's Theme (Best That You Can Do) 4:36
11 The Rose 3:34

Notes: Made in Austria

Ute Lemper (born 4 July 1963) is a German singer and actress renowned for her interpretation of the work of Kurt Weill.

Born in Münster, Germany, Ute Gertrude Lemper was raised in a Roman Catholic family. She joined the jazz-rock music group known as the Panama Drive Band at the age of 16. Later, she graduated from the Dance Academy in Cologne and the Max Reinhardt Seminary Drama School in Vienna.

Her diverse credits include musicals, such as her breakthrough role in the original Viennese cast of Cats, the title role in Peter Pan, a recreation of the Marlene Dietrich-created Lola in The Blue Angel, the original European Sally Bowles in a Paris production of Cabaret, and Velma Kelly in Chicago (Lemper has played the role of Velma Kelly in Chicago in both London and New York. She won the Laurence Olivier Award for her performance in London). She also dubbed the singing voices of Ariel in Disney's The Little Mermaid and Esmeralda in The Hunchback of Notre Dame for German-speaking audiences.

In 1991 Ute Lemper participated in the Sanremo Music Festival with song The Photograph, written by Italian songwriter Enzo Jannacci.

A painter in the neoclassical style, Lemper's paintings have been showcased in numerous galleries.

Lemper, a mother of four, resides on the Upper West Side section of Manhattan in New York City. She performs worldwide, recently in the Middle East. Her autobiography was published in Berlin in 1995. She has also authored several journal articles.

Lemper, named Billboard's Crossover Artist of the Year for 1993/1994, is a prolific recording artist, appearing on numerous cast recordings and compilation concerts, including Roger Waters' "The Wall" concert in 1990. As a solo artist, her extensive discography includes ubiquitously well-reviewed interpretations of Kurt Weill's compositions from the late 1980s, in addition to German cabaret songs, which were very political songs sung in underground locations in 1930s Berlin and elsewhere. She recorded Illusions in 1992, devoted to the songs of Marlene Dietrich and Édith Piaf. She has numerous pop albums, variously in English, French, and German, and 2000s lauded modern Punishing Kiss. Punishing Kiss featured songs written especially for her by the likes of Scott Walker, Nick Cave, Tom Waits, Elvis Costello, Philip Glass, and Neil Hannon, the latter of whom performed with her on two of the album's tracks. Lemper is known for wild interpretations on discs like the Sondheim tribute City of Strangers, containing a particularly mannered version of the Elaine Stritch-popularized song "The Ladies Who Lunch". In 1998, a Lemper compilation, All That Jazz: The Best of Ute Lemper, was released. In 2003 and 2006, Lemper's songwriting talents were shown on her discs from those years as she moved from being an interpretive singer to a singer/songwriter. wikipedia

Ute Lemper - Life Is A Cabaret (1987, CBS # CBS 460493 2)


all of my uploads in my blog
________________

NITROFLARE

Music Pt. 1 | | Music Pt. 2

Artwork

________________