Teddy Pendergrass - Teddy / It's Time For Love (2005)

Posted By: InnerTemple
Teddy Pendergrass - Teddy / It's Time For Love (2005)

Teddy Pendergrass - Teddy / It's Time For Love (2005)
R&B | 1CD | Flac tracks+CUE+LOG+HQ Scans (300 dpi) | 543mb
Label: Edsel


Teddy (1979)

01 - Come Go With Me
02 - Turn Off The Lights
03 - I'll Never See Heaven Again
04 - All I Need Is You
05 - If You Know Like I Know
06 - Do Me
07 - Set Me Free
08 - Life Is A Circle

It's Time For Love (1981)

09 - I Can't Live Without Your Love
10 - You're My Latest, My Greatest Inspiration
11 - Nine Times Out Of Ten
12 - Keep On Lovin' Me
13 - It's Time for Love
14 - She's Over Me
15 - I Can't Leave Your Love Alone
16 - You Must Live On

Exact Audio Copy V0.99 prebeta 4 from 23. January 2008

EAC extraction logfile from 16. January 2010, 10:09

Teddy Pendergrass / Teddy + It's Time For Love

Used drive : OPTIARC DVD RW AD-5630A Adapter: 0 ID: 0

Read mode : Secure
Utilize accurate stream : Yes
Defeat audio cache : No
Make use of C2 pointers : Yes

Read offset correction : 48
Overread into Lead-In and Lead-Out : No
Fill up missing offset samples with silence : Yes
Delete leading and trailing silent blocks : No
Null samples used in CRC calculations : Yes
Used interface : Native Win32 interface for Win NT & 2000
Gap handling : Appended to previous track

Used output format : User Defined Encoder
Selected bitrate : 320 kBit/s
Quality : High
Add ID3 tag : No
Command line compressor : C:\Program\Exact Audio Copy\FLAC\FLAC.EXE
Additional command line options : -8 -V -T "artist=%a" -T "title=%t" -T "album=%g" -T "date=%y" -T "tracknumber=%n" -T "genre=%m" %s


TOC of the extracted CD

Track | Start | Length | Start sector | End sector
––––––––––––––––––––––––––––-
1 | 0:00.00 | 5:49.65 | 0 | 26239
2 | 5:49.65 | 5:56.64 | 26240 | 53003
3 | 11:46.54 | 4:47.29 | 53004 | 74557
4 | 16:34.08 | 4:34.55 | 74558 | 95162
5 | 21:08.63 | 5:02.29 | 95163 | 117841
6 | 26:11.17 | 4:41.32 | 117842 | 138948
7 | 30:52.49 | 5:03.47 | 138949 | 161720
8 | 35:56.21 | 5:53.28 | 161721 | 188223
9 | 41:49.49 | 3:02.15 | 188224 | 201888
10 | 44:51.64 | 5:24.21 | 201889 | 226209
11 | 50:16.10 | 4:15.19 | 226210 | 245353
12 | 54:31.29 | 4:35.15 | 245354 | 265993
13 | 59:06.44 | 5:59.51 | 265994 | 292969
14 | 65:06.20 | 3:52.08 | 292970 | 310377
15 | 68:58.28 | 4:45.36 | 310378 | 331788
16 | 73:43.64 | 3:50.32 | 331789 | 349070


Track 1

Filename C:\Documents and Settings\Administratцr\Skrivbord\Teddy Pendergrass - Teddy + It's Time For Love\01 - Come Go With Me.wav

Pre-gap length 0:00:02.00

Peak level 96.4 %
Track quality 100.0 %
Test CRC 1C493198
Copy CRC 1C493198
Accurately ripped (confidence 2) [486415FB]
Copy OK

Track 2

Filename C:\Documents and Settings\Administratцr\Skrivbord\Teddy Pendergrass - Teddy + It's Time For Love\02 - Turn Off The Lights.wav

Pre-gap length 0:00:02.41

Peak level 96.7 %
Track quality 100.0 %
Test CRC 47F78BD8
Copy CRC 47F78BD8
Accurately ripped (confidence 2) [E4F5F4C4]
Copy OK

Track 3

Filename C:\Documents and Settings\Administratцr\Skrivbord\Teddy Pendergrass - Teddy + It's Time For Love\03 - I'll Never See Heaven Again.wav

Pre-gap length 0:00:02.41

Peak level 96.4 %
Track quality 100.0 %
Test CRC CE49A342
Copy CRC CE49A342
Accurately ripped (confidence 2) [DC9DDBB3]
Copy OK

Track 4

Filename C:\Documents and Settings\Administratцr\Skrivbord\Teddy Pendergrass - Teddy + It's Time For Love\04 - All I Need Is You.wav

Pre-gap length 0:00:02.41

Peak level 96.4 %
Track quality 100.0 %
Test CRC A0A41578
Copy CRC A0A41578
Accurately ripped (confidence 2) [7735F407]
Copy OK

Track 5

Filename C:\Documents and Settings\Administratцr\Skrivbord\Teddy Pendergrass - Teddy + It's Time For Love\05 - If You Know Like I Know.wav

Pre-gap length 0:00:02.41

Peak level 96.4 %
Track quality 100.0 %
Test CRC E409198C
Copy CRC E409198C
Accurately ripped (confidence 2) [D83C54B6]
Copy OK

Track 6

Filename C:\Documents and Settings\Administratцr\Skrivbord\Teddy Pendergrass - Teddy + It's Time For Love\06 - Do Me.wav

Pre-gap length 0:00:02.41

Peak level 96.4 %
Track quality 100.0 %
Test CRC 1866AC33
Copy CRC 1866AC33
Accurately ripped (confidence 2) [2E70BBAB]
Copy OK

Track 7

Filename C:\Documents and Settings\Administratцr\Skrivbord\Teddy Pendergrass - Teddy + It's Time For Love\07 - Set Me Free.wav

Pre-gap length 0:00:02.41

Peak level 96.4 %
Track quality 100.0 %
Test CRC 448B0950
Copy CRC 448B0950
Accurately ripped (confidence 2) [A6257A70]
Copy OK

Track 8

Filename C:\Documents and Settings\Administratцr\Skrivbord\Teddy Pendergrass - Teddy + It's Time For Love\08 - Life Is A Circle.wav

Pre-gap length 0:00:02.41

Peak level 96.4 %
Track quality 100.0 %
Test CRC 29455EF1
Copy CRC 29455EF1
Accurately ripped (confidence 2) [78492816]
Copy OK

Track 9

Filename C:\Documents and Settings\Administratцr\Skrivbord\Teddy Pendergrass - Teddy + It's Time For Love\09 - I Can't Live Without Your Love.wav

Pre-gap length 0:00:04.41

Peak level 96.4 %
Track quality 100.0 %
Test CRC 7FC7750E
Copy CRC 7FC7750E
Accurately ripped (confidence 2) [BEE32110]
Copy OK

Track 10

Filename C:\Documents and Settings\Administratцr\Skrivbord\Teddy Pendergrass - Teddy + It's Time For Love\10 - You're My Latest, My Greatest Inspiration.wav

Pre-gap length 0:00:02.41

Peak level 96.5 %
Track quality 100.0 %
Test CRC A6016865
Copy CRC A6016865
Accurately ripped (confidence 2) [C48160DB]
Copy OK

Track 11

Filename C:\Documents and Settings\Administratцr\Skrivbord\Teddy Pendergrass - Teddy + It's Time For Love\11 - Nine Times Out Of Ten.wav

Pre-gap length 0:00:02.41

Peak level 96.5 %
Track quality 100.0 %
Test CRC 6930DC7C
Copy CRC 6930DC7C
Accurately ripped (confidence 2) [95F97662]
Copy OK

Track 12

Filename C:\Documents and Settings\Administratцr\Skrivbord\Teddy Pendergrass - Teddy + It's Time For Love\12 - Keep On Lovin' Me.wav

Pre-gap length 0:00:02.41

Peak level 96.4 %
Track quality 100.0 %
Test CRC 863F779C
Copy CRC 863F779C
Accurately ripped (confidence 2) [AD17E690]
Copy OK

Track 13

Filename C:\Documents and Settings\Administratцr\Skrivbord\Teddy Pendergrass - Teddy + It's Time For Love\13 - It's Time for Love.wav

Pre-gap length 0:00:02.41

Peak level 96.4 %
Track quality 100.0 %
Test CRC 7D4C993A
Copy CRC 7D4C993A
Accurately ripped (confidence 2) [ADAE1251]
Copy OK

Track 14

Filename C:\Documents and Settings\Administratцr\Skrivbord\Teddy Pendergrass - Teddy + It's Time For Love\14 - She's Over Me.wav

Pre-gap length 0:00:02.41

Peak level 85.9 %
Track quality 100.0 %
Test CRC 86444E4B
Copy CRC 86444E4B
Accurately ripped (confidence 2) [6CFAF063]
Copy OK

Track 15

Filename C:\Documents and Settings\Administratцr\Skrivbord\Teddy Pendergrass - Teddy + It's Time For Love\15 - I Can't Leave Your Love Alone.wav

Pre-gap length 0:00:02.41

Peak level 96.4 %
Track quality 100.0 %
Test CRC F7677E42
Copy CRC F7677E42
Accurately ripped (confidence 2) [9F12C357]
Copy OK

Track 16

Filename C:\Documents and Settings\Administratцr\Skrivbord\Teddy Pendergrass - Teddy + It's Time For Love\16 - You Must Live On.wav

Pre-gap length 0:00:02.41

Peak level 96.4 %
Track quality 100.0 %
Test CRC 64552E1F
Copy CRC 64552E1F
Accurately ripped (confidence 2) [385F664C]
Copy OK


All tracks accurately ripped

No errors occurred

End of status report

Download:

http://rapidshare.com/files/355391103/Teddy_Pendergrass_-_Teddy___It_s_Time_For_Love.part1.rar.html
http://rapidshare.com/files/355403022/Teddy_Pendergrass_-_Teddy___It_s_Time_For_Love.part2.rar.html
http://rapidshare.com/files/355322054/Teddy_Pendergrass_-_Teddy___It_s_Time_For_Love.part3.rar.html
http://rapidshare.com/files/355341673/Teddy_Pendergrass_-_Teddy___It_s_Time_For_Love.part4.rar.html
http://rapidshare.com/files/355359751/Teddy_Pendergrass_-_Teddy___It_s_Time_For_Love.part5.rar.html
http://rapidshare.com/files/355376156/Teddy_Pendergrass_-_Teddy___It_s_Time_For_Love.part6.rar.html