Subcategories

Teddy Pendergrass - Live! Coast To Coast/TP (Remastered UK Reissue) (2005)

Posted By: InnerTemple
Teddy Pendergrass - Live! Coast To Coast/TP (Remastered UK Reissue) (2005)

Teddy Pendergrass - Live! Coast To Coast/TP (Remastered UK Reissue) (2005)
R&B | 2CD | Flac tracks+CUE+LOG+HQ Scans (300 dpi) | 854 mb
Label: Edsel

Disc One
–––––-

Live! Coast To Coast (1979)
1. Life Is A Song Worth Singing
2. Only You
3. Medley: If You Don't Know Me By Now/The Love I Lost/Bad Luck/Wake Up Everybody
4. When Some Body Loves You Back
5. Get Up Get Down Get Funky Get Loose
6. La Rap
7. Come Go With Me
8. Close The Door
9. Turn Off The Lights
10. Do Me
11. Interview With Mimi Brown Of Wdas-FM

Disc Two
–––––-

1. Where Did All The Lovin' Go
2. It's You I Love
3. Shout & Scream
TP (1980)
4. Is It Still Good To Ya
5. Take Me In Your Arms Tonight
6. I Just Called To Say
7. Can't We Try
8. Feel The Fire
9. Girl You Know
10. Love TKO
11. Let Me Love You

Exact Audio Copy V0.99 prebeta 4 from 23. January 2008

EAC extraction logfile from 18. January 2010, 17:52

Teddy Pendergrass / Live! Coast To Coast & TP [CD1.2]

Used drive : OPTIARC DVD RW AD-5630A Adapter: 0 ID: 0

Read mode : Secure
Utilize accurate stream : Yes
Defeat audio cache : No
Make use of C2 pointers : Yes

Read offset correction : 48
Overread into Lead-In and Lead-Out : No
Fill up missing offset samples with silence : Yes
Delete leading and trailing silent blocks : No
Null samples used in CRC calculations : Yes
Used interface : Native Win32 interface for Win NT & 2000
Gap handling : Appended to previous track

Used output format : User Defined Encoder
Selected bitrate : 320 kBit/s
Quality : High
Add ID3 tag : No
Command line compressor : C:\Program\Exact Audio Copy\FLAC\FLAC.EXE
Additional command line options : -8 -V -T "artist=%a" -T "title=%t" -T "album=%g" -T "date=%y" -T "tracknumber=%n" -T "genre=%m" %s


TOC of the extracted CD

Track | Start | Length | Start sector | End sector
––––––––––––––––––––––––––––-
1 | 0:00.00 | 4:02.33 | 0 | 18182
2 | 4:02.33 | 9:10.70 | 18183 | 59502
3 | 13:13.28 | 5:06.38 | 59503 | 82490
4 | 18:19.66 | 12:02.36 | 82491 | 136676
5 | 30:22.27 | 7:39.00 | 136677 | 171101
6 | 38:01.27 | 2:41.30 | 171102 | 183206
7 | 40:42.57 | 2:14.24 | 183207 | 193280
8 | 42:57.06 | 5:49.67 | 193281 | 219522
9 | 48:46.73 | 6:35.69 | 219523 | 249216
10 | 55:22.67 | 2:34.62 | 249217 | 260828
11 | 57:57.54 | 5:26.46 | 260829 | 285324


Track 1

Filename C:\Documents and Settings\Administratцr\Skrivbord\Teddy Pendergrass - Live! Coast To Coast & TP [CD1.2]\01 - Live Is A Song Worth Singing.wav

Pre-gap length 0:00:02.00

Peak level 96.1 %
Track quality 100.0 %
Test CRC 908674A1
Copy CRC 908674A1
Track not present in AccurateRip database
Copy OK

Track 2

Filename C:\Documents and Settings\Administratцr\Skrivbord\Teddy Pendergrass - Live! Coast To Coast & TP [CD1.2]\02 - Only You.wav

Peak level 96.4 %
Track quality 100.0 %
Test CRC C9823FA8
Copy CRC C9823FA8
Track not present in AccurateRip database
Copy OK

Track 3

Filename C:\Documents and Settings\Administratцr\Skrivbord\Teddy Pendergrass - Live! Coast To Coast & TP [CD1.2]\03 - Medley- If You Don'tknow Me By Now ; The Love I Lost ; Bad Luck ; Wake Up Everybody.wav

Peak level 96.4 %
Track quality 100.0 %
Test CRC DA404275
Copy CRC DA404275
Track not present in AccurateRip database
Copy OK

Track 4

Filename C:\Documents and Settings\Administratцr\Skrivbord\Teddy Pendergrass - Live! Coast To Coast & TP [CD1.2]\04 - When Somebody Loves You Back.wav

Peak level 96.4 %
Track quality 100.0 %
Test CRC B4BE2174
Copy CRC B4BE2174
Track not present in AccurateRip database
Copy OK

Track 5

Filename C:\Documents and Settings\Administratцr\Skrivbord\Teddy Pendergrass - Live! Coast To Coast & TP [CD1.2]\05 - Get Up, Get Down, Get Funky, Get Loose.wav

Peak level 96.4 %
Track quality 100.0 %
Test CRC A205F653
Copy CRC A205F653
Track not present in AccurateRip database
Copy OK

Track 6

Filename C:\Documents and Settings\Administratцr\Skrivbord\Teddy Pendergrass - Live! Coast To Coast & TP [CD1.2]\06 - L.A. Rap.wav

Pre-gap length 0:00:02.41

Peak level 86.1 %
Track quality 100.0 %
Test CRC CEA1F1A0
Copy CRC CEA1F1A0
Track not present in AccurateRip database
Copy OK

Track 7

Filename C:\Documents and Settings\Administratцr\Skrivbord\Teddy Pendergrass - Live! Coast To Coast & TP [CD1.2]\07 - Come Go With Me.wav

Peak level 83.3 %
Track quality 100.0 %
Test CRC B8A0B0BF
Copy CRC B8A0B0BF
Track not present in AccurateRip database
Copy OK

Track 8

Filename C:\Documents and Settings\Administratцr\Skrivbord\Teddy Pendergrass - Live! Coast To Coast & TP [CD1.2]\08 - Close The Door.wav

Peak level 96.4 %
Track quality 100.0 %
Test CRC 236264F5
Copy CRC 236264F5
Track not present in AccurateRip database
Copy OK

Track 9

Filename C:\Documents and Settings\Administratцr\Skrivbord\Teddy Pendergrass - Live! Coast To Coast & TP [CD1.2]\09 - Turn Off The Lights.wav

Peak level 88.9 %
Track quality 100.0 %
Test CRC DD692AF8
Copy CRC DD692AF8
Track not present in AccurateRip database
Copy OK

Track 10

Filename C:\Documents and Settings\Administratцr\Skrivbord\Teddy Pendergrass - Live! Coast To Coast & TP [CD1.2]\10 - Do Me.wav

Peak level 93.4 %
Track quality 100.0 %
Test CRC E62DDA42
Copy CRC E62DDA42
Track not present in AccurateRip database
Copy OK

Track 11

Filename C:\Documents and Settings\Administratцr\Skrivbord\Teddy Pendergrass - Live! Coast To Coast & TP [CD1.2]\11 - Interview with Mimi Brown Of WDAS-FM.wav

Pre-gap length 0:00:03.40

Peak level 80.9 %
Track quality 100.0 %
Test CRC D0BD93C4
Copy CRC D0BD93C4
Track not present in AccurateRip database
Copy OK


None of the tracks are present in the AccurateRip database

No errors occurred

End of status report

Exact Audio Copy V0.99 prebeta 4 from 23. January 2008

EAC extraction logfile from 18. January 2010, 18:06

Teddy Pendergrass / Live! Coast To Coast & TP [CD2.2]

Used drive : OPTIARC DVD RW AD-5630A Adapter: 0 ID: 0

Read mode : Secure
Utilize accurate stream : Yes
Defeat audio cache : No
Make use of C2 pointers : Yes

Read offset correction : 48
Overread into Lead-In and Lead-Out : No
Fill up missing offset samples with silence : Yes
Delete leading and trailing silent blocks : No
Null samples used in CRC calculations : Yes
Used interface : Native Win32 interface for Win NT & 2000
Gap handling : Appended to previous track

Used output format : User Defined Encoder
Selected bitrate : 320 kBit/s
Quality : High
Add ID3 tag : No
Command line compressor : C:\Program\Exact Audio Copy\FLAC\FLAC.EXE
Additional command line options : -8 -V -T "artist=%a" -T "title=%t" -T "album=%g" -T "date=%y" -T "tracknumber=%n" -T "genre=%m" %s


TOC of the extracted CD

Track | Start | Length | Start sector | End sector
––––––––––––––––––––––––––––-
1 | 0:00.00 | 5:45.22 | 0 | 25896
2 | 5:45.22 | 5:35.54 | 25897 | 51075
3 | 11:21.01 | 6:01.61 | 51076 | 78211
4 | 17:22.62 | 4:33.46 | 78212 | 98732
5 | 21:56.33 | 5:23.34 | 98733 | 122991
6 | 27:19.67 | 4:27.64 | 122992 | 143080
7 | 31:47.56 | 5:05.02 | 143081 | 165957
8 | 36:52.58 | 5:31.15 | 165958 | 190797
9 | 42:23.73 | 4:03.24 | 190798 | 209046
10 | 46:27.22 | 4:58.31 | 209047 | 231427
11 | 51:25.53 | 5:17.55 | 231428 | 255257


Track 1

Filename C:\Documents and Settings\Administratцr\Skrivbord\Teddy Pendergrass - Live! Coast To Coast & TP [CD2.2]\01 - Where Did All The Lovin' Go .wav

Pre-gap length 0:00:02.00

Peak level 96.4 %
Track quality 100.0 %
Test CRC F9C3650A
Copy CRC F9C3650A
Track not present in AccurateRip database
Copy OK

Track 2

Filename C:\Documents and Settings\Administratцr\Skrivbord\Teddy Pendergrass - Live! Coast To Coast & TP [CD2.2]\02 - It's You I Love.wav

Pre-gap length 0:00:02.41

Peak level 96.5 %
Track quality 100.0 %
Test CRC 513EAEFD
Copy CRC 513EAEFD
Track not present in AccurateRip database
Copy OK

Track 3

Filename C:\Documents and Settings\Administratцr\Skrivbord\Teddy Pendergrass - Live! Coast To Coast & TP [CD2.2]\03 - Shout And Scream.wav

Pre-gap length 0:00:02.41

Peak level 96.4 %
Track quality 100.0 %
Test CRC E5074709
Copy CRC E5074709
Track not present in AccurateRip database
Copy OK

Track 4

Filename C:\Documents and Settings\Administratцr\Skrivbord\Teddy Pendergrass - Live! Coast To Coast & TP [CD2.2]\04 - Is It Still Good To Ya .wav

Pre-gap length 0:00:03.40

Peak level 96.4 %
Track quality 100.0 %
Test CRC C7F5F97D
Copy CRC C7F5F97D
Track not present in AccurateRip database
Copy OK

Track 5

Filename C:\Documents and Settings\Administratцr\Skrivbord\Teddy Pendergrass - Live! Coast To Coast & TP [CD2.2]\05 - Take Me In Your Arms Tonight.wav

Pre-gap length 0:00:01.59

Peak level 96.4 %
Track quality 100.0 %
Test CRC 61C3F33D
Copy CRC 61C3F33D
Track not present in AccurateRip database
Copy OK

Track 6

Filename C:\Documents and Settings\Administratцr\Skrivbord\Teddy Pendergrass - Live! Coast To Coast & TP [CD2.2]\06 - I Just Called To Say.wav

Pre-gap length 0:00:01.58

Peak level 96.4 %
Track quality 100.0 %
Test CRC 29C7723E
Copy CRC 29C7723E
Track not present in AccurateRip database
Copy OK

Track 7

Filename C:\Documents and Settings\Administratцr\Skrivbord\Teddy Pendergrass - Live! Coast To Coast & TP [CD2.2]\07 - Can't We Try .wav

Pre-gap length 0:00:01.59

Peak level 96.4 %
Track quality 99.9 %
Test CRC 8EE8AB26
Copy CRC 8EE8AB26
Track not present in AccurateRip database
Copy OK

Track 8

Filename C:\Documents and Settings\Administratцr\Skrivbord\Teddy Pendergrass - Live! Coast To Coast & TP [CD2.2]\08 - Feel The Fire.wav

Pre-gap length 0:00:01.59

Peak level 96.4 %
Track quality 100.0 %
Test CRC 74D21552
Copy CRC 74D21552
Track not present in AccurateRip database
Copy OK

Track 9

Filename C:\Documents and Settings\Administratцr\Skrivbord\Teddy Pendergrass - Live! Coast To Coast & TP [CD2.2]\09 - Girl You Know.wav

Pre-gap length 0:00:01.59

Peak level 96.4 %
Track quality 100.0 %
Test CRC C2A27A4F
Copy CRC C2A27A4F
Track not present in AccurateRip database
Copy OK

Track 10

Filename C:\Documents and Settings\Administratцr\Skrivbord\Teddy Pendergrass - Live! Coast To Coast & TP [CD2.2]\10 - Love TKO.wav

Pre-gap length 0:00:01.59

Peak level 96.5 %
Track quality 100.0 %
Test CRC 90A9A3CD
Copy CRC 90A9A3CD
Track not present in AccurateRip database
Copy OK

Track 11

Filename C:\Documents and Settings\Administratцr\Skrivbord\Teddy Pendergrass - Live! Coast To Coast & TP [CD2.2]\11 - Let Me Love You.wav

Pre-gap length 0:00:01.59

Peak level 96.4 %
Track quality 100.0 %
Test CRC 3758B147
Copy CRC 3758B147
Track not present in AccurateRip database
Copy OK


None of the tracks are present in the AccurateRip database

No errors occurred

End of status report

Download:

http://rapidshare.com/files/356661742/Teddy_Pendergrass_-_Live__Coast_To_Coast___TP.part01.rar.html
http://rapidshare.com/files/356671128/Teddy_Pendergrass_-_Live__Coast_To_Coast___TP.part02.rar.html
http://rapidshare.com/files/356680480/Teddy_Pendergrass_-_Live__Coast_To_Coast___TP.part03.rar.html
http://rapidshare.com/files/356691023/Teddy_Pendergrass_-_Live__Coast_To_Coast___TP.part04.rar.html
http://rapidshare.com/files/356702871/Teddy_Pendergrass_-_Live__Coast_To_Coast___TP.part05.rar.html
http://rapidshare.com/files/356513953/Teddy_Pendergrass_-_Live__Coast_To_Coast___TP.part06.rar.html
http://rapidshare.com/files/356521323/Teddy_Pendergrass_-_Live__Coast_To_Coast___TP.part07.rar.html
http://rapidshare.com/files/356529687/Teddy_Pendergrass_-_Live__Coast_To_Coast___TP.part08.rar.html
http://rapidshare.com/files/356537809/Teddy_Pendergrass_-_Live__Coast_To_Coast___TP.part09.rar.html