Subcategories

Tom Waits – Night On Earth (OST) (1991) (Repost)

Posted By: janwal46
Tom Waits – Night On Earth (OST) (1991) (Repost)

Tom Waits – Night On Earth (OST) (1991) (Repost)

Tom Waits – Night On Earth (OST) (1991) (Repost)
Island Records | 1991 | Soundtrack Rock Jazz Blues | EAC RIP | FLAC+CUE+LOG+HQ-Covers (400Dpi) | 270Mb+8Mb

Night On Earth is a mostly instrumental recording from Tom Waits, and made for the movie with the same title by Jim Jarmusch. The songs are mostly in the vein of his foregoing four studio albums at that time (Swordfishtrombones through Bone Machine - particularly the latter album and Rain Dogs), in that they feature his typically quirky percussion and wind instrument soundscapes - his "junkyard orchestra." The album's motif is quite nifty: Waits has crafted a main theme that changes and morphs according to the different cities that they represent in the movie - from the raging electric guitar of the Los Angeles theme to the beautiful stringed instrumentals of the later tracks. These instrumentals are fairly typical of Waits, and are good as far as they go. Imagine Swordfishtrombones, Rain Dogs, or Bone Machine without vocals, and you have a pretty good idea of what you're getting. There are also three songs with vocals. These feature Waits's typically wacky and intimitable lyrics, and are performed in a calmer, more soothing way than his other current material of the time (Bone Machine.) This album seems like it would work best as a backdrop for the movie (which I haven't seen), than as a stand-alone product. Still, it has its charms in the latter context as well. Recommended for Waits fans (though you should have his other albums before you pick this one up), and fans of the movie.

Personnel:

Tom Waits - Vocals, Pump Organ, Drums, Percussion, Piano
Josef Brinckmann - Accordeon
Matthew Brubeck - Cello
Ralph Carney - Trumpet, Alto Sax, Tenor Sax, Bass Clarinet, Clarinet, Baritone Horn, Pan Pipes
Joe Gore - Guitar, Banjo
Clark Suprynowitz - Bass
Francis Thumm - Harmonium, Stinson Band Organ

Tracklist:

01. Back in the Good Old World (Gypsy)
02. Los Angeles Mood (Chromium Descensions)
03. Los Angeles Theme (Another Private Dick)
04. New York Theme (Hey, You Can Have That Heartattack Outside Buddy)
05. New York Mood (A New Haircut and a Busted Lip)
06. Baby I'm Not a Baby Anymore (Beatrice Theme)
07. Good Old World (Waltz)
08. Carnival (Brunello del Montalcino)
09. On the Other Side of the World
10. Good Old World (Gypsy Instrumental)
11. Paris Mood (Un de Fromage)
12. Dragging a Dead Priest
13. Helsinki Mood
14. Carnival Bob's Confession
15. Good Old World (Waltz)
16. On the Other Side of the World

Music by Tom Waits
All songs written by Tom Waits & Kathleen Brennan
Produced by Tom Waits
Recorded and Mixed by Biff Dawes at Prairie Sun Studios
Mastered by George Horn at Fantasy Studios

Sound Quality: 8/9

Exact Audio Copy V0.99 prebeta 5 from 4. May 2009

EAC extraction logfile from 17. December 2009, 15:46

Tom Waits / Night on Earth

Used drive : _NEC DVD_RW ND-3520A Adapter: 1 ID: 1

Read mode : Secure
Utilize accurate stream : Yes
Defeat audio cache : Yes
Make use of C2 pointers : No

Read offset correction : 48
Overread into Lead-In and Lead-Out : No
Fill up missing offset samples with silence : Yes
Delete leading and trailing silent blocks : No
Null samples used in CRC calculations : No
Used interface : Native Win32 interface for Win NT & 2000

Used output format : Internal WAV Routines
Sample format : 44.100 Hz; 16 Bit; Stereo


TOC of the extracted CD

Track | Start | Length | Start sector | End sector
––––––––––––––––––––––––––––-
1 | 0:00.70 | 2:30.55 | 70 | 11374
2 | 2:31.50 | 2:35.20 | 11375 | 23019
3 | 5:06.70 | 4:29.02 | 23020 | 43196
4 | 9:35.72 | 4:03.55 | 43197 | 61476
5 | 13:39.52 | 2:38.20 | 61477 | 73346
6 | 16:17.72 | 1:58.33 | 73347 | 82229
7 | 18:16.30 | 2:46.67 | 82230 | 94746
8 | 21:03.22 | 3:05.73 | 94747 | 108694
9 | 24:09.20 | 5:19.50 | 108695 | 132669
10 | 29:28.70 | 2:19.25 | 132670 | 143119
11 | 31:48.20 | 2:39.00 | 143120 | 155044
12 | 34:27.20 | 3:59.02 | 155045 | 172971
13 | 38:26.22 | 4:10.15 | 172972 | 191736
14 | 42:36.37 | 2:17.10 | 191737 | 202021
15 | 44:53.47 | 3:56.33 | 202022 | 219754
16 | 48:50.05 | 3:58.22 | 219755 | 237626


Range status and errors

Selected range

Filename F:\AVAXHOME\Tom Waits - Night on Earth (1991)\Tom Waits - Night on Earth.wav

Peak Level 99.8 %
Range Quality 100.0 %
Copy CRC 3B6590B8
Copy OK

No errors occurred


AccurateRip summary

Track 1 accurately ripped (confidence 14) [D0E90ABF]
Track 2 accurately ripped (confidence 14) [A927CDA1]
Track 3 accurately ripped (confidence 15) [8DD64BD4]
Track 4 accurately ripped (confidence 14) [79C0AE6F]
Track 5 accurately ripped (confidence 15) [F6978B14]
Track 6 accurately ripped (confidence 15) [77102125]
Track 7 accurately ripped (confidence 14) [214A2138]
Track 8 accurately ripped (confidence 15) [31B2F1D8]
Track 9 accurately ripped (confidence 15) [E7D12136]
Track 10 accurately ripped (confidence 15) [E4CCEFBF]
Track 11 accurately ripped (confidence 15) [48114F99]
Track 12 accurately ripped (confidence 15) [A6FE99D5]
Track 13 accurately ripped (confidence 15) [4EAC42BC]
Track 14 accurately ripped (confidence 14) [C2F622FE]
Track 15 accurately ripped (confidence 14) [EFA84CAF]
Track 16 accurately ripped (confidence 16) [4F1413C6]

All tracks accurately ripped

End of status report

RIPPED BY JANWAL46

RS Links:



In case you encounter dead links in any of my posts, please send me a private message !!!!


Password: janwal46

Say thanks, but please, no mirrors and/or direct links in your comments !!!!