Tom Waits - Bone Machine (1992)

Posted By: ruskaval
Tom Waits - Bone Machine (1992)

Tom Waits - Bone Machine (1992)
EAC rip (secure mode) | FLAC+CUE+LOG -> 278 Mb | MP3 @320 -> 122 Mb
Full Artwork @ 300 dpi (png) -> 48 Mb
© 1992 Island Records | CID 9993 512 580-2
Rock / Experimental Rock / Blues Rock


Tom Waits - Bone Machine (1992)

After completing the famed "trilogy" that consists of SWORDFISHTROMBONES, RAIN DOGS, and FRANK'S WILD YEARS, Waits took his time following it up. At the time, it was hard to imagine what crazed, exotic sonic vistas Waits had left unexplored. Further proving the mettle of his artistry, Waits pulled a masterstroke on BONE MACHINE. Instead of trying to reach new heights, he effectively plumbed the depths, stripping his sound down to the bare essentials (hence the title). At times, he sounds like a cross between an even more avant-garde Captain Beefheart ("Such a Scream") and a hip caveman banging out a song on a row of tuned skulls ("Earth Died Screaming"). Despite all this willful primitivism though, his craftsmanship is at a peak, with his thoughtful lyricism shining throughout.
Personnel: Tom Waits (vocals, guitar, piano, keyboard, bass, drums, percussion); Larry Taylor (guitar, bass); Keith Richards, Joe Gore, Waddy Wachtel (guitar); David Phillips (pedal steel guitar, steel guitar); Joe Marquez (banjo, percussion); Ralph Carney (bass clarinet, alto & tenor saxophones); David Hidalgo (accordion); Les Claypool (bass); Bryan "Brain" Mantia (drums); Kathleen Brennan (percussion).

tracklist:
01. Earth Died Screaming
02. Dirt In The Ground
03. Such A Scream
04. All Stripped Down
05. Who Are You
06. The Ocean Doesn't Want Me
07. Jesus Gonna Be Here
08. A Little Rain
09. In The Colosseum
10. Goin' Out West
11. Murder In The Red Barn
12. Black Wings
13. Whistle Down The Wind
14. I Don't Wanna Grow Up
15. Let Me Get Up On It
16. That Feel

Tom Waits - Bone Machine (1992)

Exact Audio Copy V0.99 prebeta 5 from 4. May 2009

EAC extraction logfile from 12. November 2009, 11:52

Tom Waits / Bone Machine

Used drive : TSSTcorpCD/DVDW TS-H552L Adapter: 3 ID: 0

Read mode : Secure
Utilize accurate stream : Yes
Defeat audio cache : Yes
Make use of C2 pointers : No

Read offset correction : 6
Overread into Lead-In and Lead-Out : No
Fill up missing offset samples with silence : Yes
Delete leading and trailing silent blocks : No
Null samples used in CRC calculations : Yes
Used interface : Native Win32 interface for Win NT & 2000
Gap handling : Appended to previous track

Used output format : User Defined Encoder
Selected bitrate : 1024 kBit/s
Quality : High
Add ID3 tag : No
Command line compressor : C:\Program Files\FLAC\flac.exe
Additional command line options : -6 -V -T "ARTIST=%a" -T "TITLE=%t" -T "ALBUM=%g" -T "DATE=%y" -T "TRACKNUMBER=%n" -T "GENRE=%m" -T "COMMENT=EAC FLAC -6" %s


TOC of the extracted CD

Track | Start | Length | Start sector | End sector
––––––––––––––––––––––––––––-
1 | 0:00.32 | 3:38.73 | 32 | 16454
2 | 3:39.30 | 4:08.42 | 16455 | 35096
3 | 7:47.72 | 2:08.13 | 35097 | 44709
4 | 9:56.10 | 3:03.32 | 44710 | 58466
5 | 12:59.42 | 3:57.35 | 58467 | 76276
6 | 16:57.02 | 1:51.18 | 76277 | 84619
7 | 18:48.20 | 3:21.55 | 84620 | 99749
8 | 22:10.00 | 2:58.67 | 99750 | 113166
9 | 25:08.67 | 4:50.50 | 113167 | 134966
10 | 29:59.42 | 3:20.08 | 134967 | 149974
11 | 33:19.50 | 4:29.07 | 149975 | 170156
12 | 37:48.57 | 4:37.65 | 170157 | 190996
13 | 42:26.47 | 4:35.68 | 190997 | 211689
14 | 47:02.40 | 2:31.32 | 211690 | 223046
15 | 49:33.72 | 0:55.38 | 223047 | 227209
16 | 50:29.35 | 3:12.20 | 227210 | 241629


Track 1

Filename C:\Tom Waits - Bone Machine (1992)\01 - Earth Died Screaming.wav

Pre-gap length 0:00:02.32

Peak level 97.3 %
Track quality 100.0 %
Test CRC 0C5E9434
Copy CRC 0C5E9434
Accurately ripped (confidence 21) [B79F2CA8]
Copy OK

Track 2

Filename C:\Tom Waits - Bone Machine (1992)\02 - Dirt in the Ground.wav

Pre-gap length 0:00:01.22

Peak level 71.3 %
Track quality 100.0 %
Test CRC 67389CA8
Copy CRC 67389CA8
Accurately ripped (confidence 22) [C8FFC401]
Copy OK

Track 3

Filename C:\Tom Waits - Bone Machine (1992)\03 - Such a Scream.wav

Pre-gap length 0:00:01.47

Peak level 97.3 %
Track quality 99.9 %
Test CRC DADC37D4
Copy CRC DADC37D4
Accurately ripped (confidence 22) [6A21D8F9]
Copy OK

Track 4

Filename C:\Tom Waits - Bone Machine (1992)\04 - All Stripped Down.wav

Peak level 73.8 %
Track quality 100.0 %
Test CRC 48B00320
Copy CRC 48B00320
Accurately ripped (confidence 22) [29880004]
Copy OK

Track 5

Filename C:\Tom Waits - Bone Machine (1992)\05 - Who Are You.wav

Peak level 97.3 %
Track quality 100.0 %
Test CRC 1EFB2C1D
Copy CRC 1EFB2C1D
Accurately ripped (confidence 22) [EDDCD8CB]
Copy OK

Track 6

Filename C:\Tom Waits - Bone Machine (1992)\06 - The Ocean Doesn't Want Me.wav

Pre-gap length 0:00:00.74

Peak level 97.3 %
Track quality 99.9 %
Test CRC 11DCD61E
Copy CRC 11DCD61E
Accurately ripped (confidence 22) [F36CCB28]
Copy OK

Track 7

Filename C:\Tom Waits - Bone Machine (1992)\07 - Jesus Gonna Be Here.wav

Peak level 97.3 %
Track quality 100.0 %
Test CRC E23F47F4
Copy CRC E23F47F4
Accurately ripped (confidence 22) [FCEB4994]
Copy OK

Track 8

Filename C:\Tom Waits - Bone Machine (1992)\08 - A Little Rain.wav

Pre-gap length 0:00:03.38

Peak level 84.5 %
Track quality 100.0 %
Test CRC 5650602F
Copy CRC 5650602F
Accurately ripped (confidence 22) [E3B1D467]
Copy OK

Track 9

Filename C:\Tom Waits - Bone Machine (1992)\09 - In the Colosseum.wav

Pre-gap length 0:00:00.46

Peak level 97.2 %
Track quality 100.0 %
Test CRC 76CD1B8F
Copy CRC 76CD1B8F
Accurately ripped (confidence 22) [27CACE65]
Copy OK

Track 10

Filename C:\Tom Waits - Bone Machine (1992)\10 - Goin' Out West.wav

Pre-gap length 0:00:00.12

Peak level 97.3 %
Track quality 100.0 %
Test CRC 5A7560DD
Copy CRC 5A7560DD
Accurately ripped (confidence 22) [BD99D18A]
Copy OK

Track 11

Filename C:\Tom Waits - Bone Machine (1992)\11 - Murder in the Red Barn.wav

Peak level 92.9 %
Track quality 100.0 %
Test CRC 38B08272
Copy CRC 38B08272
Accurately ripped (confidence 22) [03D823CC]
Copy OK

Track 12

Filename C:\Tom Waits - Bone Machine (1992)\12 - Black Wings.wav

Pre-gap length 0:00:00.40

Peak level 97.3 %
Track quality 100.0 %
Test CRC 99C833CA
Copy CRC 99C833CA
Accurately ripped (confidence 23) [01B5F467]
Copy OK

Track 13

Filename C:\Tom Waits - Bone Machine (1992)\13 - Whistle Down the Wind.wav

Pre-gap length 0:00:02.46

Peak level 97.3 %
Track quality 100.0 %
Test CRC C68FFEC7
Copy CRC C68FFEC7
Accurately ripped (confidence 22) [AEEABEF1]
Copy OK

Track 14

Filename C:\Tom Waits - Bone Machine (1992)\14 - I Don't Wanna Grow Up.wav

Peak level 97.3 %
Track quality 99.9 %
Test CRC B686A44D
Copy CRC B686A44D
Accurately ripped (confidence 22) [5FED8D37]
Copy OK

Track 15

Filename C:\Tom Waits - Bone Machine (1992)\15 - Let Me Get Up on It.wav

Pre-gap length 0:00:00.16

Peak level 83.7 %
Track quality 100.0 %
Test CRC FF502A79
Copy CRC FF502A79
Accurately ripped (confidence 22) [EDA91914]
Copy OK

Track 16

Filename C:\Tom Waits - Bone Machine (1992)\16 - That Feel.wav

Pre-gap length 0:00:02.38

Peak level 97.2 %
Track quality 99.9 %
Test CRC BFAE3C92
Copy CRC BFAE3C92
Accurately ripped (confidence 22) [B1B7D18B]
Copy OK


All tracks accurately ripped

No errors occurred

End of status report