Subcategories

Tom Russell and The Norwegian Wind Ensemble - Aztec Jazz (2013) {Frontera Music}

Posted By: ruskaval
Tom Russell and The Norwegian Wind Ensemble - Aztec Jazz (2013) {Frontera Music}

Tom Russell and The Norwegian Wind Ensemble - Aztec Jazz (2013) {Frontera Music}
EAC rip (secure mode) | FLAC (tracks)+CUE+LOG -> 382 Mb | MP3 @320 -> 132 Mb
Full Artwork @ 300 dpi (jpg) -> 13 Mb | 5% repair rar
© 2013 Frontera Music / Proper Records | PRPCD 113
Jazz / Folk / Country

Years ago Russell and Dave Alvin, were tagged as the architects of what came to be known as "Americana" music, with their Merle Haggard tribute "Tulare Dust," the record which initiated the Americana charts in America, and remained number one for a year. Aztec Jazz moves Americana into a new realm. For over three decades and 28 album releases Tom Russell has continued to live up to his status as (re: Washington Post) "one of the greatest songwriters of our time."

Aztec Jazz was recorded as a live concert in Halden, Norway in May of 2012 with the world-renown 32 piece Norwegian Wind Ensemble and guitarist Thad Beckman. Russell's classic songs: St. Olav's Gate, Nina Simone, Guadalupe, Stealing Electricity, Goodnight Juarez and others…are performed on acoustic guitars against a lush backdrop of oboes, trumpets, saxophones, French horns, trombones and percussion.

This larger, ethereal canvas brings Miles Davis' Sketches of Spain to mind. The award winning Swedish composer Mats Halling wrote the orchestral parts.

More INFO

tracklist:
01. Love Abides
02. Nina Simone
03. East Of Woodstock, West Of Vietnam
04. Goodnight Juarez
05. Criminology
06. Guadalupe
07. Stealing Electricity
08. Finding You
09. Mississippi River Running Backwards
10. St. Olav's Gate
11. Jai Alai

Exact Audio Copy V1.0 beta 3 from 29. August 2011

EAC extraction logfile from 20. November 2013, 15:15

Tom Russell & The Norwegian Wind Ensemble / Aztec Jazz

Used drive : PLEXTOR CD-R PREMIUM2 Adapter: 0 ID: 1

Read mode : Secure
Utilize accurate stream : Yes
Defeat audio cache : Yes
Make use of C2 pointers : No

Read offset correction : 30
Overread into Lead-In and Lead-Out : Yes
Fill up missing offset samples with silence : Yes
Delete leading and trailing silent blocks : No
Null samples used in CRC calculations : Yes
Used interface : Native Win32 interface for Win NT & 2000
Gap handling : Appended to previous track

Used output format : User Defined Encoder
Selected bitrate : 128 kBit/s
Quality : High
Add ID3 tag : No
Command line compressor : C:\Program Files (x86)\Exact Audio Copy\Flac\flac.exe
Additional command line options : -5 -V -T "ARTIST=%artist%" -T "TITLE=%title%" -T "ALBUM=%albumtitle%" -T "DATE=%year%" -T "TRACKNUMBER=%tracknr%" -T "TOTALTRACKS=%numtracks%" -T "GENRE=%genre%" -T "ALBUMARTIST=%albumartist%" -T "ALBUM ARTIST=%albumartist%" -T "COMMENT=EAC V1.0 beta 3, Secure Mode, Test & Copy, AccurateRip, FLAC 1.2.1b -5" %source%


TOC of the extracted CD

Track | Start | Length | Start sector | End sector
––––––––––––––––––––––––––––-
1 | 0:00.00 | 5:53.10 | 0 | 26484
2 | 5:53.10 | 5:48.48 | 26485 | 52632
3 | 11:41.58 | 5:01.03 | 52633 | 75210
4 | 16:42.61 | 4:34.41 | 75211 | 95801
5 | 21:17.27 | 5:25.39 | 95802 | 120215
6 | 26:42.66 | 5:37.67 | 120216 | 145557
7 | 32:20.58 | 3:54.49 | 145558 | 163156
8 | 36:15.32 | 3:50.02 | 163157 | 180408
9 | 40:05.34 | 4:33.34 | 180409 | 200917
10 | 44:38.68 | 3:44.69 | 200918 | 217786
11 | 48:23.62 | 7:02.57 | 217787 | 249493


Track 1

Filename E:\Tom Russell & The Norwegian Wind Ensemble - Aztec Jazz (2013) [FLAC]\01 - Love Abides.wav

Pre-gap length 0:00:02.00

Peak level 100.0 %
Extraction speed 2.6 X
Track quality 100.0 %
Test CRC C40D8230
Copy CRC C40D8230
Accurately ripped (confidence 6) [D0C094DD] (AR v2)
Copy OK

Track 2

Filename E:\Tom Russell & The Norwegian Wind Ensemble - Aztec Jazz (2013) [FLAC]\02 - Nina Simone.wav

Peak level 100.0 %
Extraction speed 2.6 X
Track quality 100.0 %
Test CRC 67E59567
Copy CRC 67E59567
Accurately ripped (confidence 6) [5AD7B93D] (AR v2)
Copy OK

Track 3

Filename E:\Tom Russell & The Norwegian Wind Ensemble - Aztec Jazz (2013) [FLAC]\03 - East Of Woodstock, West Of Vietnam.wav

Peak level 99.1 %
Extraction speed 2.6 X
Track quality 100.0 %
Test CRC 5976A86B
Copy CRC 5976A86B
Accurately ripped (confidence 6) [BC9E4C7D] (AR v2)
Copy OK

Track 4

Filename E:\Tom Russell & The Norwegian Wind Ensemble - Aztec Jazz (2013) [FLAC]\04 - Goodnight Juarez.wav

Peak level 96.4 %
Extraction speed 2.2 X
Track quality 99.9 %
Test CRC 8B23FB34
Copy CRC 8B23FB34
Accurately ripped (confidence 6) [D6A6B079] (AR v2)
Copy OK

Track 5

Filename E:\Tom Russell & The Norwegian Wind Ensemble - Aztec Jazz (2013) [FLAC]\05 - Criminology.wav

Peak level 95.6 %
Extraction speed 2.6 X
Track quality 100.0 %
Test CRC 89C737CF
Copy CRC 89C737CF
Accurately ripped (confidence 6) [420D5233] (AR v2)
Copy OK

Track 6

Filename E:\Tom Russell & The Norwegian Wind Ensemble - Aztec Jazz (2013) [FLAC]\06 - Guadalupe.wav

Peak level 95.6 %
Extraction speed 2.6 X
Track quality 100.0 %
Test CRC 02353632
Copy CRC 02353632
Accurately ripped (confidence 6) [C7324FA8] (AR v2)
Copy OK

Track 7

Filename E:\Tom Russell & The Norwegian Wind Ensemble - Aztec Jazz (2013) [FLAC]\07 - Stealing Electricity.wav

Peak level 100.0 %
Extraction speed 2.5 X
Track quality 100.0 %
Test CRC 2CB85736
Copy CRC 2CB85736
Accurately ripped (confidence 6) [17133500] (AR v2)
Copy OK

Track 8

Filename E:\Tom Russell & The Norwegian Wind Ensemble - Aztec Jazz (2013) [FLAC]\08 - Finding You.wav

Peak level 95.6 %
Extraction speed 2.5 X
Track quality 100.0 %
Test CRC 6612B648
Copy CRC 6612B648
Accurately ripped (confidence 6) [D870FDB3] (AR v2)
Copy OK

Track 9

Filename E:\Tom Russell & The Norwegian Wind Ensemble - Aztec Jazz (2013) [FLAC]\09 - Mississippi River Running Backwards.wav

Peak level 100.0 %
Extraction speed 2.5 X
Track quality 100.0 %
Test CRC 7497E537
Copy CRC 7497E537
Accurately ripped (confidence 6) [C71BAED8] (AR v2)
Copy OK

Track 10

Filename E:\Tom Russell & The Norwegian Wind Ensemble - Aztec Jazz (2013) [FLAC]\10 - St. Olav's Gate.wav

Peak level 100.0 %
Extraction speed 2.5 X
Track quality 100.0 %
Test CRC F4278E1D
Copy CRC F4278E1D
Accurately ripped (confidence 6) [5EAB9913] (AR v2)
Copy OK

Track 11

Filename E:\Tom Russell & The Norwegian Wind Ensemble - Aztec Jazz (2013) [FLAC]\11 - Jai Alai.wav

Peak level 95.9 %
Extraction speed 2.8 X
Track quality 100.0 %
Test CRC F96C598F
Copy CRC F96C598F
Accurately ripped (confidence 6) [20526AD8] (AR v2)
Copy OK


All tracks accurately ripped

No errors occurred

End of status report

==== Log checksum 0115066A675FA7CF8503B4990BCA4CB45001E78734620A6873F1F92B473EEF9A ====


Tom Russell and The Norwegian Wind Ensemble - Aztec Jazz (2013) {Frontera Music}

Tom Russell and The Norwegian Wind Ensemble - Aztec Jazz (2013) {Frontera Music}


All thanks goes to the original releaser!