Subcategories

Tom Harrell, Eddie Henderson, Nicholas Payton, Lew Soloff - Trumpet Legacy (1998)

Posted By: Bezz
Tom Harrell, Eddie Henderson, Nicholas Payton, Lew Soloff - Trumpet Legacy (1998)

Tom Harrell, Eddie Henderson, Nicholas Payton, Lew Soloff - Trumpet Legacy (1998)
EAC rip | FLAC + CUE + LOG | Full Scans | 380 Mb (Incl. Recovery)
Genre ~ Hard Bop, Post-bop, Trumpet Jazz | Label ~ Milestone Records

Four masters of the trumpet, two generations apart, get together for an inspired session to pay homage to Dizzy, Miles, Satchmo, Clifford Brown, Chet Baker, Lee Morgan, Kenny Dorham, Booker Little, and Fats Navarro. All four play together on the opening "So What" and the closer, Gillespie's "That's Earl Brother"; they split off in different groupings on the other tracks. With Mulgrew Miller on piano, Peter Washington on bass, and Carl Allen on drums, the rhythm section is well in the pocket, and while none of the tunes are copies of their more famous namesakes (no chorus quoting here), the spirit is dead on the money on every track, making for some exciting jazz very well played. Highlights include "Jordu," "Nostalgia," "My Funny Valentine," "The Sidewinder," and "There's No You." An inspired and accessible session. ~ AllMusic


Tracklist

01. So What - 7:33
02. Jordu - 5:55
03. My Funny Valentine - 6:00
04. Lotus Blossom - 5:17
05. The Sidewinder - 8:44
06. There's No You - 6:33
07. Fire Waltz - 4:23
08. Nostalgia - 4:27
09. That's Earl Brother - 6:46


Personel

Nicholas Payton (trumpet);
Lew Soloff (trumpet);
Tom Harrell (trumpet);
Eddie Henderson (trumpet);
Mulgrew Miller (piano);
Carl Allen (drums).


Audio Remasterer: George Horn.
Liner Note Author: Richard S. Ginell.
Recording information: Clinton Recording Studio, New York, NY (05/14/1997/04/15/1997).



Exact Audio Copy V1.0 beta 1 from 15. November 2010

EAC extraction logfile from 28. March 2011, 20:55

Nicholas Payton/Lew Soloff/Tom Harrell/Eddie Henderson / Trumpet Legacy

Used drive : HL-DT-STDVD-RAM GSA-H55N Adapter: 0 ID: 2

Read mode : Secure
Utilize accurate stream : Yes
Defeat audio cache : Yes
Make use of C2 pointers : No

Read offset correction : 102
Overread into Lead-In and Lead-Out : Yes
Fill up missing offset samples with silence : Yes
Delete leading and trailing silent blocks : No
Null samples used in CRC calculations : Yes
Used interface : Installed external ASPI interface
Gap handling : Appended to previous track

Used output format : User Defined Encoder
Selected bitrate : 128 kBit/s
Quality : High
Add ID3 tag : No
Command line compressor : G:\Program Files\Exact Audio Copy\Encoder\flac.exe
Additional command line options : -V -8 -T "Genre=%m" -T "Artist=%a" -T "Title=%t" -T "Album=%g" -T "Date=%y" -T "Tracknumber=%n" -T "Comment=EAC1.0b1 -8" %s


TOC of the extracted CD

Track | Start | Length | Start sector | End sector
––––––––––––––––––––––––––––-
1 | 0:00.00 | 7:33.12 | 0 | 33986
2 | 7:33.12 | 5:55.33 | 33987 | 60644
3 | 13:28.45 | 5:59.60 | 60645 | 87629
4 | 19:28.30 | 5:16.40 | 87630 | 111369
5 | 24:44.70 | 8:44.00 | 111370 | 150669
6 | 33:28.70 | 6:32.65 | 150670 | 180134
7 | 40:01.60 | 4:22.62 | 180135 | 199846
8 | 44:24.47 | 4:27.15 | 199847 | 219886
9 | 48:51.62 | 6:45.53 | 219887 | 250314


Track 1

Filename F:\WAV\01 - So What.wav

Pre-gap length 0:00:02.00

Peak level 100.0 %
Extraction speed 5.4 X
Track quality 100.0 %
Test CRC A72BC8B4
Copy CRC A72BC8B4
Accurately ripped (confidence 1) [04027C2D]
Copy OK

Track 2

Filename F:\WAV\02 - Jordu.wav

Pre-gap length 0:00:02.60

Peak level 100.0 %
Extraction speed 6.0 X
Track quality 100.0 %
Test CRC 3DFF0511
Copy CRC 3DFF0511
Accurately ripped (confidence 1) [2ED95CC0]
Copy OK

Track 3

Filename F:\WAV\03 - My Funny Valentine.wav

Pre-gap length 0:00:01.48

Peak level 100.0 %
Extraction speed 6.6 X
Track quality 100.0 %
Test CRC 84CAE730
Copy CRC 84CAE730
Accurately ripped (confidence 1) [9F218F41]
Copy OK

Track 4

Filename F:\WAV\04 - Lotus Blossom.wav

Peak level 100.0 %
Extraction speed 6.9 X
Track quality 100.0 %
Test CRC 4B9F89CD
Copy CRC 4B9F89CD
Accurately ripped (confidence 1) [5382F4A8]
Copy OK

Track 5

Filename F:\WAV\05 - The Sidewinder.wav

Pre-gap length 0:00:02.68

Peak level 100.0 %
Extraction speed 7.2 X
Track quality 99.9 %
Test CRC 2F80BA40
Copy CRC 2F80BA40
Accurately ripped (confidence 1) [87A0300B]
Copy OK

Track 6

Filename F:\WAV\06 - There's No You.wav

Pre-gap length 0:00:01.43

Peak level 100.0 %
Extraction speed 8.0 X
Track quality 100.0 %
Test CRC 87C1860C
Copy CRC 87C1860C
Accurately ripped (confidence 1) [173B690D]
Copy OK

Track 7

Filename F:\WAV\07 - Fire Waltz.wav

Pre-gap length 0:00:02.20

Peak level 100.0 %
Extraction speed 7.9 X
Track quality 100.0 %
Test CRC E3634CFB
Copy CRC E3634CFB
Accurately ripped (confidence 1) [26571D9D]
Copy OK

Track 8

Filename F:\WAV\08 - Nostalgia.wav

Pre-gap length 0:00:02.13

Peak level 100.0 %
Extraction speed 8.0 X
Track quality 100.0 %
Test CRC 5E3936C9
Copy CRC 5E3936C9
Accurately ripped (confidence 1) [8F4561E8]
Copy OK

Track 9

Filename F:\WAV\09 - That's Earl Brother.wav

Peak level 100.0 %
Extraction speed 8.6 X
Track quality 100.0 %
Test CRC BF42C0A1
Copy CRC BF42C0A1
Accurately ripped (confidence 1) [F99F4838]
Copy OK


All tracks accurately ripped

No errors occurred

End of status report

==== Log checksum D6B71368606F8BE936859A90B1A2EA6381E2DC5CBB000B26A7FD71FF01398FB0 ====



Tom Harrell, Eddie Henderson, Nicholas Payton, Lew Soloff - Trumpet Legacy (1998)


Tom Harrell, Eddie Henderson, Nicholas Payton, Lew Soloff - Trumpet Legacy (1998)


Special thanks to the original uploader, dead_moroz!