Subcategories

The Byrds - Dr. Byrds And Mr. Hyde (1969) [remastered & expanded, 1997]

Posted By: plonker
The Byrds - Dr. Byrds And Mr. Hyde (1969) [remastered & expanded, 1997]

The Byrds - Dr. Byrds And Mr. Hyde (1969)
Country-Rock | EAC rip | WavPack: IMG+CUE+EAC/log -> 328 MB | mp3@VBR V0 (238kbps) -> 93 MB
52:01 min | scans 600dpi -> 26 MB | RAR inc. 3% recovery | UL & FF | Columbia/Legacy 486753 2

AMG review by Mark Deming:
Chris Hillman, Gram Parsons, and Kevin Kelley all left the Byrds in wake of the release of Sweetheart of the Rodeo, leaving Roger McGuinn to assemble a new band from scratch. Dr. Byrds & Mr. Hyde, the first album with McGuinn as unquestioned leader (and sole founding member), was an interesting but uneven set that saw him attempting to bring together the psych-tinged rock of the group's early period with the pure country that Parsons had brought to Sweetheart. The new lineup on this album was as strong as any the band would ever have, with guitarist Clarence White sounding revelatory whenever he opens up, and Gene Parsons and John York comprising a strong and sympathetic rhythm section. But while everyone on board was a great musician, they don't always sound like a band just yet, and the strain to come up with new material seems to have let them down; McGuinn contributes a few strong originals (especially "King Apathy III" and "Drug Store Truck Drivin' Man," the latter written with Parsons before his departure from the group), but the two songs he penned for the movie Candy are just short of disastrous, and the closing medley of "My Back Pages" and "Baby What You Want Me to Do" sounds like padding. Dr. Byrds & Mr. Hyde proved there was still life left in the Byrds, but also suggested that they hadn't gotten back to full speed yet.
Originally released: Feb 3, 1969
This release: 1997

Tracklist:
01 This Wheel's On Fire (04:47)
02 Old Blue (03:24)
03 Your Gentle Way Of Loving Me (02:38)
04 Child Of The Universe (03:18)
05 Nashville West (02:32)
06 Drug Store Truck Drivin' Man (03:56)
07 King Apathy III (03:03)
08 Candy (03:41)
09 Bad Night At The Whiskey (03:26)
10 Medley: My Back Pages / B.J. Blues / Baby What You Want Me To Do (04:18)
bonus tracks:
11 Stanley's Song (03:15)
12 Lay Lady Lay (alternate version) (03:21)
13 This Wheel's On Fire (version one) (03:56) *
14 Medley: My Back Pages / B.J. Blues / Baby What You Want Me To Do (alternate version - take 1) (04:21) *
15 Nashville West (alternate version - Nashville recording) (02:05) *

* Previously unissued
All tracks are in stereo

Exact Audio Copy V0.99 prebeta 4 from 23. January 2008

EAC extraction logfile from 29. August 2009, 2:08

The Byrds / Dr. Byrds And Mr. Hyde (Remastered)

Used drive : PLEXTOR CD-R PX-W8432T Adapter: 1 ID: 0

Read mode : Secure
Utilize accurate stream : Yes
Defeat audio cache : Yes
Make use of C2 pointers : No

Read offset correction : 355
Overread into Lead-In and Lead-Out : Yes
Fill up missing offset samples with silence : Yes
Delete leading and trailing silent blocks : No
Null samples used in CRC calculations : Yes
Used interface : Installed external ASPI interface

Used output format : Internal WAV Routines
Sample format : 44.100 Hz; 16 Bit; Stereo


TOC of the extracted CD

Track | Start | Length | Start sector | End sector
––––––––––––––––––––––––––––-
1 | 0:00.00 | 4:47.25 | 0 | 21549
2 | 4:47.25 | 3:23.52 | 21550 | 36826
3 | 8:11.02 | 2:37.50 | 36827 | 48651
4 | 10:48.52 | 3:17.40 | 48652 | 63466
5 | 14:06.17 | 2:31.70 | 63467 | 74861
6 | 16:38.12 | 3:56.15 | 74862 | 92576
7 | 20:34.27 | 3:02.63 | 92577 | 106289
8 | 23:37.15 | 3:40.62 | 106290 | 122851
9 | 27:18.02 | 3:26.15 | 122852 | 138316
10 | 30:44.17 | 4:17.65 | 138317 | 157656
11 | 35:02.07 | 3:15.20 | 157657 | 172301
12 | 38:17.27 | 3:20.55 | 172302 | 187356
13 | 41:38.07 | 3:56.18 | 187357 | 205074
14 | 45:34.25 | 4:20.72 | 205075 | 224646
15 | 49:55.22 | 2:04.53 | 224647 | 233999


Range status and errors

Selected range

Filename F:\The Byrds - Dr. Byrds And Mr. Hyde (Remastered).wav

Peak level 98.8 %
Range quality 100.0 %
Test CRC B2333793
Copy CRC B2333793
Copy OK

No errors occurred


AccurateRip summary

Track 1 accurately ripped (confidence 11) [C248C5FD]
Track 2 accurately ripped (confidence 11) [878BED4D]
Track 3 accurately ripped (confidence 11) [FBE002CA]
Track 4 accurately ripped (confidence 11) [AA1446AA]
Track 5 accurately ripped (confidence 11) [128680FD]
Track 6 accurately ripped (confidence 11) [3CA6E5C0]
Track 7 accurately ripped (confidence 11) [E37D20C5]
Track 8 accurately ripped (confidence 11) [2531C11F]
Track 9 accurately ripped (confidence 11) [5B02E685]
Track 10 accurately ripped (confidence 11) [226954F2]
Track 11 accurately ripped (confidence 11) [4C74695C]
Track 12 accurately ripped (confidence 11) [E204C140]
Track 13 accurately ripped (confidence 11) [63B50E7E]
Track 14 accurately ripped (confidence 11) [90F24EEC]
Track 15 accurately ripped (confidence 11) [FCC7AD1A]

All tracks accurately ripped

End of status report



************ download ************

ttp://www.filefactory.com/folder/6ff97ff3c5cfbb2f



password (if needed): avax