Teenage Head - Selftitled (1979) [1996 Re-release with bonus tracks]

Posted By: MrMushroom16
Teenage Head - Selftitled (1979) [1996 Re-release with bonus tracks]

Teenage Head - Teenage Head (1979)
EAC | FLAC(tracks)+CUE+LOG | 51:32 min | Complete Scans | 377 MB
1996 Re-release with bonus tracks / Other Peoples Music #2107

One of the most popular Canadian New Wave/Punk Rock Bands of the 1980s!

Teenage Head's debut album was a breath of fresh air for all of us who endured Canadian corporate rock of the late 1970s. The record's lo-fi production, lack of annoying soloing and straight-ahead simplicity heralded punk's growing influence on homegrown artists. Three-chord beauties 'Lucy Potato', 'Kissin' The Carpet', and 'Top Down' became anthems for a whole new generation of Canadian kids. The album was as necessary at a college party as any release by Ramones or The Sex Pistols.
Tracklist:

01. You're Tearin' Me Apart
02. Ain't Got No Sense
03. Bonerack
04. Picture My Face
05. Lucy Potato
06. Little Boxes
07. Curtain Jumper
08. Top Down
09. Get Off My Back
10. Kissin' The Carpet
11. Disgusteen (Unreleased Take) #
12. You're Tearin' Me Apart (Single) #
13. Bonerack (Unreleased Take) #
14. Lucy Potato (Unreleased Take) #
15. Top Down (New Version) #

# - Reissue bonus tracks

Exact Audio Copy V0.99 prebeta 5 from 4. May 2009

EAC extraction logfile from 15. April 2010, 21:10

Teenage Head / Teenage Head

Used drive : Optiarc DVD RW AD-7561S Adapter: 1 ID: 0

Read mode : Secure
Utilize accurate stream : Yes
Defeat audio cache : No
Make use of C2 pointers : No

Read offset correction : 6
Overread into Lead-In and Lead-Out : No
Fill up missing offset samples with silence : Yes
Delete leading and trailing silent blocks : No
Null samples used in CRC calculations : Yes
Used interface : Native Win32 interface for Win NT & 2000
Gap handling : Not detected, thus appended to previous track

Used output format : User Defined Encoder
Selected bitrate : 320 kBit/s
Quality : High
Add ID3 tag : Yes
Command line compressor : C:\Program Files\Exact Audio Copy\FLAC\FLAC.EXE
Additional command line options : -8 -A tukey(0.25) -A gauss(0.1875) -b 4096 -V -T "artist=%a" -T "title=%t" -T "album=%g" -T "date=%y" -T "tracknumber=%n" -T "genre=%m" %s –sector-align


TOC of the extracted CD

Track | Start | Length | Start sector | End sector
––––––––––––––––––––––––––––-
1 | 0:00.00 | 2:40.30 | 0 | 12029
2 | 2:40.30 | 4:18.37 | 12030 | 31416
3 | 6:58.67 | 3:36.08 | 31417 | 47624
4 | 10:35.00 | 2:56.52 | 47625 | 60876
5 | 13:31.52 | 3:38.05 | 60877 | 77231
6 | 17:09.57 | 3:39.60 | 77232 | 93716
7 | 20:49.42 | 4:03.10 | 93717 | 111951
8 | 24:52.52 | 1:58.70 | 111952 | 120871
9 | 26:51.47 | 4:21.50 | 120872 | 140496
10 | 31:13.22 | 5:14.65 | 140497 | 164111
11 | 36:28.12 | 2:52.18 | 164112 | 177029
12 | 39:20.30 | 2:41.30 | 177030 | 189134
13 | 42:01.60 | 3:38.10 | 189135 | 205494
14 | 45:39.70 | 3:41.62 | 205495 | 222131
15 | 49:21.57 | 2:09.65 | 222132 | 231871


Track 1

Filename D:\music\Teenage Head\Teenage Head\01 - You're Tearin' Me Apart.wav

Peak level 100.0 %
Track quality 99.9 %
Test CRC 6B5B0C5B
Copy CRC 6B5B0C5B
Track not present in AccurateRip database
Copy OK

Track 2

Filename D:\music\Teenage Head\Teenage Head\02 - Ain't Got No Sense.wav

Peak level 100.0 %
Track quality 100.0 %
Test CRC BC870C7A
Copy CRC BC870C7A
Track not present in AccurateRip database
Copy OK

Track 3

Filename D:\music\Teenage Head\Teenage Head\03 - Bonerack.wav

Peak level 100.0 %
Track quality 100.0 %
Test CRC FC5F939E
Copy CRC FC5F939E
Track not present in AccurateRip database
Copy OK

Track 4

Filename D:\music\Teenage Head\Teenage Head\04 - Picture My Face.wav

Peak level 100.0 %
Track quality 100.0 %
Test CRC EB673D79
Copy CRC EB673D79
Track not present in AccurateRip database
Copy OK

Track 5

Filename D:\music\Teenage Head\Teenage Head\05 - Lucy Potato.wav

Peak level 100.0 %
Track quality 100.0 %
Test CRC A9EB96AE
Copy CRC A9EB96AE
Track not present in AccurateRip database
Copy OK

Track 6

Filename D:\music\Teenage Head\Teenage Head\06 - Little Boxes.wav

Peak level 100.0 %
Track quality 99.9 %
Test CRC 814FABEA
Copy CRC 814FABEA
Track not present in AccurateRip database
Copy OK

Track 7

Filename D:\music\Teenage Head\Teenage Head\07 - Curtain Jumper.wav

Peak level 100.0 %
Track quality 100.0 %
Test CRC 56F07A54
Copy CRC 56F07A54
Track not present in AccurateRip database
Copy OK

Track 8

Filename D:\music\Teenage Head\Teenage Head\08 - Top Down.wav

Peak level 100.0 %
Track quality 100.0 %
Test CRC 3B02DB19
Copy CRC 3B02DB19
Track not present in AccurateRip database
Copy OK

Track 9

Filename D:\music\Teenage Head\Teenage Head\09 - Get Off My Back.wav

Peak level 100.0 %
Track quality 99.9 %
Test CRC A254899C
Copy CRC A254899C
Track not present in AccurateRip database
Copy OK

Track 10

Filename D:\music\Teenage Head\Teenage Head\10 - Kissin' The Carpet.wav

Peak level 100.0 %
Track quality 100.0 %
Test CRC 5FCECD24
Copy CRC 5FCECD24
Track not present in AccurateRip database
Copy OK

Track 11

Filename D:\music\Teenage Head\Teenage Head\11 - Disgusteen (Unreleased Take).wav

Peak level 95.1 %
Track quality 100.0 %
Test CRC 62C91283
Copy CRC 62C91283
Track not present in AccurateRip database
Copy OK

Track 12

Filename D:\music\Teenage Head\Teenage Head\12 - You're Tearin' Me Apart (45 RPM Single).wav

Peak level 95.2 %
Track quality 100.0 %
Test CRC 5CE1D050
Copy CRC 5CE1D050
Track not present in AccurateRip database
Copy OK

Track 13

Filename D:\music\Teenage Head\Teenage Head\13 - Bonerack (Unreleased Take).wav

Peak level 97.7 %
Track quality 99.9 %
Test CRC 9A8A2DB6
Copy CRC 9A8A2DB6
Track not present in AccurateRip database
Copy OK

Track 14

Filename D:\music\Teenage Head\Teenage Head\14 - Lucy Potato (Unreleased Take).wav

Peak level 97.2 %
Track quality 99.9 %
Test CRC 055630DD
Copy CRC 055630DD
Track not present in AccurateRip database
Copy OK

Track 15

Filename D:\music\Teenage Head\Teenage Head\15 - Top Down (New Version).wav

Peak level 95.7 %
Track quality 99.9 %
Test CRC 9F1A1F89
Copy CRC 9F1A1F89
Track not present in AccurateRip database
Copy OK


None of the tracks are present in the AccurateRip database

No errors occurred

End of status report

Official DR value = 10.
All songs digitally remastered by Peter J. Moore

- Frankie "Venom" Kerr - vocals
- Gordie Lewis - guitars
- Steve "Marshall" Mahon - bass
- Nick Stipanitz - drums

Original Release Date: 1979
Re-Released on CD: 1996
Label: Other People's Music
Catalog No.: OPM 2107-2

Download:
FS1
FS2
FS3
FS4

password: MrMushroom

More TEENAGE HEAD at AvaxHome