Subcategories

Wilhelm Stenhammar - The Swedish RSO and Choir - Serenad, Midwinter, Chitra (1990)

Posted By: luckburz
Wilhelm Stenhammar - The Swedish RSO and Choir - Serenad, Midwinter, Chitra (1990)

Wilhelm Stenhammar - Serenad, Midwinter, Chitra
The Swedish Radio Symphony Orchestra & Choir / Esa-Pekka Salonen
EAC+LOG+CUE | FLAC: 263 MB | Full Artwork | 5% Recovery Info
Label/Cat#: Musica Sveciae # MSCD 626 | Country/Year: Sweden 1990
Genre: Classical | Style: Romantic

MD5 [X] CUE [X] LOG [X] INFO TEXT [X] ARTWORK [X]

selfrip [X] not my rip []

Wilhelm Stenhammar - The Swedish RSO and Choir - Serenad, Midwinter, Chitra (1990)


Exact Audio Copy V1.0 beta 3 from 29. August 2011

EAC extraction logfile from 13. July 2012, 22:27

The Swedish RSO and Choir / Stenhammar: Serenade, Midwinter, Chitra

Used drive : PIONEER BD-RW BDR-206 Adapter: 2 ID: 3

Read mode : Secure
Utilize accurate stream : Yes
Defeat audio cache : Yes
Make use of C2 pointers : No

Read offset correction : 667
Overread into Lead-In and Lead-Out : No
Fill up missing offset samples with silence : Yes
Delete leading and trailing silent blocks : No
Null samples used in CRC calculations : Yes
Used interface : Native Win32 interface for Win NT & 2000

Used output format : User Defined Encoder
Selected bitrate : 896 kBit/s
Quality : High
Add ID3 tag : No
Command line compressor : C:\Program Files\FLAC\flac.exe
Additional command line options : -5 -T "Artist=%artist%" -T "Title=%title%" -T "Album=%albumtitle%" -T "Date=%year%" -T "Tracknumber=%tracknr%" -T "Genre=%genre%" %source% -o %dest%


TOC of the extracted CD

Track | Start | Length | Start sector | End sector
––––––––––––––––––––––––––––-
1 | 0:00.00 | 6:32.22 | 0 | 29421
2 | 6:32.22 | 4:45.30 | 29422 | 50826
3 | 11:17.52 | 7:31.73 | 50827 | 84724
4 | 18:49.50 | 8:32.37 | 84725 | 123161
5 | 27:22.12 | 8:58.43 | 123162 | 163554
6 | 36:20.55 | 3:17.07 | 163555 | 178336
7 | 39:37.62 | 4:52.00 | 178337 | 200236
8 | 44:29.62 | 5:44.63 | 200237 | 226099
9 | 50:14.50 | 14:23.00 | 226100 | 290824


Range status and errors

Selected range

Filename I:\=== VINYL RIPS ===\=== EAC===\X FRESH RIP\Stenhammar- The Swedish RSO and Choir - Serenade, Midwinter, Chitra.wav

Peak level 92.6 %
Extraction speed 1.2 X
Range quality 99.9 %
Test CRC 341868FC
Copy CRC 341868FC
Copy OK

No errors occurred


AccurateRip summary

Track 1 not present in database
Track 2 not present in database
Track 3 not present in database
Track 4 not present in database
Track 5 not present in database
Track 6 not present in database
Track 7 not present in database
Track 8 not present in database
Track 9 not present in database

None of the tracks are present in the AccurateRip database

End of status report

–– CUETools DB Plugin V2.1.3

[CTDB TOCID: xtPqdJqekHS7FHEAZ65qhaoqVC0-] disk not present in database, Submit result: insufficient quality


==== Log checksum 8897C80A1DED88EE5251A6EDFC971A221EABF054EB07A8D22150F6B00D439A34 ====

foobar2000 1.1.7 / Dynamic Range Meter 1.1.1
log date: 2012-08-17 13:02:08

––––––––––––––––––––––––––––––––––––––––
Analyzed: The Swedish RSO and Choir / Stenhammar: Serenade, Midwinter, Chitra
––––––––––––––––––––––––––––––––––––––––

DR Peak RMS Duration Track
––––––––––––––––––––––––––––––––––––––––
DR14 -5.56 dB -27.43 dB 6:32 01-Serenad, Op. 31 [I. Ouvertura]
DR13 -12.36 dB -31.97 dB 4:45 02-Serenad, Op. 31 [II. Canzonetta]
DR16 -0.66 dB -24.86 dB 7:32 03-Serenad, Op. 31 [III. Scherzo]
DR14 -10.43 dB -32.19 dB 8:32 04-Serenad, Op. 31 [IV. Notturno]
DR18 -1.41 dB -26.65 dB 8:59 05-Serenad, Op. 31 [V. Finale]
DR12 -19.37 dB -39.04 dB 3:17 06-Chitra, Op. 43 [I. Andante sostenuto]
DR16 -15.93 dB -37.64 dB 4:52 07-Chitra, Op. 43 [II. Tempo moderato. Allegretto mosso, sempre dolcissimo]
DR14 -10.34 dB -29.37 dB 5:45 08-Chitra, Op. 43 [III. Allegro appassionato]
DR14 -4.60 dB -25.71 dB 14:23 09-Midvinter, Op. 24
––––––––––––––––––––––––––––––––––––––––

Number of tracks: 9
Official DR value: DR15

Samplerate: 44100 Hz
Channels: 2
Bits per sample: 16
Bitrate: 569 kbps
Codec: FLAC
================================================================================



CD Info:

Wilhelm Stenhammer (1871-1927) - The Swedish Radio Symphony Orchestra & Choir, Esa-Pekka Salonen - Serenad / Midvinter / Chitra

Label: Musica Sveciae
Catalog#: MSCD 626
Format: CD, Album
Country: Sweden
Released: 1990
Genre: Classical

Tracklist:

01. Serenad, Op. 31 [I. Ouvertura] 6:32
02. Serenad, Op. 31 [II. Canzonetta] 4:45
03. Serenad, Op. 31 [III. Scherzo] 7:31
04. Serenad, Op. 31 [IV. Notturno] 8:32
05. Serenad, Op. 31 [V. Finale] 8:58
06. Chitra, Op. 43 [I. Andante sostenuto] 3:17
07. Chitra, Op. 43 [II. Tempo moderato. Allegretto mosso, sempre dolcissimo] 4:52
08. Chitra, Op. 43 [III. Allegro appassionato] 5:44
09. Midvinter, Op. 24 14:23

Recorded at The Berwald Hall, Stockholm 26-28/9 1988 (Serenad) 13/4 1989 (Chitra) 11,12/4 1989 (Midvinter)

Wilhelm Stenhammar - The Swedish RSO and Choir - Serenad, Midwinter, Chitra (1990)


Stenhammar was a Swedish pianist and self-taught composer and conductor. His compositions began as typically late Romantic fare but evolved through three periods. In the first, his primary influences were Liszt, Brahms, and Wagner, but the music is imbued with a Nordic sound without specifically quoting Swedish folk song. His early operas Gildet på Solhaug (1892-1893) and Tirfing (1897-1898), although unsuccessful, were the pinnacles of this period. Stenhammar's second period began as he attempted to create a more concentrated and motivically oriented style, modeled on the great classicists Beethoven, Haydn, and Mozart. In spite of this, the music of this period loses none of its Nordic color. His brilliant cantata Ett folk (1904-1905) and the frequently played Second Piano Concerto are the most representative. Beginning in 1909, perhaps feeling his lack of training was detrimental to further development, Stenhammar engaged upon a nine-year course in strict counterpoint. The fruit of this study resulted in his last period, where the music becomes more contrapuntally and modally oriented, particularly in the last two of his six string quartets. Yet at the same time, his larger works, such as the orchestral Serenade and the Second Symphony, lose nothing of the earlier freshness and inspiration that make Stenhammar's music so attractive.
Stenhammar's early years were spent surrounded by culture, although he never undertook formal training except in piano. By 1900, he had established himself as a pianist, eventually giving over 1,000 concerts all over Sweden. He had also debuted as a conductor in 1897 with his own overture Excelsior!, and eventually went on to direct the Stockholm Philharmonic Society, the Royal Opera, the New Philharmonic Society, and the Göttesborgs Orkesterförening. Stenhammar eventually became one of the most important Scandinavian musicians of his era, and his compositions, including many songs, choral works, chamber and solo pieces, and theater and orchestral works represent the best music out of turn-of-the-century Sweden. allmusicguide
Wilhelm Stenhammar - The Swedish RSO and Choir - Serenad, Midwinter, Chitra (1990)

// classical music \\
// all of my uploads \\
________________

Download:
FLAC
Artwork
________________