Various Artists - The Walking Dead - Songs Of Survival & Songs Of Survival Vol. 2 (2013/2014)

Posted By: muddboogers
Various Artists - The Walking Dead -  Songs Of Survival & Songs Of Survival Vol. 2 (2013/2014)

Various Artists - The Walking Dead - Songs Of Survival (2013)
EAC | FLAC IMG+CUE+LOG | Scans | RAR 5% Recovery | 180 MB
Acoustic, Alternative Rock, Indie Rock, Soundtrack | Republic Records - ZDV60506CD

A Walmart Exclusive bonus CD with the Purchase of the Walking Dead Season 3 on DVD and Blu-ray

Various Artists - The Walking Dead -  Songs Of Survival & Songs Of Survival Vol. 2 (2013/2014)


Tracklist:
01. Timber Timbre & Feist - Homage [0:04:08.07]
02. Other Lives - Living Dead [0:03:17.47]
03. Youngblood Hawke - Culprit [0:04:11.52]
04. Damien Jurado - I Will Still Be Dead [0:02:40.14]
05. Anna Ternheim - Light Of Day [0:03:37.08]
06. Lisa Marie Presley - People [0:04:35.51]
07. Band Of Skulls - Double O Bruises [0:04:14.72]
08. Willy Mason - Run [0:02:44.50]

Exact Audio Copy V1.0 beta 3 from 29. August 2011

EAC extraction logfile from 30. October 2014, 12:43

Various Artists / The Walking Dead: Songs Of Survival

Used drive : SONY CDRWDVD CRX310EE Adapter: 0 ID: 0

Read mode : Secure
Utilize accurate stream : Yes
Defeat audio cache : Yes
Make use of C2 pointers : No

Read offset correction : 6
Overread into Lead-In and Lead-Out : No
Fill up missing offset samples with silence : Yes
Delete leading and trailing silent blocks : No
Null samples used in CRC calculations : Yes
Used interface : Native Win32 interface for Win NT & 2000

Used output format : Internal WAV Routines
Sample format : 44.100 Hz; 16 Bit; Stereo


TOC of the extracted CD

Track | Start | Length | Start sector | End sector
––––––––––––––––––––––––––––-
1 | 0:00.00 | 4:08.07 | 0 | 18606
2 | 4:08.07 | 3:17.47 | 18607 | 33428
3 | 7:25.54 | 4:11.52 | 33429 | 52305
4 | 11:37.31 | 2:40.14 | 52306 | 64319
5 | 14:17.45 | 3:37.08 | 64320 | 80602
6 | 17:54.53 | 4:35.51 | 80603 | 101278
7 | 22:30.29 | 4:14.72 | 101279 | 120400
8 | 26:45.26 | 2:44.50 | 120401 | 132750


Range status and errors

Selected range

Filename E:\MeTaLMaDNeSS.TeaM ~ jdr • AvaxHome ~ muddboogers\Various Artists - The Walking Dead - Songs Of Survival.wav

Peak level 99.9 %
Extraction speed 7.9 X
Range quality 100.0 %
Test CRC 515203D3
Copy CRC 515203D3
Copy OK

No errors occurred


AccurateRip summary

Track 1 accurately ripped (confidence 6) [B8546D0B] (AR v2)
Track 2 accurately ripped (confidence 6) [39F7C318] (AR v2)
Track 3 accurately ripped (confidence 6) [CD2DFE7D] (AR v2)
Track 4 accurately ripped (confidence 6) [AFCE95DF] (AR v2)
Track 5 accurately ripped (confidence 6) [1A60432B] (AR v2)
Track 6 accurately ripped (confidence 6) [AEA745A2] (AR v2)
Track 7 accurately ripped (confidence 6) [B1EACB53] (AR v2)
Track 8 accurately ripped (confidence 6) [838FC9A9] (AR v2)

All tracks accurately ripped

End of status report

–– CUETools DB Plugin V2.1.4

[CTDB TOCID: qdYOn5H0zPOWRQcMJCM9BnT3lmQ-] found
Submit result: qdYOn5H0zPOWRQcMJCM9BnT3lmQ- has been confirmed
Track | CTDB Status
1 | (3/3) Accurately ripped
2 | (3/3) Accurately ripped
3 | (3/3) Accurately ripped
4 | (3/3) Accurately ripped
5 | (3/3) Accurately ripped
6 | (3/3) Accurately ripped
7 | (3/3) Accurately ripped
8 | (3/3) Accurately ripped


==== Log checksum 97861636EDC0BDBD5D30D9F12188963E61A156718DD6C9DCC5509105FB9DDC1D ====

[CUETools log; Date: 10/30/2014 11:15:34 PM; Version: 2.1.4]
[CTDB TOCID: qdYOn5H0zPOWRQcMJCM9BnT3lmQ-] found.
Track | CTDB Status
1 | (4/4) Accurately ripped
2 | (4/4) Accurately ripped
3 | (4/4) Accurately ripped
4 | (4/4) Accurately ripped
5 | (4/4) Accurately ripped
6 | (4/4) Accurately ripped
7 | (4/4) Accurately ripped
8 | (4/4) Accurately ripped
[AccurateRip ID: 00093630-003d52b0-6d06ea08] found.
Track [ CRC | V2 ] Status
01 [23988960|b8546d0b] (0+6/6) Accurately ripped
02 [54f75157|39f7c318] (0+6/6) Accurately ripped
03 [3f31d816|cd2dfe7d] (0+6/6) Accurately ripped
04 [cb55bd3a|afce95df] (0+6/6) Accurately ripped
05 [7265f16b|1a60432b] (0+6/6) Accurately ripped
06 [d2d9448c|aea745a2] (0+6/6) Accurately ripped
07 [44b74d5e|b1eacb53] (0+6/6) Accurately ripped
08 [424c8346|838fc9a9] (0+6/6) Accurately ripped

Track Peak [ CRC32 ] [W/O NULL] [ LOG ]
– 99.9 [515203D3] [3EA17BEC] CRC32
01 99.9 [BAD68223] [8992F56A]
02 99.9 [B64CA2EC] [A8EA0CC0]
03 99.8 [2AA11892] [70217E0B]
04 99.9 [FE7949BE] [1E4D9924]
05 99.8 [4A48537C] [DA73FB00]
06 99.8 [04174858] [92A18B3B]
07 87.6 [9CFEE8C3] [1BEE0295]
08 98.7 [8F3F8901] [7B8C41ED]


===========================================================================


Various Artists - The Walking Dead -  Songs Of Survival & Songs Of Survival Vol. 2 (2013/2014)

Various Artists - The Walking Dead - Songs Of Survival Vol. 2 (2014)
EAC | FLAC IMG+CUE+LOG | Scans | RAR 3% Recovery | 206 MB
Acoustic, Alternative Rock, Indie Rock, Soundtrack | Republic Records - ZAF00517CD

A Walmart Exclusive bonus CD with the Purchase of the Walking Dead Season 4 on DVD and Blu-ray

Various Artists - The Walking Dead -  Songs Of Survival & Songs Of Survival Vol. 2 (2013/2014)

Tracklist:
01. Me'Shell NdegéOcello - Good Day Bad [0:04:17.21]
02. The Lumineers - Visions Of China [0:03:21.15]
03. Phantogram - Never Going Home (Thom Alt-J Remix) [0:03:56.67]
04. Crooked Fingers - All The Young Thugs [0:03:54.31]
05. Colbie Caillat - The Way I Was [0:04:39.65]
06. Kongos - Escape (Acoustic) [0:04:24.18]
07. Godsmack - Turning To Stone [0:04:08.27]
08. Alela Diane - The Light [0:04:40.21]

Exact Audio Copy V1.0 beta 3 from 29. August 2011

EAC extraction logfile from 30. October 2014, 23:11

Various Artists / The Walking Dead: Songs Of Survival Vol. 2

Used drive : SONY CDRWDVD CRX310EE Adapter: 0 ID: 0

Read mode : Secure
Utilize accurate stream : Yes
Defeat audio cache : Yes
Make use of C2 pointers : No

Read offset correction : 6
Overread into Lead-In and Lead-Out : No
Fill up missing offset samples with silence : Yes
Delete leading and trailing silent blocks : No
Null samples used in CRC calculations : Yes
Used interface : Native Win32 interface for Win NT & 2000

Used output format : Internal WAV Routines
Sample format : 44.100 Hz; 16 Bit; Stereo


TOC of the extracted CD

Track | Start | Length | Start sector | End sector
––––––––––––––––––––––––––––-
1 | 0:00.00 | 4:17.21 | 0 | 19295
2 | 4:17.21 | 3:21.15 | 19296 | 34385
3 | 7:38.36 | 3:56.67 | 34386 | 52152
4 | 11:35.28 | 3:54.31 | 52153 | 69733
5 | 15:29.59 | 4:39.65 | 69734 | 90723
6 | 20:09.49 | 4:24.18 | 90724 | 110541
7 | 24:33.67 | 4:08.27 | 110542 | 129168
8 | 28:42.19 | 4:40.21 | 129169 | 150189


Range status and errors

Selected range

Filename E:\MeTaLMaDNeSS.TeaM ~ jdr • AvaxHome ~ muddboogers\Various Artists - The Walking Dead - Songs Of Survival Vol. 2.wav

Peak level 99.9 %
Extraction speed 6.1 X
Range quality 100.0 %
Test CRC 081C8D68
Copy CRC 081C8D68
Copy OK

No errors occurred


AccurateRip summary

Track 1 not present in database
Track 2 not present in database
Track 3 not present in database
Track 4 not present in database
Track 5 not present in database
Track 6 not present in database
Track 7 not present in database
Track 8 not present in database

None of the tracks are present in the AccurateRip database

End of status report

–– CUETools DB Plugin V2.1.4

[CTDB TOCID: f0SwcANgLmyuyOgzPG1GkdYgZHo-] found
Submit result: f0SwcANgLmyuyOgzPG1GkdYgZHo- has been confirmed
Track | CTDB Status
1 | (3/3) Accurately ripped
2 | (3/3) Accurately ripped
3 | (3/3) Accurately ripped
4 | (3/3) Accurately ripped
5 | (3/3) Accurately ripped
6 | (3/3) Accurately ripped
7 | (3/3) Accurately ripped
8 | (3/3) Accurately ripped


==== Log checksum 2B124AF09C3878DED2C4813A2F6AC6FEAE656FEBD20D1C54A43D38D5BAC2B04D ====

[CUETools log; Date: 10/30/2014 11:15:10 PM; Version: 2.1.4]
[CTDB TOCID: f0SwcANgLmyuyOgzPG1GkdYgZHo-] found.
Track | CTDB Status
1 | (4/4) Accurately ripped
2 | (4/4) Accurately ripped
3 | (4/4) Accurately ripped
4 | (4/4) Accurately ripped
5 | (4/4) Accurately ripped
6 | (4/4) Accurately ripped
7 | (4/4) Accurately ripped
8 | (4/4) Accurately ripped
[AccurateRip ID: 000a0342-00432c39-6307d208] disk not present in database.

Track Peak [ CRC32 ] [W/O NULL] [ LOG ]
– 99.9 [081C8D68] [82A1F381] CRC32
01 99.8 [A57E2B08] [25D63F78]
02 96.2 [32F07251] [6260EB51]
03 92.6 [78A03339] [3FF600E2]
04 97.6 [2A630BAD] [D18E7A3F]
05 99.9 [0DB9F50B] [86BACD5C]
06 99.9 [D276129E] [A047AE02]
07 99.9 [64C7AED5] [93924A06]
08 98.8 [72265367] [D5904884]


===========================================================================