Subcategories

The Strings of Paris - Sleepy Shores (1987)

Posted By: Speedyclick
The Strings of Paris - Sleepy Shores (1987)

The Strings of Paris - Sleepy Shores (1987)
EAC Rip | FLAC (image & cue & log) | tracks: 16 | ~ 292 Mb | 52:01 | Scans
Label: Beautiful Music Collection | Genre: Instrumental, orchestra, easy listening

Relaxing and euphoric music from "The Strings of Paris" orchestra, conducted by Jean Paul de la Tour. Listen to great tunes like "Speak Softly Love", "Bilitis", "Girl From Ipanema" and many others, performed by a great orchestra.

TRACKLIST
01. Sleepy Shores
02. I'll Never Love This Way Again
03. Felicita
04. Georgia on My Mind
05. Speak Softly Love
06. Girl from Ipanima
07. You Don't Bring Me Flowers
08. Moulin Rouge
09. Barcarolle
10. Volare
11. Ebb Tide
12. Two Sleepy People
13. La Montanara
14. Disco Tropez
15. Stardust
16. Bilitis

Exact Audio Copy V0.99 prebeta 5 from 4. May 2009

EAC extraction logfile from 16. February 2011, 5:06

Strings of Paris / Sleepy Shores

Used drive : HL-DT-STDVDRAM GP08LU11 Adapter: 3 ID: 1

Read mode : Secure
Utilize accurate stream : Yes
Defeat audio cache : Yes
Make use of C2 pointers : No

Read offset correction : 667
Overread into Lead-In and Lead-Out : No
Fill up missing offset samples with silence : Yes
Delete leading and trailing silent blocks : No
Null samples used in CRC calculations : No
Used interface : Native Win32 interface for Win NT & 2000

Used output format : User Defined Encoder
Selected bitrate : 896 kBit/s
Quality : High
Add ID3 tag : No
Command line compressor : C:\Program Files\FLAC\flac.exe
Additional command line options : -V -5 -T "artist=%a" -T "title=%t" -T "album=%g" -T "date=%y" -T "tracknumber=%n" -T "genre=%m" -5 %s


TOC of the extracted CD

Track | Start | Length | Start sector | End sector
––––––––––––––––––––––––––––-
1 | 0:00.00 | 3:28.37 | 0 | 15636
2 | 3:28.37 | 3:03.13 | 15637 | 29374
3 | 6:31.50 | 2:52.15 | 29375 | 42289
4 | 9:23.65 | 4:32.00 | 42290 | 62689
5 | 13:55.65 | 2:58.40 | 62690 | 76079
6 | 16:54.30 | 2:41.02 | 76080 | 88156
7 | 19:35.32 | 3:28.08 | 88157 | 103764
8 | 23:03.40 | 3:12.20 | 103765 | 118184
9 | 26:15.60 | 3:52.12 | 118185 | 135596
10 | 30:07.72 | 2:52.43 | 135597 | 148539
11 | 33:00.40 | 3:39.55 | 148540 | 165019
12 | 36:40.20 | 3:06.52 | 165020 | 179021
13 | 39:46.72 | 2:15.35 | 179022 | 189181
14 | 42:02.32 | 3:45.30 | 189182 | 206086
15 | 45:47.62 | 2:52.68 | 206087 | 219054
16 | 48:40.55 | 3:20.20 | 219055 | 234074


Range status and errors

Selected range

Filename S:\EAC Rips\The String of Paris - Sleepy Shores\Strings of Paris - Sleepy Shores.wav

Peak level 100.0 %
Range quality 100.0 %
Test CRC D1CAA5E2
Copy CRC D1CAA5E2
Copy OK

No errors occurred


AccurateRip summary

Track 1 not present in database
Track 2 not present in database
Track 3 not present in database
Track 4 not present in database
Track 5 not present in database
Track 6 not present in database
Track 7 not present in database
Track 8 not present in database
Track 9 not present in database
Track 10 not present in database
Track 11 not present in database
Track 12 not present in database
Track 13 not present in database
Track 14 not present in database
Track 15 not present in database
Track 16 not present in database

None of the tracks are present in the AccurateRip database

End of status report