The Six - The View From Jazzbo's Head (1956) {2014 Japanese Bethlehem Album Collection 1000}

Posted By: ruskaval
The Six - The View From Jazzbo's Head (1956) {2014 Japanese Bethlehem Album Collection 1000}

The Six - The View From Jazzbo's Head (1956) {2014 Japanese Bethlehem Album Collection 1000}
EAC rip (secure mode) | FLAC (tracks)+CUE+LOG -> 191 Mb | MP3 @320 -> 89 Mb
Full Artwork @ 600 dpi (png) -> 216 Mb | 5% repair rar
© 2014 Solid Records / Bethlehem | CDSOL-6133 | LP BCP-57
Jazz / Bop / Cool

Reissue. Features the latest remastering. Includes a Japanese description, lyrics. Features original cover artwork. A tightly swinging set of tracks dedicated to Al Jazzbo Collins – the famous jazz DJ of the 50s! Collins has little to do with the set – save for his image on the front cover – and the group's mostly a swing-based ensemble, grooving in a style that's similar to other mid 50s albums on Bethlehem, but a bit rougher and more open-ended. The ensemble seems to be led by tenor player Bob Wilber – and features Sonny Truitt on trombone, John Glasel on trumpet, Bob Hammer on piano, Bill Britto on bass, and Jackie Moffitt on drums. Titles include a number of originals – including "Giggles", "Phweedah", "View From Jazzbo's Head", and "The Troglodyte".
The Six - The View From Jazzbo's Head (1956) {2014 Japanese Bethlehem Album Collection 1000}


More INFO

Personnel:
Bob Wilber - clarinet, tenor sax
John Glasel - trumpet
Sonny Truitt - trombone
Bob Hammer - piano
Bill Britto - bass
Jackie Moffitt - drums

The Six - The View From Jazzbo's Head (1956) {2014 Japanese Bethlehem Album Collection 1000}


tracklist:
01 - Giggles
02 - Phweedah
03 - Over The Rainbow
04 - The View From Jazzbo's Head
05 - Blue Lou
06 - Our Delight
07 - My Old Flame
08 - The Troglodyte

Exact Audio Copy V1.0 beta 4 from 7. December 2014

EAC extraction logfile from 31. March 2015, 17:13

The Six / The View From Jazzbo's Head

Used drive : TSSTcorpCDDVDW SE-208DB Adapter: 1 ID: 1

Read mode : Secure
Utilize accurate stream : Yes
Defeat audio cache : Yes
Make use of C2 pointers : No

Read offset correction : 6
Overread into Lead-In and Lead-Out : No
Fill up missing offset samples with silence : Yes
Delete leading and trailing silent blocks : No
Null samples used in CRC calculations : Yes
Used interface : Native Win32 interface for Win NT & 2000
Gap handling : Appended to previous track

Used output format : User Defined Encoder
Selected bitrate : 1024 kBit/s
Quality : High
Add ID3 tag : No
Command line compressor : C:\Program Files (x86)\FLAC Frontend\tools\flac.exe
Additional command line options : -8 -V -T "ARTIST=%artist%" -T "TITLE=%title%" -T "ALBUM=%albumtitle%" -T "DATE=%year%" -T "TRACKNUMBER=%tracknr%" -T "TOTALTRACKS=%numtracks%" -T "GENRE=%genre%" -T "ALBUMARTIST=%albumartist%" -T "ALBUM ARTIST=%albumartist%" -T "COMMENT=EAC Secure Mode, Test & Copy, AccurateRip, FLAC -8" %source%


TOC of the extracted CD

Track | Start | Length | Start sector | End sector
––––––––––––––––––––––––––––-
1 | 0:00.00 | 3:20.36 | 0 | 15035
2 | 3:20.36 | 6:39.71 | 15036 | 45031
3 | 10:00.32 | 2:11.59 | 45032 | 54915
4 | 12:12.16 | 3:20.05 | 54916 | 69920
5 | 15:32.21 | 7:48.32 | 69921 | 105052
6 | 23:20.53 | 6:23.65 | 105053 | 133842
7 | 29:44.43 | 3:59.13 | 133843 | 151780
8 | 33:43.56 | 3:49.19 | 151781 | 168974


Track 1

Filename D:\_EAC\The Six - The View From Jazzbo's Head (1956) [FLAC] {2014 Japanese Bethlehem Album Collection 1000}\01 - Giggles.wav

Pre-gap length 0:00:02.00

Peak level 98.2 %
Extraction speed 0.8 X
Track quality 99.9 %
Test CRC 5276A629
Copy CRC 5276A629
Accurately ripped (confidence 1) [3901DEE5] (AR v2)
Copy OK

Track 2

Filename D:\_EAC\The Six - The View From Jazzbo's Head (1956) [FLAC] {2014 Japanese Bethlehem Album Collection 1000}\02 - Phweedah.wav

Peak level 98.2 %
Extraction speed 1.2 X
Track quality 100.0 %
Test CRC 1CBD45A2
Copy CRC 1CBD45A2
Accurately ripped (confidence 1) [D3EDC85B] (AR v2)
Copy OK

Track 3

Filename D:\_EAC\The Six - The View From Jazzbo's Head (1956) [FLAC] {2014 Japanese Bethlehem Album Collection 1000}\03 - Over The Rainbow.wav

Peak level 97.8 %
Extraction speed 0.8 X
Track quality 99.9 %
Test CRC E7644BD9
Copy CRC E7644BD9
Accurately ripped (confidence 1) [2C6176C5] (AR v2)
Copy OK

Track 4

Filename D:\_EAC\The Six - The View From Jazzbo's Head (1956) [FLAC] {2014 Japanese Bethlehem Album Collection 1000}\04 - The View From Jazzbo's Head.wav

Peak level 98.3 %
Extraction speed 1.2 X
Track quality 100.0 %
Test CRC CE74C480
Copy CRC CE74C480
Accurately ripped (confidence 1) [679AC7AF] (AR v2)
Copy OK

Track 5

Filename D:\_EAC\The Six - The View From Jazzbo's Head (1956) [FLAC] {2014 Japanese Bethlehem Album Collection 1000}\05 - Blue Lou.wav

Peak level 98.2 %
Extraction speed 1.3 X
Track quality 99.9 %
Test CRC C4A5A2CC
Copy CRC C4A5A2CC
Accurately ripped (confidence 1) [BD2EBBFA] (AR v2)
Copy OK

Track 6

Filename D:\_EAC\The Six - The View From Jazzbo's Head (1956) [FLAC] {2014 Japanese Bethlehem Album Collection 1000}\06 - Our Delight.wav

Peak level 98.2 %
Extraction speed 1.6 X
Track quality 100.0 %
Test CRC 5779C4BE
Copy CRC 5779C4BE
Accurately ripped (confidence 1) [DF69E1D5] (AR v2)
Copy OK

Track 7

Filename D:\_EAC\The Six - The View From Jazzbo's Head (1956) [FLAC] {2014 Japanese Bethlehem Album Collection 1000}\07 - My Old Flame.wav

Peak level 95.8 %
Extraction speed 1.5 X
Track quality 100.0 %
Test CRC E7E9971B
Copy CRC E7E9971B
Accurately ripped (confidence 1) [56A08D39] (AR v2)
Copy OK

Track 8

Filename D:\_EAC\The Six - The View From Jazzbo's Head (1956) [FLAC] {2014 Japanese Bethlehem Album Collection 1000}\08 - The Troglodyte.wav

Peak level 98.2 %
Extraction speed 1.6 X
Track quality 100.0 %
Test CRC 967E2CF9
Copy CRC 967E2CF9
Accurately ripped (confidence 1) [8C70E2A1] (AR v2)
Copy OK


All tracks accurately ripped

No errors occurred

End of status report

==== Log checksum 4468CFD2B4D93A82CD2F330E211698F57F4A63447CCA5E1B24A1634BD35226BA ====


The Six - The View From Jazzbo's Head (1956) {2014 Japanese Bethlehem Album Collection 1000}

The Six - The View From Jazzbo's Head (1956) {2014 Japanese Bethlehem Album Collection 1000}


Terry Pollard - Terry Pollard (1955) {2014 Japanese Bethlehem Album Collection 1000}
Bobby Scott - The Compositions Of Bobby Scott (1955) {2014 Japanese Bethlehem Album Collection 1000}
George Wein And The Storyville Sextet - Metronome Presents Jazz At The Modern (1960) {2014 Japanese Bethlehem Album Collection 1000}
Herbie Harper - Herbie Harper (1955) {2014 Japanese Bethlehem Album Collection 1000}
Humphrey Lyttelton - Humph Plays Standards (1960) {2014 Japanese Bethlehem Album Collection 1000}
Stan Levey - Plays The Composition Of Cooper, Holman and Guiffre (1954) {2014 Japanese Bethlehem Album Collection 1000}
John Coltrane - The Bethlehem Years (1957) [2CD] {2014 Japanese Bethlehem Album Collection 1000}
Bobby Scott - Great Scott (1954) {2014 Japanese Bethlehem Album Collection 1000}
Charlie Mingus - The Jazz Experiments Of Charlie Mingus (1954) {2014 Japanese Bethlehem Album Collection 1000}
Teddy Charles - On Campus! Ivy League Jazz Concert (1959) {2014 Japanese Bethlehem Album Collection 1000}
Russ Garcia - Wigville (1955) {2014 Japanese Bethlehem Album Collection 1000}
Milt Hinton - East Coast Jazz Series No.5 +1 (1955) {2014 Japanese Bethlehem Album Collection 1000}
Urbie Green - Urbie: East Coast Jazz Series No.6 (1955) {2014 Japanese Bethlehem Album Collection 1000}
Sam Most - I'm Nuts About The Most….Sam That Is! (1955) {2014 Japanese Bethlehem Album Collection 1000}
Charlie Shavers - Gershwin, Shavers & Strings (1954) {2014 Japanese Bethlehem Album Collection 1000}
The Six - The Six (1955) {2014 Japanese Bethlehem Album Collection 1000}
Jack Teagarden - Jazz Great (1954) {2014 Japanese Bethlehem Album Collection 1000}


NEXT -> More 2014 Japanese Bethlehem Album Collection 1000 Remasters…