Subcategories

The Six - The Six (1955) {2014 Japanese Bethlehem Album Collection 1000}

Posted By: ruskaval
The Six - The Six (1955) {2014 Japanese Bethlehem Album Collection 1000}

The Six - The Six (1955) {2014 Japanese Bethlehem Album Collection 1000}
EAC rip (secure mode) | FLAC (tracks)+CUE+LOG -> 206 Mb | MP3 @320 -> 93 Mb
Full Artwork @ 600 dpi (png) -> 211 Mb | 5% repair rar
© 2014 Solid Records / Bethlehem | CDSOL-6131 | LP BCP-28
Jazz / Bop / Cool

Reissue. Features the latest remastering. Includes a Japanese description, lyrics. Features original cover artwork. A mainstream jazz combo, but one with plenty of modern edges too – thanks to the skills of the players in the sextet! The musicians here are equally comfortable skirting a number of different styles, which they do very well in the set – especially the horn section, which features Bob Wilber on tenor, Sonny Truitt on trombone, and Johnny Glasel on trumpet! Most numbers are originals by the group members, and the arrangements have that fresh flair that Wilber would bring to later, better-known work – swung by a rhythm section that includes Bob Hammer on piano, Bill Britto on bass, and Eddie Phyfe on drums. Titles include "Itchy Fingers", "Two Kinds Of Blues", "Strange Diet", "Tasty", "As Far As We're Concerned", and "Pink Ice".
The Six - The Six (1955) {2014 Japanese Bethlehem Album Collection 1000}


Personnel:
Bob Wilber - sax
Sonny Truitt - trombone
Johnny Glasel - trumpet
Bill Britto - bass
Eddie Phyfe - drums
Bob Hammer - piano

The Six - The Six (1955) {2014 Japanese Bethlehem Album Collection 1000}


tracklist:
01 - Tasty
02 - As Far As We're Concerned
03 - Shifty
04 - Serenata
05 - Pink Ice
06 - Strange Diet
07 - Old Folks
08 - Itchy Fingers
09 - Two Kind Of Blues

Exact Audio Copy V1.0 beta 4 from 7. December 2014

EAC extraction logfile from 9. February 2015, 23:23

The Six / The Six

Used drive : TSSTcorpCDDVDW SE-208DB Adapter: 1 ID: 1

Read mode : Secure
Utilize accurate stream : Yes
Defeat audio cache : Yes
Make use of C2 pointers : No

Read offset correction : 6
Overread into Lead-In and Lead-Out : No
Fill up missing offset samples with silence : Yes
Delete leading and trailing silent blocks : No
Null samples used in CRC calculations : Yes
Used interface : Native Win32 interface for Win NT & 2000
Gap handling : Appended to previous track

Used output format : User Defined Encoder
Selected bitrate : 1024 kBit/s
Quality : High
Add ID3 tag : No
Command line compressor : C:\Program Files (x86)\FLAC Frontend\tools\flac.exe
Additional command line options : -8 -V -T "ARTIST=%artist%" -T "TITLE=%title%" -T "ALBUM=%albumtitle%" -T "DATE=%year%" -T "TRACKNUMBER=%tracknr%" -T "TOTALTRACKS=%numtracks%" -T "GENRE=%genre%" -T "ALBUMARTIST=%albumartist%" -T "ALBUM ARTIST=%albumartist%" -T "COMMENT=EAC Secure Mode, Test & Copy, AccurateRip, FLAC -8" %source%


TOC of the extracted CD

Track | Start | Length | Start sector | End sector
––––––––––––––––––––––––––––-
1 | 0:00.00 | 3:13.21 | 0 | 14495
2 | 3:13.21 | 4:57.06 | 14496 | 36776
3 | 8:10.27 | 3:36.39 | 36777 | 53015
4 | 11:46.66 | 3:52.51 | 53016 | 70466
5 | 15:39.42 | 4:19.24 | 70467 | 89915
6 | 19:58.66 | 3:37.58 | 89916 | 106248
7 | 23:36.49 | 3:39.54 | 106249 | 122727
8 | 27:16.28 | 2:59.43 | 122728 | 136195
9 | 30:15.71 | 8:56.23 | 136196 | 176418


Track 1

Filename D:\_EAC\The Six - The Six (1955) [FLAC] {2014 Japanese Bethlehem Album Collection 1000}\01 - Tasty.wav

Pre-gap length 0:00:02.00

Peak level 98.3 %
Extraction speed 0.9 X
Track quality 100.0 %
Test CRC 99000A43
Copy CRC 99000A43
Cannot be verified as accurate (confidence 1) [D6D7F3A2], AccurateRip returned [44C7D80B] (AR v2)
Copy OK

Track 2

Filename D:\_EAC\The Six - The Six (1955) [FLAC] {2014 Japanese Bethlehem Album Collection 1000}\02 - As Far As We're Concerned.wav

Peak level 98.2 %
Extraction speed 1.1 X
Track quality 100.0 %
Test CRC A2A9D5C4
Copy CRC A2A9D5C4
Accurately ripped (confidence 1) [1FFF5642] (AR v2)
Copy OK

Track 3

Filename D:\_EAC\The Six - The Six (1955) [FLAC] {2014 Japanese Bethlehem Album Collection 1000}\03 - Shifty.wav

Peak level 98.3 %
Extraction speed 1.2 X
Track quality 100.0 %
Test CRC 7998C1C7
Copy CRC 7998C1C7
Accurately ripped (confidence 1) [A16BF387] (AR v2)
Copy OK

Track 4

Filename D:\_EAC\The Six - The Six (1955) [FLAC] {2014 Japanese Bethlehem Album Collection 1000}\04 - Serenata.wav

Peak level 98.3 %
Extraction speed 1.2 X
Track quality 100.0 %
Test CRC 5CEA2058
Copy CRC 5CEA2058
Accurately ripped (confidence 1) [311B4E87] (AR v2)
Copy OK

Track 5

Filename D:\_EAC\The Six - The Six (1955) [FLAC] {2014 Japanese Bethlehem Album Collection 1000}\05 - Pink Ice.wav

Peak level 98.3 %
Extraction speed 1.2 X
Track quality 99.9 %
Test CRC 47DBD912
Copy CRC 47DBD912
Accurately ripped (confidence 1) [F0E784D9] (AR v2)
Copy OK

Track 6

Filename D:\_EAC\The Six - The Six (1955) [FLAC] {2014 Japanese Bethlehem Album Collection 1000}\06 - Strange Diet.wav

Peak level 98.3 %
Extraction speed 1.2 X
Track quality 99.9 %
Test CRC 5860A905
Copy CRC 5860A905
Accurately ripped (confidence 1) [5A619AD2] (AR v2)
Copy OK

Track 7

Filename D:\_EAC\The Six - The Six (1955) [FLAC] {2014 Japanese Bethlehem Album Collection 1000}\07 - Old Folks.wav

Peak level 98.3 %
Extraction speed 1.4 X
Track quality 100.0 %
Test CRC 0950248F
Copy CRC 0950248F
Accurately ripped (confidence 1) [E63FD50A] (AR v2)
Copy OK

Track 8

Filename D:\_EAC\The Six - The Six (1955) [FLAC] {2014 Japanese Bethlehem Album Collection 1000}\08 - Itchy Fingers.wav

Peak level 98.3 %
Extraction speed 1.4 X
Track quality 100.0 %
Test CRC 76E752F2
Copy CRC 76E752F2
Accurately ripped (confidence 1) [E490A9E3] (AR v2)
Copy OK

Track 9

Filename D:\_EAC\The Six - The Six (1955) [FLAC] {2014 Japanese Bethlehem Album Collection 1000}\09 - Two Kind Of Blues.wav

Peak level 98.3 %
Extraction speed 1.7 X
Track quality 100.0 %
Test CRC 53770B11
Copy CRC 53770B11
Accurately ripped (confidence 1) [AC34EBD9] (AR v2)
Copy OK


8 track(s) accurately ripped
1 track(s) could not be verified as accurate

Some tracks could not be verified as accurate

No errors occurred

End of status report

==== Log checksum 4F35186FFAAA4FB0FF5967E146576AAA34194A4D56161051A50E3B82502FFF22 ====


The Six - The Six (1955) {2014 Japanese Bethlehem Album Collection 1000}

The Six - The Six (1955) {2014 Japanese Bethlehem Album Collection 1000}




NEXT -> More 2014 Japanese Bethlehem Album Collection 1000 Remasters…