Sarah Vaughan - Hall of Fame 1946-1954 (2002) {5 Discs Box Set}

Posted By: Bezz
Sarah Vaughan - Hall of Fame 1946-1954 (2002) {5 Discs Box Set}

Sarah Vaughan - Hall of Fame 1946-1954 (2002) {5 Discs Box Set}
Jazz | EAC rip | FLAC + CUE + LOG | 5 Discs | Full Scans | 1.05 GiB
Genre ~ Standards, Traditional Pop, Vocal Jazz | Label ~ Past Perfect Records

Past Perfect is an imprint of TIM The International Music Company AG, a German company that specializes in multi-disc sets of unlicensed recordings by vintage artists, taking advantage of the 50-year copyright limit on recordings in Europe. Past Perfect's Hall of Fame series presents five-CD box sets that, as the cover note claims, "incl. 40 page booklet." Thus, here we have more than four and a quarter hours of early Sarah Vaughan, recordings made between 1946 and 1954 (the compilers having cheated a little bit on that 50-year limit). The material has been transferred from records originally released by such labels as Musicraft, Columbia, MGM, and Mercury (as well as the Mercury jazz subsidiary EmArcy). The booklet does indeed run 40 pages, and the 30 of those pages devoted to prose are closely printed. But the unsigned biographical essay is an odd one, and not only because the phrasing is sometimes stilted (as if it had been written in a language other than English and then translated), but also because it contains factual errors, and the text and other credits are littered with typos, misspellings, and other minor errors. (For the All Music Guide, the song titles, songwriting credits, and musician credits have been augmented and corrected by reference to the book Sarah Vaughan: A Discography, compiled by Denis Brown, Greenwood Press, 1991, but the buyer should be warned not to rely on any of the information in the package.) Also, the track selection and sequencing is haphazard, with two recordings, "The Nearness of You" and "Can't Get Out of This Mood," being repeated. Sound quality and sound volume vary wildly. Needless to say, a jazz fan looking for a comprehensive box set of Vaughan's work with coherent commentary should look elsewhere. ~ AllMusic


Sarah Vaughan - Hall of Fame 1946-1954 (2002) {5 Discs Box Set}


Disc 1 (You're Not That Kind) - 1946-1947

01. You Go To My Heard [0:03:02.68]
02. I'm Scared [0:02:35.01]
03. I Could Make You Love Me [0:02:47.11]
04. It Might As Well Be Spring [0:03:01.03]
05. You're Not That Kind [0:02:46.29]
06. My Kinda Love [0:02:38.32]
07. If You Could See Me Now [0:02:51.13]
08. I Can Make You Love Me [0:03:03.38]
09. A Hundred Years From Today [0:02:57.56]
10. You're Blase [0:03:01.41]
11. I've Got A Crush On You [0:02:57.62]
12. I'm Through With Love [0:02:51.38]
13. Everything I Have Is Yours [0:02:51.39]
14. Body And Soul [0:02:55.50]
15. Time After Time [0:03:05.35]
16. September Song [0:03:03.06]
17. I Cover The Waterfront [0:02:54.55]
18. I Don't Stand A Ghost Of A Chance [0:02:43.17]
19. Tenderly [0:03:03.17]
20. Trouble Is A Man [0:02:34.41]
21. Love Me Or Leave Me [0:02:56.37]
22. I Get A Kick Out Of You [0:02:49.22]


Exact Audio Copy V0.99 prebeta 5 from 4. May 2009

EAC extraction logfile from 30. November 2010, 16:05

Sarah Vaughan / Hall Of Fame - Disc 1 (You're Not That Kind)

Used drive : PIONEER DVD-RW DVR-116D Adapter: 6 ID: 2

Read mode : Secure
Utilize accurate stream : Yes
Defeat audio cache : Yes
Make use of C2 pointers : No

Read offset correction : 96
Overread into Lead-In and Lead-Out : No
Fill up missing offset samples with silence : Yes
Delete leading and trailing silent blocks : No
Null samples used in CRC calculations : Yes
Used interface : Installed external ASPI interface
Gap handling : Appended to previous track

Used output format : Internal WAV Routines
Sample format : 44.100 Hz; 16 Bit; Stereo


TOC of the extracted CD

Track | Start | Length | Start sector | End sector
––––––––––––––––––––––––––––-
1 | 0:00.00 | 3:02.68 | 0 | 13717
2 | 3:02.68 | 2:35.01 | 13718 | 25343
3 | 5:37.69 | 2:47.11 | 25344 | 37879
4 | 8:25.05 | 3:01.03 | 37880 | 51457
5 | 11:26.08 | 2:46.29 | 51458 | 63936
6 | 14:12.37 | 2:38.32 | 63937 | 75818
7 | 16:50.69 | 2:51.13 | 75819 | 88656
8 | 19:42.07 | 3:03.38 | 88657 | 102419
9 | 22:45.45 | 2:57.56 | 102420 | 115750
10 | 25:43.26 | 3:01.41 | 115751 | 129366
11 | 28:44.67 | 2:57.62 | 129367 | 142703
12 | 31:42.54 | 2:51.38 | 142704 | 155566
13 | 34:34.17 | 2:51.39 | 155567 | 168430
14 | 37:25.56 | 2:55.50 | 168431 | 181605
15 | 40:21.31 | 3:05.35 | 181606 | 195515
16 | 43:26.66 | 3:03.06 | 195516 | 209246
17 | 46:29.72 | 2:54.55 | 209247 | 222351
18 | 49:24.52 | 2:43.17 | 222352 | 234593
19 | 52:07.69 | 3:03.17 | 234594 | 248335
20 | 55:11.11 | 2:34.41 | 248336 | 259926
21 | 57:45.52 | 2:56.37 | 259927 | 273163
22 | 60:42.14 | 2:49.22 | 273164 | 285860


Track 1

Filename F:\PP\Sarah Hall\D1\01 - You Go To My Heard.wav

Pre-gap length 0:00:02.00

Peak level 100.0 %
Track quality 100.0 %
Test CRC 5CF14094
Copy CRC 5CF14094
Accurately ripped (confidence 1) [4EF669CE]
Copy OK

Track 2

Filename F:\PP\Sarah Hall\D1\02 - I'm Scared.wav

Pre-gap length 0:00:02.00

Peak level 100.0 %
Track quality 100.0 %
Test CRC 968F497A
Copy CRC 968F497A
Accurately ripped (confidence 1) [8B1AF77F]
Copy OK

Track 3

Filename F:\PP\Sarah Hall\D1\03 - I Could Make You Love Me.wav

Pre-gap length 0:00:02.00

Peak level 100.0 %
Track quality 100.0 %
Test CRC 2E10B60F
Copy CRC 2E10B60F
Accurately ripped (confidence 1) [D8BCED5E]
Copy OK

Track 4

Filename F:\PP\Sarah Hall\D1\04 - It Might As Well Be Spring.wav

Pre-gap length 0:00:02.00

Peak level 100.0 %
Track quality 100.0 %
Test CRC 2B54C083
Copy CRC 2B54C083
Accurately ripped (confidence 1) [41223F26]
Copy OK

Track 5

Filename F:\PP\Sarah Hall\D1\05 - You're Not That Kind.wav

Pre-gap length 0:00:02.00

Peak level 100.0 %
Track quality 99.9 %
Test CRC 7FC5EDB6
Copy CRC 7FC5EDB6
Accurately ripped (confidence 1) [13B4DFD5]
Copy OK

Track 6

Filename F:\PP\Sarah Hall\D1\06 - My Kinda Love.wav

Pre-gap length 0:00:02.00

Peak level 100.0 %
Track quality 100.0 %
Test CRC CF928353
Copy CRC CF928353
Accurately ripped (confidence 1) [49478721]
Copy OK

Track 7

Filename F:\PP\Sarah Hall\D1\07 - If You Could See Me Now.wav

Pre-gap length 0:00:02.00

Peak level 100.0 %
Track quality 100.0 %
Test CRC F0CBB80C
Copy CRC F0CBB80C
Accurately ripped (confidence 1) [F65F9072]
Copy OK

Track 8

Filename F:\PP\Sarah Hall\D1\08 - I Can Make You Love Me.wav

Pre-gap length 0:00:02.00

Peak level 100.0 %
Track quality 100.0 %
Test CRC 9E6013E3
Copy CRC 9E6013E3
Accurately ripped (confidence 1) [96E7613A]
Copy OK

Track 9

Filename F:\PP\Sarah Hall\D1\09 - A Hundred Years From Today.wav

Pre-gap length 0:00:02.00

Peak level 100.0 %
Track quality 100.0 %
Test CRC 2279BB34
Copy CRC 2279BB34
Accurately ripped (confidence 1) [C3A861AD]
Copy OK

Track 10

Filename F:\PP\Sarah Hall\D1\10 - You're Blase.wav

Pre-gap length 0:00:02.00

Peak level 100.0 %
Track quality 100.0 %
Test CRC 7A8F5EA6
Copy CRC 7A8F5EA6
Accurately ripped (confidence 1) [3A0FEB73]
Copy OK

Track 11

Filename F:\PP\Sarah Hall\D1\11 - I've Got A Crush On You.wav

Pre-gap length 0:00:02.00

Peak level 100.0 %
Track quality 100.0 %
Test CRC 1762A5AB
Copy CRC 1762A5AB
Accurately ripped (confidence 1) [BE88B398]
Copy OK

Track 12

Filename F:\PP\Sarah Hall\D1\12 - I'm Through With Love.wav

Pre-gap length 0:00:02.00

Peak level 100.0 %
Track quality 100.0 %
Test CRC 6AE6FC1F
Copy CRC 6AE6FC1F
Accurately ripped (confidence 1) [15807377]
Copy OK

Track 13

Filename F:\PP\Sarah Hall\D1\13 - Everything I Have Is Yours.wav

Pre-gap length 0:00:02.00

Peak level 100.0 %
Track quality 100.0 %
Test CRC 3BC0E4E2
Copy CRC 3BC0E4E2
Accurately ripped (confidence 1) [831ACA3E]
Copy OK

Track 14

Filename F:\PP\Sarah Hall\D1\14 - Body And Soul.wav

Pre-gap length 0:00:02.00

Peak level 100.0 %
Track quality 99.9 %
Test CRC 0D98F523
Copy CRC 0D98F523
Accurately ripped (confidence 1) [DC89A947]
Copy OK

Track 15

Filename F:\PP\Sarah Hall\D1\15 - Time After Time.wav

Pre-gap length 0:00:02.00

Peak level 100.0 %
Track quality 100.0 %
Test CRC 97CD9F83
Copy CRC 97CD9F83
Accurately ripped (confidence 1) [0BC74A6E]
Copy OK

Track 16

Filename F:\PP\Sarah Hall\D1\16 - September Song.wav

Pre-gap length 0:00:02.00

Peak level 100.0 %
Track quality 100.0 %
Test CRC A0C5659E
Copy CRC A0C5659E
Accurately ripped (confidence 1) [96FCFEAA]
Copy OK

Track 17

Filename F:\PP\Sarah Hall\D1\17 - I Cover The Waterfront.wav

Pre-gap length 0:00:02.00

Peak level 100.0 %
Track quality 100.0 %
Test CRC 8F360CF3
Copy CRC 8F360CF3
Accurately ripped (confidence 1) [47AD8CC8]
Copy OK

Track 18

Filename F:\PP\Sarah Hall\D1\18 - I Don't Stand A Ghost Of A Chance.wav

Pre-gap length 0:00:02.00

Peak level 100.0 %
Track quality 100.0 %
Test CRC 7C91E0D3
Copy CRC 7C91E0D3
Accurately ripped (confidence 1) [63C40238]
Copy OK

Track 19

Filename F:\PP\Sarah Hall\D1\19 - Tenderly.wav

Pre-gap length 0:00:02.00

Peak level 100.0 %
Track quality 100.0 %
Test CRC 6A7E8231
Copy CRC 6A7E8231
Accurately ripped (confidence 1) [2C3B02DE]
Copy OK

Track 20

Filename F:\PP\Sarah Hall\D1\20 - Trouble Is A Man.wav

Pre-gap length 0:00:02.00

Peak level 100.0 %
Track quality 100.0 %
Test CRC 27751B6D
Copy CRC 27751B6D
Accurately ripped (confidence 1) [FF5A9BB7]
Copy OK

Track 21

Filename F:\PP\Sarah Hall\D1\21 - Love Me Or Leave Me.wav

Pre-gap length 0:00:02.00

Peak level 100.0 %
Track quality 100.0 %
Test CRC 45F33152
Copy CRC 45F33152
Accurately ripped (confidence 1) [80D870F1]
Copy OK

Track 22

Filename F:\PP\Sarah Hall\D1\22 - I Get A Kick Out Of You.wav

Pre-gap length 0:00:02.00

Peak level 100.0 %
Track quality 100.0 %
Test CRC 16039AD8
Copy CRC 16039AD8
Accurately ripped (confidence 1) [52842F32]
Copy OK


All tracks accurately ripped

No errors occurred

End of status report


Sarah Vaughan - Hall of Fame 1946-1954 (2002) {5 Discs Box Set}



–––––––––––––––––––––––––––––––––––––––––––––



Sarah Vaughan - Hall of Fame 1946-1954 (2002) {5 Discs Box Set}


Disc 2 (Nice If You Can Get It) - 1946-1950

01. Don't Worry 'Bout Me [0:02:57.69]
02. Penthouse Serenade (When We're Alone) [0:03:12.25]
03. Don't Blame Me [0:03:11.74]
04. I Can't Get Started [0:02:29.71]
05. The One I Love Belongs To Somebody Else [0:03:11.04]
06. I'm Gonna Sit Right Down And Write Myself A Letter [0:02:24.05]
07. East Of The Sun (West Of The Moon) [0:03:08.31]
08. Nice If You Can Get It [0:02:36.20]
09. Can't Get Out Of This Mood [0:02:51.05]
10. Mean To Me [0:02:54.02]
11. Come Rain Or Come Shine [0:03:25.10]
12. It Might As Well Be Spring [0:03:12.61]
13. Ain't Misbehavin' [0:03:00.64]
14. Goodnight My Love [0:03:28.61]
15. The Nearness Of You [0:03:20.33]
16. Pinky [0:02:43.66]
17. Ooh, What 'Cha Doin' to Me [0:01:54.05]


Exact Audio Copy V0.99 prebeta 5 from 4. May 2009

EAC extraction logfile from 1. December 2010, 23:07

Sarah Vaughan / Hall Of Fame - Disc 2 (Nice If You Can Get It)

Used drive : PIONEER DVD-RW DVR-116D Adapter: 6 ID: 2

Read mode : Secure
Utilize accurate stream : Yes
Defeat audio cache : Yes
Make use of C2 pointers : No

Read offset correction : 96
Overread into Lead-In and Lead-Out : No
Fill up missing offset samples with silence : Yes
Delete leading and trailing silent blocks : No
Null samples used in CRC calculations : Yes
Used interface : Installed external ASPI interface
Gap handling : Appended to previous track

Used output format : Internal WAV Routines
Sample format : 44.100 Hz; 16 Bit; Stereo


TOC of the extracted CD

Track | Start | Length | Start sector | End sector
––––––––––––––––––––––––––––-
1 | 0:00.00 | 2:57.69 | 0 | 13343
2 | 2:57.69 | 3:12.25 | 13344 | 27768
3 | 6:10.19 | 3:11.74 | 27769 | 42167
4 | 9:22.18 | 2:29.71 | 42168 | 53413
5 | 11:52.14 | 3:11.04 | 53414 | 67742
6 | 15:03.18 | 2:24.05 | 67743 | 78547
7 | 17:27.23 | 3:08.31 | 78548 | 92678
8 | 20:35.54 | 2:36.20 | 92679 | 104398
9 | 23:11.74 | 2:51.05 | 104399 | 117228
10 | 26:03.04 | 2:54.02 | 117229 | 130280
11 | 28:57.06 | 3:25.10 | 130281 | 145665
12 | 32:22.16 | 3:12.61 | 145666 | 160126
13 | 35:35.02 | 3:00.64 | 160127 | 173690
14 | 38:35.66 | 3:28.61 | 173691 | 189351
15 | 42:04.52 | 3:20.33 | 189352 | 204384
16 | 45:25.10 | 2:43.66 | 204385 | 216675
17 | 48:09.01 | 1:54.05 | 216676 | 225230


Track 1

Filename F:\PP\Sarah Hall\D2\01 - Don't Worry 'Bout Me.wav

Pre-gap length 0:00:02.00

Peak level 100.0 %
Track quality 100.0 %
Test CRC 92446257
Copy CRC 92446257
Accurately ripped (confidence 1) [F0C921AD]
Copy OK

Track 2

Filename F:\PP\Sarah Hall\D2\02 - Penthouse Serenade (When We're Alone).wav

Pre-gap length 0:00:02.00

Peak level 100.0 %
Track quality 100.0 %
Test CRC 29F7AF16
Copy CRC 29F7AF16
Accurately ripped (confidence 1) [4DA6CAFF]
Copy OK

Track 3

Filename F:\PP\Sarah Hall\D2\03 - Don't Blame Me.wav

Pre-gap length 0:00:02.00

Peak level 100.0 %
Track quality 100.0 %
Test CRC 988DB643
Copy CRC 988DB643
Accurately ripped (confidence 1) [FF1E39DE]
Copy OK

Track 4

Filename F:\PP\Sarah Hall\D2\04 - I Can't Get Started.wav

Pre-gap length 0:00:02.00

Peak level 100.0 %
Track quality 100.0 %
Test CRC DD7EF69D
Copy CRC DD7EF69D
Accurately ripped (confidence 1) [39CE2B72]
Copy OK

Track 5

Filename F:\PP\Sarah Hall\D2\05 - The One I Love Belongs To Somebody Else.wav

Pre-gap length 0:00:02.00

Peak level 100.0 %
Track quality 100.0 %
Test CRC 16CCF301
Copy CRC 16CCF301
Accurately ripped (confidence 1) [AA334E59]
Copy OK

Track 6

Filename F:\PP\Sarah Hall\D2\06 - I'm Gonna Sit Right Down And Write Myself A Letter.wav

Pre-gap length 0:00:02.00

Peak level 100.0 %
Track quality 100.0 %
Test CRC 894BCC50
Copy CRC 894BCC50
Accurately ripped (confidence 1) [880BE53F]
Copy OK

Track 7

Filename F:\PP\Sarah Hall\D2\07 - East Of The Sun (West Of The Moon).wav

Pre-gap length 0:00:02.00

Peak level 100.0 %
Track quality 100.0 %
Test CRC 7F4F2FF3
Copy CRC 7F4F2FF3
Accurately ripped (confidence 1) [14113EED]
Copy OK

Track 8

Filename F:\PP\Sarah Hall\D2\08 - Nice If You Can Get It.wav

Pre-gap length 0:00:02.00

Peak level 100.0 %
Track quality 100.0 %
Test CRC C2B318E8
Copy CRC C2B318E8
Accurately ripped (confidence 1) [63CE677D]
Copy OK

Track 9

Filename F:\PP\Sarah Hall\D2\09 - Can't Get Out Of This Mood.wav

Pre-gap length 0:00:02.00

Peak level 100.0 %
Track quality 100.0 %
Test CRC 09D0A964
Copy CRC 09D0A964
Accurately ripped (confidence 1) [DFDA7728]
Copy OK

Track 10

Filename F:\PP\Sarah Hall\D2\10 - Mean To Me.wav

Pre-gap length 0:00:02.00

Peak level 100.0 %
Track quality 99.9 %
Test CRC 06EFC163
Copy CRC 06EFC163
Accurately ripped (confidence 1) [4BB1A173]
Copy OK

Track 11

Filename F:\PP\Sarah Hall\D2\11 - Come Rain Or Come Shine.wav

Pre-gap length 0:00:02.00

Peak level 100.0 %
Track quality 100.0 %
Test CRC A6E8995B
Copy CRC A6E8995B
Accurately ripped (confidence 1) [BD7E5478]
Copy OK

Track 12

Filename F:\PP\Sarah Hall\D2\12 - It Might As Well Be Spring.wav

Pre-gap length 0:00:02.00

Peak level 100.0 %
Track quality 100.0 %
Test CRC 2DB84844
Copy CRC 2DB84844
Accurately ripped (confidence 1) [6A641E84]
Copy OK

Track 13

Filename F:\PP\Sarah Hall\D2\13 - Ain't Misbehavin'.wav

Pre-gap length 0:00:02.00

Peak level 100.0 %
Track quality 100.0 %
Test CRC 3DFB7DD6
Copy CRC 3DFB7DD6
Accurately ripped (confidence 1) [7E5D6E76]
Copy OK

Track 14

Filename F:\PP\Sarah Hall\D2\14 - Goodnight My Love.wav

Pre-gap length 0:00:02.00

Peak level 100.0 %
Track quality 100.0 %
Test CRC 4096E323
Copy CRC 4096E323
Accurately ripped (confidence 1) [FE8D8951]
Copy OK

Track 15

Filename F:\PP\Sarah Hall\D2\15 - The Nearness Of You.wav

Pre-gap length 0:00:02.00

Peak level 100.0 %
Track quality 100.0 %
Test CRC 80083B8B
Copy CRC 80083B8B
Accurately ripped (confidence 1) [E0F849E1]
Copy OK

Track 16

Filename F:\PP\Sarah Hall\D2\16 - Pinky.wav

Pre-gap length 0:00:02.00

Peak level 100.0 %
Track quality 100.0 %
Test CRC B7272CFE
Copy CRC B7272CFE
Accurately ripped (confidence 1) [80BBB3E7]
Copy OK

Track 17

Filename F:\PP\Sarah Hall\D2\17 - Ooh, What 'Cha Doin' to Me.wav

Pre-gap length 0:00:02.00

Peak level 100.0 %
Track quality 100.0 %
Test CRC A813DC3C
Copy CRC A813DC3C
Accurately ripped (confidence 1) [1E1040B1]
Copy OK


All tracks accurately ripped

No errors occurred

End of status report


Sarah Vaughan - Hall of Fame 1946-1954 (2002) {5 Discs Box Set}



–––––––––––––––––––––––––––––––––––––––––––––



Sarah Vaughan - Hall of Fame 1946-1954 (2002) {5 Discs Box Set}


Disc 3 (The Nearness of You) - 1949-1953

01. Black Coffee [0:03:17.07]
02. As You Desire Me [0:02:34.49]
03. While You Are Gone [0:03:08.67]
04. Just Friends [0:03:00.57]
05. You Taught Me to Love Again [0:03:17.43]
06. Lonely Girl [0:02:20.16]
07. You're Mine, You [0:03:11.40]
08. The Nearness of You [0:03:21.10]
09. I'm Crazy to Love You [0:03:00.53]
10. Don't Be Afraid [0:02:54.66]
11. I'll Know [0:03:18.34]
12. Thinking of You [0:03:04.07]
13. These Things I Offer You [0:02:59.44]
14. After Hours [0:02:51.73]
15. Just a Moment More [0:03:19.24]
16. Time to Go [0:02:57.39]
17. Corner to Corner [0:02:57.59]
18. Street of Dreams [0:03:04.58]
19. I Confess [0:02:21.14]
20. A Blues Serenade [0:02:35.33]


Exact Audio Copy V0.99 prebeta 5 from 4. May 2009

EAC extraction logfile from 2. December 2010, 12:10

Sarah Vaughan / Hall Of Fame - Disc 3 (The Nearness of You)

Used drive : PIONEER DVD-RW DVR-116D Adapter: 6 ID: 2

Read mode : Secure
Utilize accurate stream : Yes
Defeat audio cache : Yes
Make use of C2 pointers : No

Read offset correction : 96
Overread into Lead-In and Lead-Out : No
Fill up missing offset samples with silence : Yes
Delete leading and trailing silent blocks : No
Null samples used in CRC calculations : Yes
Used interface : Installed external ASPI interface
Gap handling : Appended to previous track

Used output format : Internal WAV Routines
Sample format : 44.100 Hz; 16 Bit; Stereo


TOC of the extracted CD

Track | Start | Length | Start sector | End sector
––––––––––––––––––––––––––––-
1 | 0:00.00 | 3:17.07 | 0 | 14781
2 | 3:17.07 | 2:34.49 | 14782 | 26380
3 | 5:51.56 | 3:08.67 | 26381 | 40547
4 | 9:00.48 | 3:00.57 | 40548 | 54104
5 | 12:01.30 | 3:17.43 | 54105 | 68922
6 | 15:18.73 | 2:20.16 | 68923 | 79438
7 | 17:39.14 | 3:11.40 | 79439 | 93803
8 | 20:50.54 | 3:21.10 | 93804 | 108888
9 | 24:11.64 | 3:00.53 | 108889 | 122441
10 | 27:12.42 | 2:54.66 | 122442 | 135557
11 | 30:07.33 | 3:18.34 | 135558 | 150441
12 | 33:25.67 | 3:04.07 | 150442 | 164248
13 | 36:29.74 | 2:59.44 | 164249 | 177717
14 | 39:29.43 | 2:51.73 | 177718 | 190615
15 | 42:21.41 | 3:19.24 | 190616 | 205564
16 | 45:40.65 | 2:57.39 | 205565 | 218878
17 | 48:38.29 | 2:57.59 | 218879 | 232212
18 | 51:36.13 | 3:04.58 | 232213 | 246070
19 | 54:40.71 | 2:21.14 | 246071 | 256659
20 | 57:02.10 | 2:35.33 | 256660 | 268317


Track 1

Filename F:\PP\Sarah Hall\D3\01 - Black Coffee.wav

Pre-gap length 0:00:02.00

Peak level 100.0 %
Track quality 100.0 %
Test CRC C4A8B7A2
Copy CRC C4A8B7A2
Accurately ripped (confidence 2) [A7CBA331]
Copy OK

Track 2

Filename F:\PP\Sarah Hall\D3\02 - As You Desire Me.wav

Pre-gap length 0:00:02.00

Peak level 97.6 %
Track quality 100.0 %
Test CRC 20648FE5
Copy CRC 20648FE5
Accurately ripped (confidence 2) [2D85D961]
Copy OK

Track 3

Filename F:\PP\Sarah Hall\D3\03 - While You Are Gone.wav

Pre-gap length 0:00:02.00

Peak level 98.1 %
Track quality 100.0 %
Test CRC 02C9ED47
Copy CRC 02C9ED47
Accurately ripped (confidence 2) [AE823A87]
Copy OK

Track 4

Filename F:\PP\Sarah Hall\D3\04 - Just Friends.wav

Pre-gap length 0:00:02.00

Peak level 99.3 %
Track quality 100.0 %
Test CRC ADC81473
Copy CRC ADC81473
Accurately ripped (confidence 2) [0CE5CB75]
Copy OK

Track 5

Filename F:\PP\Sarah Hall\D3\05 - You Taught Me to Love Again.wav

Pre-gap length 0:00:02.00

Peak level 98.2 %
Track quality 99.9 %
Test CRC 119615DA
Copy CRC 119615DA
Accurately ripped (confidence 2) [46A9282F]
Copy OK

Track 6

Filename F:\PP\Sarah Hall\D3\06 - Lonely Girl.wav

Pre-gap length 0:00:02.00

Peak level 98.4 %
Track quality 100.0 %
Test CRC 91FBC6DF
Copy CRC 91FBC6DF
Accurately ripped (confidence 2) [C6491F3B]
Copy OK

Track 7

Filename F:\PP\Sarah Hall\D3\07 - You're Mine, You.wav

Pre-gap length 0:00:02.00

Peak level 99.8 %
Track quality 100.0 %
Test CRC 515187A0
Copy CRC 515187A0
Accurately ripped (confidence 2) [34C9ED7A]
Copy OK

Track 8

Filename F:\PP\Sarah Hall\D3\08 - The Nearness of You.wav

Pre-gap length 0:00:02.00

Peak level 99.0 %
Track quality 100.0 %
Test CRC 3BA874C3
Copy CRC 3BA874C3
Accurately ripped (confidence 2) [AEC226F4]
Copy OK

Track 9

Filename F:\PP\Sarah Hall\D3\09 - I'm Crazy to Love You.wav

Pre-gap length 0:00:02.00

Peak level 99.2 %
Track quality 100.0 %
Test CRC 2DC052E5
Copy CRC 2DC052E5
Accurately ripped (confidence 2) [72AE2BB9]
Copy OK

Track 10

Filename F:\PP\Sarah Hall\D3\10 - Don't Be Afraid.wav

Pre-gap length 0:00:02.00

Peak level 99.0 %
Track quality 100.0 %
Test CRC 539FDCDF
Copy CRC 539FDCDF
Accurately ripped (confidence 2) [BBE699B5]
Copy OK

Track 11

Filename F:\PP\Sarah Hall\D3\11 - I'll Know.wav

Pre-gap length 0:00:02.00

Peak level 100.0 %
Track quality 100.0 %
Test CRC FCCC44FD
Copy CRC FCCC44FD
Accurately ripped (confidence 2) [5A9F460C]
Copy OK

Track 12

Filename F:\PP\Sarah Hall\D3\12 - Thinking of You.wav

Pre-gap length 0:00:02.00

Peak level 98.4 %
Track quality 100.0 %
Test CRC 22D82B3B
Copy CRC 22D82B3B
Accurately ripped (confidence 2) [C04987EC]
Copy OK

Track 13

Filename F:\PP\Sarah Hall\D3\13 - These Things I Offer You.wav

Pre-gap length 0:00:02.00

Peak level 100.0 %
Track quality 100.0 %
Test CRC 71B7CDF3
Copy CRC 71B7CDF3
Accurately ripped (confidence 2) [9E6E3A6C]
Copy OK

Track 14

Filename F:\PP\Sarah Hall\D3\14 - After Hours.wav

Pre-gap length 0:00:02.00

Peak level 97.6 %
Track quality 100.0 %
Test CRC 0C3D37AC
Copy CRC 0C3D37AC
Accurately ripped (confidence 2) [4483A734]
Copy OK

Track 15

Filename F:\PP\Sarah Hall\D3\15 - Just a Moment More.wav

Pre-gap length 0:00:02.00

Peak level 99.8 %
Track quality 100.0 %
Test CRC 276ED546
Copy CRC 276ED546
Accurately ripped (confidence 2) [D625B111]
Copy OK

Track 16

Filename F:\PP\Sarah Hall\D3\16 - Time to Go.wav

Pre-gap length 0:00:02.00

Peak level 99.4 %
Track quality 100.0 %
Test CRC E7C31747
Copy CRC E7C31747
Accurately ripped (confidence 2) [AA54AE36]
Copy OK

Track 17

Filename F:\PP\Sarah Hall\D3\17 - Corner to Corner.wav

Pre-gap length 0:00:02.00

Peak level 97.8 %
Track quality 100.0 %
Test CRC 41B17101
Copy CRC 41B17101
Accurately ripped (confidence 2) [697F66F0]
Copy OK

Track 18

Filename F:\PP\Sarah Hall\D3\18 - Street of Dreams.wav

Pre-gap length 0:00:02.00

Peak level 100.0 %
Track quality 100.0 %
Test CRC 390B6135
Copy CRC 390B6135
Accurately ripped (confidence 2) [DC0A9903]
Copy OK

Track 19

Filename F:\PP\Sarah Hall\D3\19 - I Confess.wav

Pre-gap length 0:00:02.00

Peak level 99.3 %
Track quality 100.0 %
Test CRC 466C518D
Copy CRC 466C518D
Accurately ripped (confidence 2) [67369A51]
Copy OK

Track 20

Filename F:\PP\Sarah Hall\D3\20 - A Blues Serenade.wav

Pre-gap length 0:00:02.00

Peak level 98.2 %
Track quality 100.0 %
Test CRC 704F2219
Copy CRC 704F2219
Accurately ripped (confidence 2) [B0BDEE8A]
Copy OK


All tracks accurately ripped

No errors occurred

End of status report


Sarah Vaughan - Hall of Fame 1946-1954 (2002) {5 Discs Box Set}



–––––––––––––––––––––––––––––––––––––––––––––



Sarah Vaughan - Hall of Fame 1946-1954 (2002) {5 Discs Box Set}


Disc 4 (Body and Soul) - 1946-1954

01. If You Could See Me Now [0:02:50.01]
02. I Love You [0:02:39.50]
03. Can't Get Out Of This Mood [0:02:50.17]
04. Ev'ryday I Fall In Love [0:02:58.23]
05. Dedicated To You [0:02:45.25]
06. You're All I Need [0:03:05.74]
07. Shulie A Bop [0:02:40.17]
08. Lover Man [0:03:16.36]
09. They Can't Take That Away From Me [0:02:41.39]
10. Prelude To A Kiss [0:02:45.05]
11. Polka Dots And Moonbeams [0:02:33.07]
12. Body And Soul [0:03:12.11]
13. Make Yourself Confortable [0:02:40.62]
14. You're Not That Kind [0:04:40.58]

Exact Audio Copy V0.99 prebeta 5 from 4. May 2009

EAC extraction logfile from 2. December 2010, 13:11

Sarah Vaughan / Hall Of Fame - Disc 4 (Body and Soul)

Used drive : PIONEER DVD-RW DVR-116D Adapter: 6 ID: 2

Read mode : Secure
Utilize accurate stream : Yes
Defeat audio cache : Yes
Make use of C2 pointers : No

Read offset correction : 96
Overread into Lead-In and Lead-Out : No
Fill up missing offset samples with silence : Yes
Delete leading and trailing silent blocks : No
Null samples used in CRC calculations : Yes
Used interface : Installed external ASPI interface
Gap handling : Appended to previous track

Used output format : Internal WAV Routines
Sample format : 44.100 Hz; 16 Bit; Stereo


TOC of the extracted CD

Track | Start | Length | Start sector | End sector
––––––––––––––––––––––––––––-
1 | 0:00.00 | 2:50.01 | 0 | 12750
2 | 2:50.01 | 2:39.50 | 12751 | 24725
3 | 5:29.51 | 2:50.17 | 24726 | 37492
4 | 8:19.68 | 2:58.23 | 37493 | 50865
5 | 11:18.16 | 2:45.25 | 50866 | 63265
6 | 14:03.41 | 3:05.74 | 63266 | 77214
7 | 17:09.40 | 2:40.17 | 77215 | 89231
8 | 19:49.57 | 3:16.36 | 89232 | 103967
9 | 23:06.18 | 2:41.39 | 103968 | 116081
10 | 25:47.57 | 2:45.05 | 116082 | 128461
11 | 28:32.62 | 2:33.07 | 128462 | 139943
12 | 31:05.69 | 3:12.11 | 139944 | 154354
13 | 34:18.05 | 2:40.62 | 154355 | 166416
14 | 36:58.67 | 4:40.58 | 166417 | 187474


Track 1

Filename F:\PP\Sarah Hall\D4\01 - If You Could See Me Now.wav

Pre-gap length 0:00:02.00

Peak level 100.0 %
Track quality 99.9 %
Test CRC 045F0682
Copy CRC 045F0682
Accurately ripped (confidence 2) [DF5DB44E]
Copy OK

Track 2

Filename F:\PP\Sarah Hall\D4\02 - I Love You.wav

Pre-gap length 0:00:02.00

Peak level 100.0 %
Track quality 100.0 %
Test CRC 973B9AD4
Copy CRC 973B9AD4
Accurately ripped (confidence 2) [5A5D0769]
Copy OK

Track 3

Filename F:\PP\Sarah Hall\D4\03 - Can't Get Out Of This Mood.wav

Pre-gap length 0:00:02.00

Peak level 100.0 %
Track quality 100.0 %
Test CRC 6BBC0135
Copy CRC 6BBC0135
Accurately ripped (confidence 2) [1BF7E77A]
Copy OK

Track 4

Filename F:\PP\Sarah Hall\D4\04 - Ev'ryday I Fall In Love.wav

Pre-gap length 0:00:02.00

Peak level 100.0 %
Track quality 99.9 %
Test CRC D3D782BA
Copy CRC D3D782BA
Accurately ripped (confidence 2) [0F226916]
Copy OK

Track 5

Filename F:\PP\Sarah Hall\D4\05 - Dedicated To You.wav

Pre-gap length 0:00:02.00

Peak level 100.0 %
Track quality 100.0 %
Test CRC A806419F
Copy CRC A806419F
Accurately ripped (confidence 2) [C4B06849]
Copy OK

Track 6

Filename F:\PP\Sarah Hall\D4\06 - You're All I Need.wav

Pre-gap length 0:00:02.00

Peak level 100.0 %
Track quality 100.0 %
Test CRC FE08DD62
Copy CRC FE08DD62
Accurately ripped (confidence 2) [94720987]
Copy OK

Track 7

Filename F:\PP\Sarah Hall\D4\07 - Shulie A Bop.wav

Pre-gap length 0:00:02.00

Peak level 100.0 %
Track quality 100.0 %
Test CRC FBB6D74D
Copy CRC FBB6D74D
Accurately ripped (confidence 2) [25E307B5]
Copy OK

Track 8

Filename F:\PP\Sarah Hall\D4\08 - Lover Man.wav

Pre-gap length 0:00:02.00

Peak level 100.0 %
Track quality 100.0 %
Test CRC FD7D4DFE
Copy CRC FD7D4DFE
Accurately ripped (confidence 2) [1614DE26]
Copy OK

Track 9

Filename F:\PP\Sarah Hall\D4\09 - They Can't Take That Away From Me.wav

Pre-gap length 0:00:02.00

Peak level 100.0 %
Track quality 100.0 %
Test CRC DFB68C87
Copy CRC DFB68C87
Accurately ripped (confidence 2) [F894699C]
Copy OK

Track 10

Filename F:\PP\Sarah Hall\D4\10 - Prelude To A Kiss.wav

Pre-gap length 0:00:02.00

Peak level 100.0 %
Track quality 100.0 %
Test CRC 924D9988
Copy CRC 924D9988
Accurately ripped (confidence 2) [B4566D62]
Copy OK

Track 11

Filename F:\PP\Sarah Hall\D4\11 - Polka Dots And Moonbeams.wav

Pre-gap length 0:00:02.00

Peak level 100.0 %
Track quality 99.9 %
Test CRC ADE7E53C
Copy CRC ADE7E53C
Accurately ripped (confidence 2) [D14C5F1A]
Copy OK

Track 12

Filename F:\PP\Sarah Hall\D4\12 - Body And Soul.wav

Pre-gap length 0:00:02.00

Peak level 100.0 %
Track quality 100.0 %
Test CRC A9B64779
Copy CRC A9B64779
Accurately ripped (confidence 2) [AAA2E607]
Copy OK

Track 13

Filename F:\PP\Sarah Hall\D4\13 - Make Yourself Confortable.wav

Pre-gap length 0:00:02.00

Peak level 100.0 %
Track quality 100.0 %
Test CRC 9E2BF447
Copy CRC 9E2BF447
Accurately ripped (confidence 2) [C534F883]
Copy OK

Track 14

Filename F:\PP\Sarah Hall\D4\14 - You're Not That Kind.wav

Pre-gap length 0:00:02.00

Peak level 100.0 %
Track quality 100.0 %
Test CRC 8A768DEA
Copy CRC 8A768DEA
Accurately ripped (confidence 2) [7C4F7AA3]
Copy OK


All tracks accurately ripped

No errors occurred

End of status report



Sarah Vaughan - Hall of Fame 1946-1954 (2002) {5 Discs Box Set}



–––––––––––––––––––––––––––––––––––––––––––––



Sarah Vaughan - Hall of Fame 1946-1954 (2002) {5 Discs Box Set}


Disc 5 (It's Crazy) - 1954

01. September Song [0:05:44.35]
02. He's My Guy [0:04:12.13]
03. I'm Glad There Is you [0:05:09.39]
04. It's Crazy [0:04:55.51]
05. Jim [0:05:50.52]
06. April In Paris [0:06:20.27]
07. Embraceable You [0:04:50.12]
08. Lullaby Of Birdland [0:03:58.48]

Exact Audio Copy V0.99 prebeta 5 from 4. May 2009

EAC extraction logfile from 2. December 2010, 14:26

Sarah Vaughan / Hall Of Fame - Disc 5 (It's Crazy)

Used drive : PIONEER DVD-RW DVR-116D Adapter: 6 ID: 2

Read mode : Secure
Utilize accurate stream : Yes
Defeat audio cache : Yes
Make use of C2 pointers : No

Read offset correction : 96
Overread into Lead-In and Lead-Out : No
Fill up missing offset samples with silence : Yes
Delete leading and trailing silent blocks : No
Null samples used in CRC calculations : Yes
Used interface : Installed external ASPI interface
Gap handling : Appended to previous track

Used output format : Internal WAV Routines
Sample format : 44.100 Hz; 16 Bit; Stereo


TOC of the extracted CD

Track | Start | Length | Start sector | End sector
––––––––––––––––––––––––––––-
1 | 0:00.00 | 5:44.35 | 0 | 25834
2 | 5:44.35 | 4:12.13 | 25835 | 44747
3 | 9:56.48 | 5:09.39 | 44748 | 67961
4 | 15:06.12 | 4:55.51 | 67962 | 90137
5 | 20:01.63 | 5:50.52 | 90138 | 116439
6 | 25:52.40 | 6:20.27 | 116440 | 144966
7 | 32:12.67 | 4:50.12 | 144967 | 166728
8 | 37:03.04 | 3:58.48 | 166729 | 184626


Track 1

Filename F:\PP\Sarah Hall\D5\01 - September Song.wav

Pre-gap length 0:00:02.00

Peak level 100.0 %
Track quality 100.0 %
Test CRC 79A7216C
Copy CRC 79A7216C
Accurately ripped (confidence 1) [3E920992]
Copy OK

Track 2

Filename F:\PP\Sarah Hall\D5\02 - He's My Guy.wav

Pre-gap length 0:00:02.00

Peak level 100.0 %
Track quality 100.0 %
Test CRC 88F9484F
Copy CRC 88F9484F
Accurately ripped (confidence 1) [6DCB6E37]
Copy OK

Track 3

Filename F:\PP\Sarah Hall\D5\03 - I'm Glad There Is you.wav

Pre-gap length 0:00:02.00

Peak level 100.0 %
Track quality 100.0 %
Test CRC 0932D065
Copy CRC 0932D065
Accurately ripped (confidence 1) [DBCB75B0]
Copy OK

Track 4

Filename F:\PP\Sarah Hall\D5\04 - It's Crazy.wav

Pre-gap length 0:00:02.00

Peak level 100.0 %
Track quality 100.0 %
Test CRC C80B4DFD
Copy CRC C80B4DFD
Accurately ripped (confidence 1) [14B3065A]
Copy OK

Track 5

Filename F:\PP\Sarah Hall\D5\05 - Jim.wav

Pre-gap length 0:00:02.00

Peak level 100.0 %
Track quality 100.0 %
Test CRC 29403F0C
Copy CRC 29403F0C
Accurately ripped (confidence 1) [11C70369]
Copy OK

Track 6

Filename F:\PP\Sarah Hall\D5\06 - April In Paris.wav

Pre-gap length 0:00:02.00

Peak level 100.0 %
Track quality 100.0 %
Test CRC F6D74B92
Copy CRC F6D74B92
Accurately ripped (confidence 1) [6C4A40D4]
Copy OK

Track 7

Filename F:\PP\Sarah Hall\D5\07 - Embraceable You.wav

Pre-gap length 0:00:02.00

Peak level 100.0 %
Track quality 100.0 %
Test CRC 250F8583
Copy CRC 250F8583
Accurately ripped (confidence 1) [96CA2B34]
Copy OK

Track 8

Filename F:\PP\Sarah Hall\D5\08 - Lullaby Of Birdland.wav

Pre-gap length 0:00:02.00

Peak level 100.0 %
Track quality 100.0 %
Test CRC D6230DB9
Copy CRC D6230DB9
Accurately ripped (confidence 1) [D682C36D]
Copy OK


All tracks accurately ripped

No errors occurred

End of status report



Sarah Vaughan - Hall of Fame 1946-1954 (2002) {5 Discs Box Set}



Special thanks to the original uploader!