Subcategories

Rush - A Show Of Hands (1989) [Non-Remastered]

Posted By: perfecta
Rush - A Show Of Hands (1989) [Non-Remastered]

Rush - A Show Of Hands (1989) [Non-Remastered]
EAC-FLAC Tracks with CUE, LOG & Covers - 508 MB | MP3 CBR 320 Kbps - 172 MB
Rock / Progressive Rock / Hard Rock | 74:30 mins | Mercury/Polygram US # 836 346-2


allmusic.com says:
Although keyboards dominated Rush's 1988 double live set A Show of Hands, it's a definite improvement over its somewhat flat predecessor, 1981 's Exit…Stage Left. The band's music isn't as hard rock-based as it previously was, evidenced by the more modern-sounding compositions selected for this third live album (the first Rush album to be produced completely by the band). The only tracks from the pre-1982 period to be featured are "Closer to the Heart," which is expanded to include a jamming section at the end, and the spooky "Witch Hunt," originally from 1981's Moving Pictures. The remainder of the album's track list is comprised of Rush's best compositions from 1982-1987, such as "Subdivisions," "Distant Early Warning," "Force Ten," "Time Stand Still," and "Red Sector A," as well as several tracks that have been forgotten over time ("Marathon," "Turn the Page," "Mission," etc.). Also featured for the first time on a live Rush album is a completely unaccompanied drum solo by Neil Peart – the intricate "Rhythm Method." The inspired A Show of Hands is an excellent snapshot of Rush in concert during the mid- to late '80s.

Tracks:

01. Intro
02. The Big Money
03. Subdivisions
04. Marathon
05. Turn the Page
06. Manhattan Project
07. Mission
08. Distant Early Warning
09. Mystic Rhythms
10. Witch Hunt (Pt. III of Fear)
11. The Rhythm Method
12. Force Ten
13. Time Stand Still
14. Red Sector A
15. Closer to the Heart

Produced by Rush.

More information @ Wikipedia



Exact Audio Copy V0.99 prebeta 4 from 23. January 2008

EAC extraction logfile from 20. August 2010, 13:33

Rush / A Show Of Hands

Used drive : BENQ CDRW 5232X Adapter: 1 ID: 0

Read mode : Secure
Utilize accurate stream : Yes
Defeat audio cache : Yes
Make use of C2 pointers : No

Read offset correction : 738
Overread into Lead-In and Lead-Out : No
Fill up missing offset samples with silence : Yes
Delete leading and trailing silent blocks : No
Null samples used in CRC calculations : Yes
Used interface : Installed external ASPI interface
Gap handling : Appended to previous track

Used output format : Internal WAV Routines
Sample format : 44.100 Hz; 16 Bit; Stereo


TOC of the extracted CD

Track | Start | Length | Start sector | End sector
––––––––––––––––––––––––––––-
1 | 0:00.32 | 0:53.25 | 32 | 4031
2 | 0:53.57 | 5:59.15 | 4032 | 30971
3 | 6:52.72 | 5:22.65 | 30972 | 55186
4 | 12:15.62 | 6:39.53 | 55187 | 85164
5 | 18:55.40 | 4:41.30 | 85165 | 106269
6 | 23:36.70 | 5:18.47 | 106270 | 130166
7 | 28:55.42 | 5:46.38 | 130167 | 156154
8 | 34:42.05 | 5:15.40 | 156155 | 179819
9 | 39:57.45 | 5:33.55 | 179820 | 204849
10 | 45:31.25 | 3:58.47 | 204850 | 222746
11 | 49:29.72 | 4:38.03 | 222747 | 243599
12 | 54:08.00 | 4:57.45 | 243600 | 265919
13 | 59:05.45 | 5:11.47 | 265920 | 289291
14 | 64:17.17 | 5:18.35 | 289292 | 313176
15 | 69:35.52 | 4:54.63 | 313177 | 335289


Track 1

Filename C:\01 - Intro.wav

Pre-gap length 0:00:02.42

Peak level 42.5 %
Track quality 100.0 %
Test CRC 86D67354
Copy CRC 86D67354
Accurately ripped (confidence 18) [93E6C908]
Copy OK

Track 2

Filename C:\02 - The Big Money.wav

Peak level 94.6 %
Track quality 100.0 %
Test CRC CBCD841A
Copy CRC CBCD841A
Accurately ripped (confidence 18) [AFB137E3]
Copy OK

Track 3

Filename C:\03 - Subdivisions.wav

Peak level 97.7 %
Track quality 100.0 %
Test CRC EE0CBCCC
Copy CRC EE0CBCCC
Accurately ripped (confidence 18) [AC6F3E38]
Copy OK

Track 4

Filename C:\04 - Marathon.wav

Peak level 97.7 %
Track quality 100.0 %
Test CRC 070D1C14
Copy CRC 070D1C14
Accurately ripped (confidence 18) [01A19CEA]
Copy OK

Track 5

Filename C:\05 - Turn The Page.wav

Peak level 94.7 %
Track quality 100.0 %
Test CRC 40CA5621
Copy CRC 40CA5621
Accurately ripped (confidence 18) [A64A0F35]
Copy OK

Track 6

Filename C:\06 - Manhattan Project.wav

Peak level 93.2 %
Track quality 100.0 %
Test CRC A903AB86
Copy CRC A903AB86
Accurately ripped (confidence 18) [DCCDB2F2]
Copy OK

Track 7

Filename C:\07 - Mission.wav

Peak level 97.1 %
Track quality 100.0 %
Test CRC D446829D
Copy CRC D446829D
Accurately ripped (confidence 18) [43F74ECE]
Copy OK

Track 8

Filename C:\08 - Distant Early Warning.wav

Peak level 97.7 %
Track quality 100.0 %
Test CRC AA4BD99B
Copy CRC AA4BD99B
Accurately ripped (confidence 16) [8BD4B5BB]
Copy OK

Track 9

Filename C:\09 - Mystic Rhythms.wav

Peak level 97.7 %
Track quality 99.9 %
Test CRC BBE76BF4
Copy CRC BBE76BF4
Accurately ripped (confidence 17) [BC501CA3]
Copy OK

Track 10

Filename C:\10 - Witch Hunt.wav

Peak level 93.8 %
Track quality 100.0 %
Test CRC 94D0E436
Copy CRC 94D0E436
Accurately ripped (confidence 18) [6E225BDE]
Copy OK

Track 11

Filename C:\11 - The Rhythm Method (Drum Solo).wav

Peak level 97.7 %
Track quality 100.0 %
Test CRC CB518EC3
Copy CRC CB518EC3
Accurately ripped (confidence 17) [6506A249]
Copy OK

Track 12

Filename C:\12 - Force Ten.wav

Peak level 97.7 %
Track quality 100.0 %
Test CRC 7EFF02E5
Copy CRC 7EFF02E5
Accurately ripped (confidence 16) [1E6AB764]
Copy OK

Track 13

Filename C:\13 - Time Stand Still.wav

Peak level 97.7 %
Track quality 100.0 %
Test CRC 876E0BA4
Copy CRC 876E0BA4
Accurately ripped (confidence 18) [719BE568]
Copy OK

Track 14

Filename C:\14 - Red Sector A.wav

Peak level 95.4 %
Track quality 99.9 %
Test CRC 240EBB43
Copy CRC 240EBB43
Accurately ripped (confidence 18) [E7C15996]
Copy OK

Track 15

Filename C:\15 - Closer To The Heart.wav

Peak level 97.6 %
Track quality 100.0 %
Test CRC F736811A
Copy CRC F736811A
Accurately ripped (confidence 15) [47E63BA4]
Copy OK


All tracks accurately ripped

No errors occurred

End of status report

………………..

Pregap length 00:00:32.
Track [ CRC ] Status
01 [93e6c908] (018/132) Accurately ripped
02 [afb137e3] (018/132) Accurately ripped
03 [ac6f3e38] (018/128) Accurately ripped
04 [01a19cea] (018/129) Accurately ripped
05 [a64a0f35] (018/133) Accurately ripped
06 [dccdb2f2] (018/132) Accurately ripped
07 [43f74ece] (018/133) Accurately ripped
08 [8bd4b5bb] (016/129) Accurately ripped
09 [bc501ca3] (017/128) Accurately ripped
10 [6e225bde] (018/129) Accurately ripped
11 [6506a249] (017/127) Accurately ripped
12 [1e6ab764] (016/126) Accurately ripped
13 [719be568] (018/130) Accurately ripped
14 [e7c15996] (018/126) Accurately ripped
15 [47e63ba4] (014/112) Accurately ripped
Offsetted by -1519:
01 [cea0179d] (055/132) Accurately ripped
02 [92e729ba] (056/132) Accurately ripped
03 [64c90401] (056/128) Accurately ripped
04 [656634c5] (057/129) Accurately ripped
05 [34819f0e] (056/133) Accurately ripped
06 [d7f7aa39] (057/132) Accurately ripped
07 [d1dcce92] (057/133) Accurately ripped
08 [eec551aa] (057/129) Accurately ripped
09 [d11f55ef] (055/128) Accurately ripped
10 [84310b12] (055/129) Accurately ripped
11 [74b92cf0] (053/127) Accurately ripped
12 [8ff3a1c6] (054/126) Accurately ripped
13 [be47e854] (056/130) Accurately ripped
14 [6df6f608] (052/126) Accurately ripped
15 [3b11522d] (049/112) Accurately ripped
Offsetted by 108:
01 [54f44ef7] (002/132) Accurately ripped
02 [0c86287b] (002/132) Accurately ripped
03 [0124d628] (002/128) Accurately ripped
04 [176e2dfd] (002/129) Accurately ripped
05 [8141181b] (003/133) Accurately ripped
06 [2fcfacce] (003/132) Accurately ripped
07 [1aff958e] (003/133) Accurately ripped
08 [f1ee28ce] (003/129) Accurately ripped
09 [5ba050d6] (003/128) Accurately ripped
10 [0992e764] (003/129) Accurately ripped
11 [872885ed] (003/127) Accurately ripped
12 [f9b1b6f3] (003/126) Accurately ripped
13 [d43c638a] (003/130) Accurately ripped
14 [8d4856f7] (003/126) Accurately ripped
15 [60d7562f] (002/112) Accurately ripped
Offsetted by 279:
01 [47e0d5a5] (049/132) Accurately ripped
02 [dfb1e8f9] (048/132) Accurately ripped
03 [60d23c14] (046/128) Accurately ripped
04 [dbfb19f9] (046/129) Accurately ripped
05 [ad5a9e8c] (048/133) Accurately ripped
06 [261da5c5] (046/132) Accurately ripped
07 [6d0bc463] (047/133) Accurately ripped
08 [16156a9c] (045/129) Accurately ripped
09 [f47464cd] (045/128) Accurately ripped
10 [8ab06202] (045/129) Accurately ripped
11 [5c3150d9] (046/127) Accurately ripped
12 [b22e2817] (045/126) Accurately ripped
13 [1eb184e6] (045/130) Accurately ripped
14 [e8ea03b8] (045/126) Accurately ripped
15 [a117984f] (041/112) Accurately ripped
Offsetted by 387:
01 [8c6b1f1f] (002/132) Accurately ripped
02 [46e54bba] (002/132) No match but offset
03 [3df53b2f] (002/128) Accurately ripped
04 [d242533a] (002/129) Accurately ripped
05 [8041a3f4] (002/133) Accurately ripped
06 [12e2f1b2] (002/132) Accurately ripped
07 [39071398] (002/133) Accurately ripped
08 [4d3b80d7] (002/129) Accurately ripped
09 [a3bf5527] (002/128) Accurately ripped
10 [921fc722] (002/129) Accurately ripped
11 [840443b1] (002/127) Accurately ripped
12 [853c4e6c] (002/126) Accurately ripped
13 [1a24c97a] (002/130) Accurately ripped
14 [1dfe41f5] (002/126) Accurately ripped
15 [006ab7f8] (002/112) Accurately ripped
Offsetted by 429:
01 [10a7597b] (002/132) Accurately ripped
02 [34de8ba6] (002/132) Accurately ripped
03 [49eda6c4] (002/128) No match but offset
04 [0d785d42] (002/129) No match but offset
05 [4f5049e0] (002/133) Accurately ripped
06 [fe5ee543] (002/132) Accurately ripped
07 [b8d5e4d9] (002/133) Accurately ripped
08 [94fdc9d9] (002/129) Accurately ripped
09 [679f22b0] (002/128) Accurately ripped
10 [91374a18] (002/129) Accurately ripped
11 [1a98d2fa] (002/127) Accurately ripped
12 [195a7cca] (002/126) Accurately ripped
13 [9229717f] (002/130) Accurately ripped
14 [82d9dcdd] (002/126) Accurately ripped
15 [4ef0f219] (002/112) No match but offset

Track Peak [ CRC32 ] [W/O NULL] [ LOG ]
– 97,7 [5F40249C] [A95A1173]
01 42,5 [86D67354] [28D24378] CRC32
02 94,6 [CBCD841A] [2FAA439F] CRC32
03 97,7 [EE0CBCCC] [F400075A] CRC32
04 97,7 [070D1C14] [61DE5442] CRC32
05 94,7 [40CA5621] [8F9D8041] CRC32
06 93,2 [A903AB86] [BF0394AB] CRC32
07 97,1 [D446829D] [97A00A97] CRC32
08 97,7 [AA4BD99B] [837F5A65] CRC32
09 97,7 [BBE76BF4] [7952A4A8] CRC32
10 93,8 [94D0E436] [E7FAF0C8] CRC32
11 97,7 [CB518EC3] [67A7B9A1] CRC32
12 97,7 [7EFF02E5] [D4E8849C] CRC32
13 97,7 [876E0BA4] [11AC6328] CRC32
14 95,4 [240EBB43] [D9BDEF14] CRC32
15 97,6 [F736811A] [5D2A132F] CRC32


Thanks to original ripper!