Subcategories

Rush - Sectors (15 Remastered albums: 1974 - 1989) [18 discs / 3x Box Sets '2011] with 3x DVD-Audio {Re-UP}

Posted By: perfecta
Rush - Sectors (15 Remastered albums: 1974 - 1989) [18 discs / 3x Box Sets '2011] with 3x DVD-Audio {Re-UP}

Rush - Sectors (15 Remastered albums: 1974 - 1989) [18 discs / 3x Box Sets '2011]
15x EAC-FLAC Images with CUEs & LOGs - 5 GB | Full PNG Scans - 1,8 GB | MP3 CBR 320 Kbps - 1,6 GB
3x DVD Audio/Video | MLP 5.1 - 24bit/96kHz (9600 Kbps) | LPCM Stereo 1536 Kbps | DD 5.1 & 2.0 | 10,8 GB
Progressive Rock / Hard Rock | TT ~ 12 hours | Label: Anthem Entertainment | Cat. # B00158888~890-00-ST01

Universal Records is about to uncork a reissue campaign on November 21 that will give Rush fans a few more 5.1 digital surround sound reboots of albums from the band's classic Mercury Records catalog. The "Sector" Rush reissues will collect all 15 Mercury-era Rush releases in three separate sets, each containing five albums, with a total of 18 discs overall. All of the albums have been freshly remastered and formatted with packaging that mimics the original vinyl LP. Additionally, updated booklets for each release will contain previously unseen photographs along with the original credits and album lyrics. The real meat of these new reissues though will be the brand new 5.1 versions of three signature Rush albums - "Fly By Night", "A Farewell To Kings", and "Signals". There's one hitch, though - the three new releases will be divided up as bonus DVD discs, packaged one per volume across the three volumes of "Sector" reissues.

Sector 1: Limited six disc (five CDs + DVD) box set from the Canadian Rock trio. Contains the albums Rush, Fly By Night, Caress Of Steel, 2112 and All The World's A Stage plus the DVD-Audio mix of Fly By Night. Each Sector contains five of their 15 Mercury albums in chronological order, all transferred to high resolution 96kHz/24-bit and digitally premastered for optimal quality.

Sector 2: Limited six disc (five CDs + DVD) box set from the Canadian Rock trio. Contains the albums A Farewell To Kings, Hemispheres, Permanent Waves, Moving Pictures and Exit…Stage Left plus the DVD-Audio mix of A Farewell To Kings. Each Sector contains five of their 15 Mercury albums in chronological order, all transferred to high resolution 96kHz/24-bit and digitally premastered for optimal quality.

Rush - Sectors (15 Remastered albums: 1974 - 1989) [18 discs / 3x Box Sets '2011] with 3x DVD-Audio {Re-UP}

Sector 3: Limited six disc (five CDs + DVD) box set from the Canadian Rock trio. Contains the albums Signals, Grace Under Pressure, Power Windows, Hold Your Fire and Show Of Hands plus the DVD-Audio mix of Signals. Each Sector contains five of their 15 Mercury albums in chronological order, all transferred to high resolution 96kHz/24-bit and digitally premastered for optimal quality. In addition, each volume includes an exclusive booklet packed with unpublished photos, original album lyrics and credits, and features one album specifically remixed on DVD in high resolution 96 kHz/24-bit, 5.1 surround sound and stereo, compatible with both DVD Audio players and DVD-Video players. Each album is packaged in a replica vinyl mini-jacket of the original album release with all 3 sets forming a Rush CD road case.

_____________ Rush's Remastered on Three Sector-boxes collection 2011 contains: _____________


Rush - Sectors (15 Remastered albums: 1974 - 1989) [18 discs / 3x Box Sets '2011] with 3x DVD-Audio {Re-UP}

Rush - Rush (1974)
FLAC with CUE & LOG - 292 MB | 40:19 mins | MP3 CBR 320 Kbps - 91 MB

Tracks:

01. Finding My Way
02. Need Some Love
03. Take A Friend
04. Here Again
05. What You're Doing
06. In The Mood
07. Before And After
08. Working Man

Exact Audio Copy V1.0 beta 3 from 29. August 2011

EAC extraction logfile from 12. December 2011, 17:24

Rush / Rush

Used drive : HL-DT-STDVDRAM GSA-H60N Adapter: 2 ID: 0

Read mode : Secure
Utilize accurate stream : Yes
Defeat audio cache : Yes
Make use of C2 pointers : No

Read offset correction : 667
Overread into Lead-In and Lead-Out : No
Fill up missing offset samples with silence : Yes
Delete leading and trailing silent blocks : No
Null samples used in CRC calculations : Yes
Used interface : Native Win32 interface for Win NT & 2000

Used output format : Internal WAV Routines
Sample format : 44.100 Hz; 16 Bit; Stereo


TOC of the extracted CD

Track | Start | Length | Start sector | End sector
––––––––––––––––––––––––––––-
1 | 0:00.00 | 5:07.02 | 0 | 23026
2 | 5:07.02 | 2:21.07 | 23027 | 33608
3 | 7:28.09 | 4:27.24 | 33609 | 53657
4 | 11:55.33 | 7:35.51 | 53658 | 87833
5 | 19:31.09 | 4:24.07 | 87834 | 107640
6 | 23:55.16 | 3:36.53 | 107641 | 123893
7 | 27:31.69 | 5:36.23 | 123894 | 149116
8 | 33:08.17 | 7:10.23 | 149117 | 181389


Range status and errors

Selected range

Filename C:\Documents and Settings\Admin\Рабочий стол\Rip by ALLexxess\Rush\2011 Sector 1 (5CD + DVD Box Set Vinyl Replica Anthem Records)\1974 Rush\Rush - Rush.wav

Peak level 99.9 %
Extraction speed 5.2 X
Range quality 100.0 %
Test CRC 20621B09
Copy CRC 20621B09
Copy OK

No errors occurred


AccurateRip summary

Track 1 not present in database
Track 2 not present in database
Track 3 not present in database
Track 4 not present in database
Track 5 not present in database
Track 6 not present in database
Track 7 not present in database
Track 8 not present in database

None of the tracks are present in the AccurateRip database

End of status report

==== Log checksum B5E2871293C26B00E13CB5F558CD867E19372DD17D30F93A6075C0812A7F234E ====



_________________________________________________________________________________________


Rush - Sectors (15 Remastered albums: 1974 - 1989) [18 discs / 3x Box Sets '2011] with 3x DVD-Audio {Re-UP}

Rush - Fly By Night (1975)
FLAC with CUE & LOG - 233 MB | 37:52 mins | MP3 CBR 320 Kbps - 88 MB
DVD Audio/Video | MLP 5.1 - 24bit/96kHz (9600 Kbps) | LPCM Stereo 1536 Kbps | DD 5.1 & 2.0 | 3,34 GB

Tracks:

01. Anthem
02. Best I Can
03. Beneath, Between & Behind
04. By-Tor And The Snow Dog
05. Fly By Night
06. Making Memories
07. Rivendell
08. In The End

DVD:
- The same tracks in MLP 5.1 - 24bit/96kHz (up to 9600)
- The same tracks in LPCM Enhanced Stereo (1536 Kbps)
- The same tracks in DD 5.1 or 2.0 (448 or 224 Kbps)
- Photo Gallery & accompanying video content

Exact Audio Copy V1.0 beta 3 from 29. August 2011

EAC extraction logfile from 11. December 2011, 23:10

Rush / Fly By Night

Used drive : HL-DT-STDVDRAM GSA-H60N Adapter: 2 ID: 0

Read mode : Secure
Utilize accurate stream : Yes
Defeat audio cache : Yes
Make use of C2 pointers : No

Read offset correction : 667
Overread into Lead-In and Lead-Out : No
Fill up missing offset samples with silence : Yes
Delete leading and trailing silent blocks : No
Null samples used in CRC calculations : Yes
Used interface : Native Win32 interface for Win NT & 2000

Used output format : Internal WAV Routines
Sample format : 44.100 Hz; 16 Bit; Stereo


TOC of the extracted CD

Track | Start | Length | Start sector | End sector
––––––––––––––––––––––––––––-
1 | 0:00.00 | 4:26.33 | 0 | 19982
2 | 4:26.33 | 3:28.29 | 19983 | 35611
3 | 7:54.62 | 3:04.49 | 35612 | 49460
4 | 10:59.36 | 8:39.52 | 49461 | 88437
5 | 19:39.13 | 3:22.16 | 88438 | 103603
6 | 23:01.29 | 2:59.46 | 103604 | 117074
7 | 26:01.00 | 5:00.46 | 117075 | 139620
8 | 31:01.46 | 6:50.51 | 139621 | 170421


Range status and errors

Selected range

Filename C:\Documents and Settings\Admin\Рабочий стол\Rip by ALLexxess\Rush\2011 Sector 1 (5CD + DVD Box Set Vinyl Replica Anthem Records)\1975 Fly By Night CD + DVD Set\CD\Rush - Fly By Night.wav

Peak level 99.4 %
Extraction speed 5.3 X
Range quality 100.0 %
Test CRC 2530C54E
Copy CRC 2530C54E
Copy OK

No errors occurred


AccurateRip summary

Track 1 not present in database
Track 2 not present in database
Track 3 not present in database
Track 4 not present in database
Track 5 not present in database
Track 6 not present in database
Track 7 not present in database
Track 8 not present in database

None of the tracks are present in the AccurateRip database

End of status report

==== Log checksum 6D11E0DA8C600FC8F26791641395EEAB0745FCE67BF60261A6C4ED90BFD6436B ====



_________________________________________________________________________________________


Rush - Sectors (15 Remastered albums: 1974 - 1989) [18 discs / 3x Box Sets '2011] with 3x DVD-Audio {Re-UP}

Rush - Caress Of Steel (1975)
FLAC with CUE & LOG - 300 MB | 45:20 mins | MP3 CBR 320 Kbps - 103 MB

Tracks:

01. Bastille Day
02. I Think I'm Going Bald
03. Lakeside Park
04. The Necromancer
05. The Fountain Of Lamneth

Exact Audio Copy V1.0 beta 3 from 29. August 2011

EAC extraction logfile from 12. December 2011, 21:30

Rush / Caress Of Steel

Used drive : HL-DT-STDVDRAM GSA-H60N Adapter: 2 ID: 0

Read mode : Secure
Utilize accurate stream : Yes
Defeat audio cache : Yes
Make use of C2 pointers : No

Read offset correction : 667
Overread into Lead-In and Lead-Out : No
Fill up missing offset samples with silence : Yes
Delete leading and trailing silent blocks : No
Null samples used in CRC calculations : Yes
Used interface : Native Win32 interface for Win NT & 2000

Used output format : Internal WAV Routines
Sample format : 44.100 Hz; 16 Bit; Stereo


TOC of the extracted CD

Track | Start | Length | Start sector | End sector
––––––––––––––––––––––––––––-
1 | 0:00.00 | 4:42.21 | 0 | 21170
2 | 4:42.21 | 3:42.43 | 21171 | 37863
3 | 8:24.64 | 4:12.10 | 37864 | 56773
4 | 12:36.74 | 12:36.42 | 56774 | 113515
5 | 25:13.41 | 20:06.27 | 113516 | 203992


Range status and errors

Selected range

Filename C:\Documents and Settings\Admin\Рабочий стол\Rip by ALLexxess\Rush\2011 Sector 1 (5CD + DVD Box Set Vinyl Replica Anthem Records)\1975 Caress Of Steel\Rush - Caress Of Steel.wav

Peak level 98.8 %
Extraction speed 5.6 X
Range quality 100.0 %
Test CRC 6DDBC95E
Copy CRC 6DDBC95E
Copy OK

No errors occurred


AccurateRip summary

Track 1 not present in database
Track 2 not present in database
Track 3 not present in database
Track 4 not present in database
Track 5 not present in database

None of the tracks are present in the AccurateRip database

End of status report

==== Log checksum DE521DF19B03BF1BE23526A94426EE481F123AB7999D15310F4ED6F305CE0932 ====



_________________________________________________________________________________________


Rush - Sectors (15 Remastered albums: 1974 - 1989) [18 discs / 3x Box Sets '2011] with 3x DVD-Audio {Re-UP}

Rush - 2112 (1976)
FLAC with CUE & LOG - 259 MB | 38:55 mins | MP3 CBR 320 Kbps - 89 MB

Tracks:

01. 2112
02. A Passage To Bangkok
03. The Twilight Zone
04. Lessons
05. Tears
06. Something For Nothing

Exact Audio Copy V1.0 beta 3 from 29. August 2011

EAC extraction logfile from 12. December 2011, 19:46

Rush / 2112

Used drive : HL-DT-STDVDRAM GSA-H60N Adapter: 2 ID: 0

Read mode : Secure
Utilize accurate stream : Yes
Defeat audio cache : Yes
Make use of C2 pointers : No

Read offset correction : 667
Overread into Lead-In and Lead-Out : No
Fill up missing offset samples with silence : Yes
Delete leading and trailing silent blocks : No
Null samples used in CRC calculations : Yes
Used interface : Native Win32 interface for Win NT & 2000

Used output format : Internal WAV Routines
Sample format : 44.100 Hz; 16 Bit; Stereo


TOC of the extracted CD

Track | Start | Length | Start sector | End sector
––––––––––––––––––––––––––––-
1 | 0:00.00 | 20:33.50 | 0 | 92524
2 | 20:33.50 | 3:34.67 | 92525 | 108641
3 | 24:08.42 | 3:20.05 | 108642 | 123646
4 | 27:28.47 | 3:52.40 | 123647 | 141086
5 | 31:21.12 | 3:34.43 | 141087 | 157179
6 | 34:55.55 | 3:58.70 | 157180 | 175099


Range status and errors

Selected range

Filename C:\Documents and Settings\Admin\Рабочий стол\Rip by ALLexxess\Rush\2011 Sector 1 (5CD + DVD Box Set Vinyl Replica Anthem Records)\1976 2112\Rush - 2112.wav

Peak level 99.4 %
Extraction speed 5.2 X
Range quality 99.9 %
Test CRC 068BD33F
Copy CRC 068BD33F
Copy OK

No errors occurred


AccurateRip summary

Track 1 not present in database
Track 2 not present in database
Track 3 not present in database
Track 4 not present in database
Track 5 not present in database
Track 6 not present in database

None of the tracks are present in the AccurateRip database

End of status report

==== Log checksum 14B8E1C03853FF53C04D221255DF0632A69BF99928C47239F2C7F70BD3DD5B5A ====



_________________________________________________________________________________________


Rush - Sectors (15 Remastered albums: 1974 - 1989) [18 discs / 3x Box Sets '2011] with 3x DVD-Audio {Re-UP}

Rush - All The World's A Stage (1976)
FLAC with CUE & LOG - 570 MB | 79:50 mins | MP3 CBR 320 Kbps - 183 MB

Tracks:

01. Bastille Day
02. Anthem
03. Fly By Night / In The Mood
04. Something For Nothing
05. Lakeside Park
06. 2112
07. By-Tor And The Snow Dog
08. In The End
09. Working Man / Finding My Way
10. What You're Doing

Exact Audio Copy V1.0 beta 3 from 29. August 2011

EAC extraction logfile from 12. December 2011, 20:39

Rush / All The World's A Stage

Used drive : HL-DT-STDVDRAM GSA-H60N Adapter: 2 ID: 0

Read mode : Secure
Utilize accurate stream : Yes
Defeat audio cache : Yes
Make use of C2 pointers : No

Read offset correction : 667
Overread into Lead-In and Lead-Out : No
Fill up missing offset samples with silence : Yes
Delete leading and trailing silent blocks : No
Null samples used in CRC calculations : Yes
Used interface : Native Win32 interface for Win NT & 2000

Used output format : Internal WAV Routines
Sample format : 44.100 Hz; 16 Bit; Stereo


TOC of the extracted CD

Track | Start | Length | Start sector | End sector
––––––––––––––––––––––––––––-
1 | 0:00.00 | 4:57.55 | 0 | 22329
2 | 4:57.55 | 4:56.00 | 22330 | 44529
3 | 9:53.55 | 5:03.70 | 44530 | 67324
4 | 14:57.50 | 4:02.63 | 67325 | 85537
5 | 19:00.38 | 5:04.17 | 85538 | 108354
6 | 24:04.55 | 15:50.37 | 108355 | 179641
7 | 39:55.17 | 11:58.21 | 179642 | 233512
8 | 51:53.38 | 7:07.29 | 233513 | 265566
9 | 59:00.67 | 15:02.03 | 265567 | 333219
10 | 74:02.70 | 5:46.62 | 333220 | 359231


Range status and errors

Selected range

Filename C:\Documents and Settings\Admin\Рабочий стол\Rip by ALLexxess\Rush\2011 Sector 1 (5CD + DVD Box Set Vinyl Replica Anthem Records)\1977 All The World's A Stage\Rush - All The World's A Stage.wav

Peak level 100.0 %
Extraction speed 6.0 X
Range quality 99.9 %
Test CRC BD04EE82
Copy CRC BD04EE82
Copy OK

No errors occurred


AccurateRip summary

Track 1 not present in database
Track 2 not present in database
Track 3 not present in database
Track 4 not present in database
Track 5 not present in database
Track 6 not present in database
Track 7 not present in database
Track 8 not present in database
Track 9 not present in database
Track 10 not present in database

None of the tracks are present in the AccurateRip database

End of status report

==== Log checksum 7CBCE7F4E69F6705629F9A0BD704F3F3562841985FE7930AF4BBDA468E33F3FA ====



_________________________________________________________________________________________


Rush - Sectors (15 Remastered albums: 1974 - 1989) [18 discs / 3x Box Sets '2011] with 3x DVD-Audio {Re-UP}

Rush - A Farewell Kings (1977)
FLAC with CUE & LOG - 245 MB | 37:26 mins | MP3 CBR 320 Kbps - 86 MB
DVD Audio/Video | MLP 5.1 - 24bit/96kHz (9600 Kbps) | LPCM Stereo 1536 Kbps | DD 5.1 & 2.0 | 3,35 GB

Tracks:

01. A Farewell To Kings
02. Xanadu
03. Closer To The Heart
04. Cinderella Man
05. Madrigal
06. Cygnus X-1 (Book One - The Voyage)

DVD:
- The same tracks in MLP 5.1 - 24bit/96kHz (up to 9600)
- The same tracks in LPCM Enhanced Stereo (1536 Kbps)
- The same tracks in DD 5.1 or 2.0 (448 or 224 Kbps)
- Photo Gallery & accompanying video content

Exact Audio Copy V1.0 beta 3 from 29. August 2011

EAC extraction logfile from 13. December 2011, 17:18

Rush / A Farewell To Kings

Used drive : HL-DT-STDVDRAM GSA-H60N Adapter: 2 ID: 0

Read mode : Secure
Utilize accurate stream : Yes
Defeat audio cache : Yes
Make use of C2 pointers : No

Read offset correction : 667
Overread into Lead-In and Lead-Out : No
Fill up missing offset samples with silence : Yes
Delete leading and trailing silent blocks : No
Null samples used in CRC calculations : Yes
Used interface : Native Win32 interface for Win NT & 2000

Used output format : Internal WAV Routines
Sample format : 44.100 Hz; 16 Bit; Stereo


TOC of the extracted CD

Track | Start | Length | Start sector | End sector
––––––––––––––––––––––––––––-
1 | 0:00.00 | 5:56.26 | 0 | 26725
2 | 5:56.26 | 11:09.36 | 26726 | 76936
3 | 17:05.62 | 2:55.40 | 76937 | 90101
4 | 20:01.27 | 4:23.21 | 90102 | 109847
5 | 24:24.48 | 2:36.00 | 109848 | 121547
6 | 27:00.48 | 10:25.38 | 121548 | 168460


Range status and errors

Selected range

Filename C:\Documents and Settings\Admin\Рабочий стол\Rip by ALLexxess\Rush\2011 Sector 2 (5CD + DVD Box Set Vinyl Replica Anthem Records)\1977 A Farewell To Kings CD + DVD Set\CD\Rush - A Farewell To Kings.wav

Peak level 99.4 %
Extraction speed 5.1 X
Range quality 99.9 %
Test CRC 27813E78
Copy CRC 27813E78
Copy OK

No errors occurred


AccurateRip summary

Track 1 accurately ripped (confidence 2) [8829DB99] (AR v1)
Track 2 accurately ripped (confidence 2) [DBF18764] (AR v1)
Track 3 accurately ripped (confidence 2) [FC700503] (AR v1)
Track 4 accurately ripped (confidence 2) [F0E467A8] (AR v1)
Track 5 accurately ripped (confidence 2) [1EAF0B99] (AR v1)
Track 6 accurately ripped (confidence 2) [CC6F2359] (AR v1)

All tracks accurately ripped

End of status report

==== Log checksum 665957C794D38D21FFB2E81E277157C19FA6B4A9D39A49173423552A04FC09C1 ====



_________________________________________________________________________________________


Rush - Sectors (15 Remastered albums: 1974 - 1989) [18 discs / 3x Box Sets '2011] with 3x DVD-Audio {Re-UP}

Rush - Hemispheres (1978)
FLAC with CUE & LOG - 254 MB | 36:13 mins | MP3 CBR 320 Kbps - 83 MB

Tracks:

01. Cygnus X-1 Book II: Hemispheres
02. Circumstances
03. The Trees
04. La Villa Strangiato (An Exercise In Self-Indulgence)

Exact Audio Copy V1.0 beta 3 from 29. August 2011

EAC extraction logfile from 13. December 2011, 20:14

Rush / Hemispheres

Used drive : HL-DT-STDVDRAM GSA-H60N Adapter: 2 ID: 0

Read mode : Secure
Utilize accurate stream : Yes
Defeat audio cache : Yes
Make use of C2 pointers : No

Read offset correction : 667
Overread into Lead-In and Lead-Out : No
Fill up missing offset samples with silence : Yes
Delete leading and trailing silent blocks : No
Null samples used in CRC calculations : Yes
Used interface : Native Win32 interface for Win NT & 2000

Used output format : Internal WAV Routines
Sample format : 44.100 Hz; 16 Bit; Stereo


TOC of the extracted CD

Track | Start | Length | Start sector | End sector
––––––––––––––––––––––––––––-
1 | 0:00.00 | 18:08.05 | 0 | 81604
2 | 18:08.05 | 3:44.64 | 81605 | 98468
3 | 21:52.69 | 4:44.66 | 98469 | 119834
4 | 26:37.60 | 9:35.02 | 119835 | 162961


Range status and errors

Selected range

Filename C:\Documents and Settings\Admin\Рабочий стол\Rip by ALLexxess\Rush\2011 Sector 2 (5CD + DVD Box Set Vinyl Replica Anthem Records)\1978 Hemispheres\Rush - Hemispheres.wav

Peak level 98.8 %
Extraction speed 5.2 X
Range quality 100.0 %
Test CRC 0A170E54
Copy CRC 0A170E54
Copy OK

No errors occurred


AccurateRip summary

Track 1 not present in database
Track 2 not present in database
Track 3 not present in database
Track 4 not present in database

None of the tracks are present in the AccurateRip database

End of status report

==== Log checksum CD96086E56F3AA7F9F0353096A3408B19FF6AC90194EC241148EBA11947071E6 ====



_________________________________________________________________________________________


Rush - Sectors (15 Remastered albums: 1974 - 1989) [18 discs / 3x Box Sets '2011] with 3x DVD-Audio {Re-UP}

Rush - Permanent Waves (1980)
FLAC with CUE & LOG - 252 MB | 35:36 mins | MP3 CBR 320 Kbps - 82 MB

Tracks:

01. The Spirit Of Radio
02. Freewill
03. Jacob's Ladder
04. Entre Nous
05. Different Strings
06. Natural Science

Exact Audio Copy V1.0 beta 3 from 29. August 2011

EAC extraction logfile from 13. December 2011, 17:45

Rush / Permanent Waves

Used drive : HL-DT-STDVDRAM GSA-H60N Adapter: 2 ID: 0

Read mode : Secure
Utilize accurate stream : Yes
Defeat audio cache : Yes
Make use of C2 pointers : No

Read offset correction : 667
Overread into Lead-In and Lead-Out : No
Fill up missing offset samples with silence : Yes
Delete leading and trailing silent blocks : No
Null samples used in CRC calculations : Yes
Used interface : Native Win32 interface for Win NT & 2000

Used output format : Internal WAV Routines
Sample format : 44.100 Hz; 16 Bit; Stereo


TOC of the extracted CD

Track | Start | Length | Start sector | End sector
––––––––––––––––––––––––––––-
1 | 0:00.00 | 4:58.50 | 0 | 22399
2 | 4:58.50 | 5:23.45 | 22400 | 46669
3 | 10:22.20 | 7:29.22 | 46670 | 80366
4 | 17:51.42 | 4:37.23 | 80367 | 101164
5 | 22:28.65 | 3:50.31 | 101165 | 118445
6 | 26:19.21 | 9:16.44 | 118446 | 160189


Range status and errors

Selected range

Filename C:\Documents and Settings\Admin\Рабочий стол\Rip by ALLexxess\Rush\2011 Sector 2 (5CD + DVD Box Set Vinyl Replica Anthem Records)\1980 Permanent Waves\Rush - Permanent Waves.wav

Peak level 99.4 %
Extraction speed 5.2 X
Range quality 100.0 %
Test CRC 553FB8D8
Copy CRC 553FB8D8
Copy OK

No errors occurred


AccurateRip summary

Track 1 not present in database
Track 2 not present in database
Track 3 not present in database
Track 4 not present in database
Track 5 not present in database
Track 6 not present in database

None of the tracks are present in the AccurateRip database

End of status report

==== Log checksum A3A5C49A281B2C7DA774EAE3D36AD57CDC7752FD8D320D4978DF0E495488F937 ====



_________________________________________________________________________________________


Rush - Sectors (15 Remastered albums: 1974 - 1989) [18 discs / 3x Box Sets '2011] with 3x DVD-Audio {Re-UP}

Rush - Moving Pictures (1981)
FLAC with CUE & LOG - 272 MB | 40:04 mins | MP3 CBR 320 Kbps - 92 MB

Tracks:

01. Tom Sawyer
02. Red Barchetta
03. YYZ
04. Limelight
05. The Camera Eye
06. Witch Hunt
07. Vital Signs

Exact Audio Copy V1.0 beta 3 from 29. August 2011

EAC extraction logfile from 13. December 2011, 19:39

Rush / Moving Pictures

Used drive : HL-DT-STDVDRAM GSA-H60N Adapter: 2 ID: 0

Read mode : Secure
Utilize accurate stream : Yes
Defeat audio cache : Yes
Make use of C2 pointers : No

Read offset correction : 667
Overread into Lead-In and Lead-Out : No
Fill up missing offset samples with silence : Yes
Delete leading and trailing silent blocks : No
Null samples used in CRC calculations : Yes
Used interface : Native Win32 interface for Win NT & 2000

Used output format : Internal WAV Routines
Sample format : 44.100 Hz; 16 Bit; Stereo


TOC of the extracted CD

Track | Start | Length | Start sector | End sector
––––––––––––––––––––––––––––-
1 | 0:00.00 | 4:36.66 | 0 | 20765
2 | 4:36.66 | 6:10.32 | 20766 | 48547
3 | 10:47.23 | 4:25.63 | 48548 | 68485
4 | 15:13.11 | 4:19.63 | 68486 | 87973
5 | 19:32.74 | 10:58.74 | 87974 | 137397
6 | 30:31.73 | 4:45.40 | 137398 | 158812
7 | 35:17.38 | 4:46.17 | 158813 | 180279


Range status and errors

Selected range

Filename C:\Documents and Settings\Admin\Рабочий стол\Rip by ALLexxess\Rush\2011 Sector 2 (5CD + DVD Box Set Vinyl Replica Anthem Records)\1981 Moving Pictures\Rush - Moving Pictures.wav

Peak level 99.4 %
Extraction speed 5.4 X
Range quality 100.0 %
Test CRC 065D31BE
Copy CRC 065D31BE
Copy OK

No errors occurred


AccurateRip summary

Track 1 accurately ripped (confidence 30) [54B1BC51] (AR v2)
Track 2 accurately ripped (confidence 29) [17E76B36] (AR v2)
Track 3 accurately ripped (confidence 29) [B0827710] (AR v2)
Track 4 accurately ripped (confidence 29) [6246A462] (AR v2)
Track 5 accurately ripped (confidence 29) [43D7CE77] (AR v2)
Track 6 accurately ripped (confidence 29) [8997D044] (AR v2)
Track 7 accurately ripped (confidence 29) [9549D8CB] (AR v2)

All tracks accurately ripped

End of status report

==== Log checksum 7D728EACB5B688632E0A6242C82527D08175DD870365D4F9CE17EB02AD335F2A ====



_________________________________________________________________________________________


Rush - Sectors (15 Remastered albums: 1974 - 1989) [18 discs / 3x Box Sets '2011] with 3x DVD-Audio {Re-UP}

Rush - Exit… Stage Left (1981)
FLAC with CUE & LOG - 557 MB | 76:52 mins | MP3 CBR 320 Kbps - 176 MB

Tracks:

01. The Spirit Of Radio
02. Red Barchetta
03. YYZ
04. A Passage To Bangkok
05. Closer To The Heart
06. Beneath, Between & Behind
07. Jacob's Ladder
08. Broon's Bane
09. The Trees
10. Xanadu
11. Freewill
12. Tom Sawyer
13. La Villa Strangiato

Exact Audio Copy V1.0 beta 3 from 29. August 2011

EAC extraction logfile from 13. December 2011, 21:13

Rush / Exit…Stage Left

Used drive : HL-DT-STDVDRAM GSA-H60N Adapter: 2 ID: 0

Read mode : Secure
Utilize accurate stream : Yes
Defeat audio cache : Yes
Make use of C2 pointers : No

Read offset correction : 667
Overread into Lead-In and Lead-Out : No
Fill up missing offset samples with silence : Yes
Delete leading and trailing silent blocks : No
Null samples used in CRC calculations : Yes
Used interface : Native Win32 interface for Win NT & 2000

Used output format : Internal WAV Routines
Sample format : 44.100 Hz; 16 Bit; Stereo


TOC of the extracted CD

Track | Start | Length | Start sector | End sector
––––––––––––––––––––––––––––-
1 | 0:00.00 | 5:12.64 | 0 | 23463
2 | 5:12.64 | 6:49.02 | 23464 | 54140
3 | 12:01.66 | 7:45.07 | 54141 | 89022
4 | 19:46.73 | 3:46.18 | 89023 | 105990
5 | 23:33.16 | 3:08.38 | 105991 | 120128
6 | 26:41.54 | 2:35.26 | 120129 | 131779
7 | 29:17.05 | 8:47.40 | 131780 | 171344
8 | 38:04.45 | 1:36.51 | 171345 | 178595
9 | 39:41.21 | 4:49.73 | 178596 | 200343
10 | 44:31.19 | 12:10.13 | 200344 | 255106
11 | 56:41.32 | 5:32.71 | 255107 | 280077
12 | 62:14.28 | 5:00.53 | 280078 | 302630
13 | 67:15.06 | 9:36.56 | 302631 | 345886


Range status and errors

Selected range

Filename C:\Documents and Settings\Admin\Рабочий стол\Rip by ALLexxess\Rush\2011 Sector 2 (5CD + DVD Box Set Vinyl Replica Anthem Records)\1981 Exit…Stage Left\Rush - Exit…Stage Left.wav

Peak level 99.4 %
Extraction speed 5.1 X
Range quality 99.9 %
Test CRC 580C3C4E
Copy CRC 580C3C4E
Copy OK

No errors occurred


AccurateRip summary

Track 1 not present in database
Track 2 not present in database
Track 3 not present in database
Track 4 not present in database
Track 5 not present in database
Track 6 not present in database
Track 7 not present in database
Track 8 not present in database
Track 9 not present in database
Track 10 not present in database
Track 11 not present in database
Track 12 not present in database
Track 13 not present in database

None of the tracks are present in the AccurateRip database

End of status report

==== Log checksum 0CD0884B353EF70736BF54AD5E0F535B89B6E9D2D780D43ECEA71BB2FA3B689C ====



_________________________________________________________________________________________


Rush - Sectors (15 Remastered albums: 1974 - 1989) [18 discs / 3x Box Sets '2011] with 3x DVD-Audio {Re-UP}

Rush - Signals (1982)
FLAC with CUE & LOG - 319 MB | 43:05 mins | MP3 CBR 320 Kbps - 101 MB
DVD Audio/Video | MLP 5.1 - 24bit/96kHz (9600 Kbps) | LPCM Stereo 1536 Kbps | DD 5.1 & 2.0 | 4,12 GB

Tracks:

01. Subdivisions
02. The Analog Kid
03. Chemistry
04. Digital Man
05. The Weapon
06. New World Man
07. Losing It
08. Countdown

DVD:
- The same tracks in MLP 5.1 - 24bit/96kHz (up to 9600)
- The same tracks in LPCM Enhanced Stereo (1536 Kbps)
- The same tracks in DD 5.1 or 2.0 (448 or 224 Kbps)
- Photo Gallery & accompanying video content

Exact Audio Copy V1.0 beta 3 from 29. August 2011

EAC extraction logfile from 14. December 2011, 17:37

Rush / Signals

Used drive : HL-DT-STDVDRAM GSA-H60N Adapter: 2 ID: 0

Read mode : Secure
Utilize accurate stream : Yes
Defeat audio cache : Yes
Make use of C2 pointers : No

Read offset correction : 667
Overread into Lead-In and Lead-Out : No
Fill up missing offset samples with silence : Yes
Delete leading and trailing silent blocks : No
Null samples used in CRC calculations : Yes
Used interface : Native Win32 interface for Win NT & 2000

Used output format : Internal WAV Routines
Sample format : 44.100 Hz; 16 Bit; Stereo


TOC of the extracted CD

Track | Start | Length | Start sector | End sector
––––––––––––––––––––––––––––-
1 | 0:00.00 | 5:38.05 | 0 | 25354
2 | 5:38.05 | 4:49.39 | 25355 | 47068
3 | 10:27.44 | 4:59.18 | 47069 | 69511
4 | 15:26.62 | 6:29.27 | 69512 | 98713
5 | 21:56.14 | 6:30.55 | 98714 | 128018
6 | 28:26.69 | 3:48.50 | 128019 | 145168
7 | 32:15.44 | 4:57.13 | 145169 | 167456
8 | 37:12.57 | 5:51.57 | 167457 | 193838


Range status and errors

Selected range

Filename C:\Documents and Settings\Admin\Рабочий стол\Rip by ALLexxess\Rush\2011 Sector 3 (5CD + DVD Box Set Vinyl Replica Anthem Records)\1982 Signals CD + DVD Set\CD\Rush - Signals.wav

Peak level 98.8 %
Extraction speed 5.3 X
Range quality 99.9 %
Test CRC 8341C2D6
Copy CRC 8341C2D6
Copy OK

No errors occurred


AccurateRip summary

Track 1 not present in database
Track 2 not present in database
Track 3 not present in database
Track 4 not present in database
Track 5 not present in database
Track 6 not present in database
Track 7 not present in database
Track 8 not present in database

None of the tracks are present in the AccurateRip database

End of status report

==== Log checksum 23109153CA5A6AF85BB5927188C1CDAA561E3149C66DBCBF8D04F7E3E658346F ====



_________________________________________________________________________________________


Rush - Sectors (15 Remastered albums: 1974 - 1989) [18 discs / 3x Box Sets '2011] with 3x DVD-Audio {Re-UP}

Rush - Grace Under Pressure (1984)
FLAC with CUE & LOG - 301 MB | 39:43 mins | MP3 CBR 320 Kbps - 89 MB

Tracks:

01. Distant Early Warning
02. Afterimage
03. Red Sector A
04. The Enemy Within
05. The Body Electric
06. Kid Gloves
07. Red Lenses
08. Between The Wheels

Exact Audio Copy V1.0 beta 3 from 29. August 2011

EAC extraction logfile from 14. December 2011, 20:25

Rush / Grace Under Pressure

Used drive : HL-DT-STDVDRAM GSA-H60N Adapter: 2 ID: 0

Read mode : Secure
Utilize accurate stream : Yes
Defeat audio cache : Yes
Make use of C2 pointers : No

Read offset correction : 667
Overread into Lead-In and Lead-Out : No
Fill up missing offset samples with silence : Yes
Delete leading and trailing silent blocks : No
Null samples used in CRC calculations : Yes
Used interface : Native Win32 interface for Win NT & 2000

Used output format : Internal WAV Routines
Sample format : 44.100 Hz; 16 Bit; Stereo


TOC of the extracted CD

Track | Start | Length | Start sector | End sector
––––––––––––––––––––––––––––-
1 | 0:00.00 | 4:57.07 | 0 | 22281
2 | 4:57.07 | 5:04.59 | 22282 | 45140
3 | 10:01.66 | 5:10.74 | 45141 | 68464
4 | 15:12.65 | 4:38.48 | 68465 | 89362
5 | 19:51.38 | 5:00.61 | 89363 | 111923
6 | 24:52.24 | 4:20.52 | 111924 | 131475
7 | 29:13.01 | 4:44.50 | 131476 | 152825
8 | 33:57.51 | 5:45.29 | 152826 | 178729


Range status and errors

Selected range

Filename C:\Documents and Settings\Admin\Рабочий стол\Rip by ALLexxess\Rush\2011 Sector 3 (5CD + DVD Box Set Vinyl Replica Anthem Records)\1984 Grace Under Pressure\Rush - Grace Under Pressure.wav

Peak level 99.4 %
Extraction speed 5.3 X
Range quality 100.0 %
Test CRC AFBFB783
Copy CRC AFBFB783
Copy OK

No errors occurred


AccurateRip summary

Track 1 not present in database
Track 2 not present in database
Track 3 not present in database
Track 4 not present in database
Track 5 not present in database
Track 6 not present in database
Track 7 not present in database
Track 8 not present in database

None of the tracks are present in the AccurateRip database

End of status report

==== Log checksum 8E4DD794FC0C4C852EDD9DB6A1534F257A28A6BD9C1F1EF156D7EEB2ED1CA202 ====



_________________________________________________________________________________________


Rush - Sectors (15 Remastered albums: 1974 - 1989) [18 discs / 3x Box Sets '2011] with 3x DVD-Audio {Re-UP}

Rush - Power Windows (1985)
FLAC with CUE & LOG - 334 MB | 44:42 mins | MP3 CBR 320 Kbps - 102 MB

Tracks:

01. The Big Money
02. Grand Designs
03. Manhattan Project
04. Marathon
05. Territories
06. Middletown Dreams
07. Emotion Detector
08. Mystic Rhythms

Exact Audio Copy V1.0 beta 3 from 29. August 2011

EAC extraction logfile from 14. December 2011, 19:49

Rush / Power Windows

Used drive : HL-DT-STDVDRAM GSA-H60N Adapter: 2 ID: 0

Read mode : Secure
Utilize accurate stream : Yes
Defeat audio cache : Yes
Make use of C2 pointers : No

Read offset correction : 667
Overread into Lead-In and Lead-Out : No
Fill up missing offset samples with silence : Yes
Delete leading and trailing silent blocks : No
Null samples used in CRC calculations : Yes
Used interface : Native Win32 interface for Win NT & 2000

Used output format : Internal WAV Routines
Sample format : 44.100 Hz; 16 Bit; Stereo


TOC of the extracted CD

Track | Start | Length | Start sector | End sector
––––––––––––––––––––––––––––-
1 | 0:00.00 | 5:37.29 | 0 | 25303
2 | 5:37.29 | 5:06.39 | 25304 | 48292
3 | 10:43.68 | 5:07.35 | 48293 | 71352
4 | 15:51.28 | 6:09.53 | 71353 | 99080
5 | 22:01.06 | 6:20.41 | 99081 | 127621
6 | 28:21.47 | 5:15.27 | 127622 | 151273
7 | 33:36.74 | 5:11.13 | 151274 | 174611
8 | 38:48.12 | 5:53.41 | 174612 | 201127


Range status and errors

Selected range

Filename C:\Documents and Settings\Admin\Рабочий стол\Rip by ALLexxess\Rush\2011 Sector 3 (5CD + DVD Box Set Vinyl Replica Anthem Records)\1985 Power Windows\Rush - Power Windows.wav

Peak level 99.4 %
Extraction speed 5.6 X
Range quality 100.0 %
Test CRC E7164EA1
Copy CRC E7164EA1
Copy OK

No errors occurred


AccurateRip summary

Track 1 not present in database
Track 2 not present in database
Track 3 not present in database
Track 4 not present in database
Track 5 not present in database
Track 6 not present in database
Track 7 not present in database
Track 8 not present in database

None of the tracks are present in the AccurateRip database

End of status report

==== Log checksum D4CA5D439A33395AFD2B0C395C1B07C283A470812EB1B5535642A5D79D06C415 ====



_________________________________________________________________________________________


Rush - Sectors (15 Remastered albums: 1974 - 1989) [18 discs / 3x Box Sets '2011] with 3x DVD-Audio {Re-UP}

Rush - Hold Your Fire (1987)
FLAC with CUE & LOG - 347 MB | 50:25 mins | MP3 CBR 320 Kbps - 117 MB

Tracks:

01. Force Ten
02. Time Stand Still
03. Open Secrets
04. Second Nature
05. Prime Mover
06. Lock And Key
07. Mission
08. Turn The Page
09. Tai Shan
10. High Water

Exact Audio Copy V1.0 beta 3 from 29. August 2011

EAC extraction logfile from 15. December 2011, 19:53

Rush / Hold Your Fire

Used drive : HL-DT-STDVDRAM GSA-H60N Adapter: 2 ID: 0

Read mode : Secure
Utilize accurate stream : Yes
Defeat audio cache : Yes
Make use of C2 pointers : No

Read offset correction : 667
Overread into Lead-In and Lead-Out : No
Fill up missing offset samples with silence : Yes
Delete leading and trailing silent blocks : No
Null samples used in CRC calculations : Yes
Used interface : Native Win32 interface for Win NT & 2000

Used output format : Internal WAV Routines
Sample format : 44.100 Hz; 16 Bit; Stereo


TOC of the extracted CD

Track | Start | Length | Start sector | End sector
––––––––––––––––––––––––––––-
1 | 0:00.00 | 4:32.15 | 0 | 20414
2 | 4:32.15 | 5:08.19 | 20415 | 43533
3 | 9:40.34 | 5:37.50 | 43534 | 68858
4 | 15:18.09 | 4:35.74 | 68859 | 89557
5 | 19:54.08 | 5:19.39 | 89558 | 113521
6 | 25:13.47 | 5:10.67 | 113522 | 136838
7 | 30:24.39 | 5:16.67 | 136839 | 160605
8 | 35:41.31 | 4:54.46 | 160606 | 182701
9 | 40:36.02 | 4:17.04 | 182702 | 201980
10 | 44:53.06 | 5:32.30 | 201981 | 226910


Range status and errors

Selected range

Filename C:\Documents and Settings\Admin\Рабочий стол\Rip by ALLexxess\Rush\2011 Sector 3 (5CD + DVD Box Set Vinyl Replica Anthem Records)\1987 Hold Your Fire\Rush - Hold Your Fire.wav

Peak level 99.4 %
Extraction speed 5.7 X
Range quality 100.0 %
Test CRC 175065B5
Copy CRC 175065B5
Copy OK

No errors occurred


AccurateRip summary

Track 1 not present in database
Track 2 not present in database
Track 3 not present in database
Track 4 not present in database
Track 5 not present in database
Track 6 not present in database
Track 7 not present in database
Track 8 not present in database
Track 9 not present in database
Track 10 not present in database

None of the tracks are present in the AccurateRip database

End of status report

==== Log checksum F1D70FA3A5565B29E54015CF6B5B4A38B9A454CF6AFF3895E73709CF92F3EEC0 ====



_________________________________________________________________________________________


Rush - Sectors (15 Remastered albums: 1974 - 1989) [18 discs / 3x Box Sets '2011] with 3x DVD-Audio {Re-UP}

Rush - A Show Of Hands (1989)
FLAC with CUE & LOG - 557 MB | 50:25 mins | MP3 CBR 320 Kbps - 171 MB

Tracks:

01. Intro
02. The Big Money
03. Subdivisions
04. Marathon
05. Turn The Page
06. Manhattan Project
07. Mission
08. Distant Early Warning
09. Mystic Rhythms
10. Witch Hunt
11. The Rhythm Method (Drum Solo)
12. Force Ten
13. Time Stand Still
14. Red Sector A
15. Closer To The Heart

Exact Audio Copy V1.0 beta 3 from 29. August 2011

EAC extraction logfile from 14. December 2011, 21:20

Rush / A Show Of Hands

Used drive : HL-DT-STDVDRAM GSA-H60N Adapter: 2 ID: 0

Read mode : Secure
Utilize accurate stream : Yes
Defeat audio cache : Yes
Make use of C2 pointers : No

Read offset correction : 667
Overread into Lead-In and Lead-Out : No
Fill up missing offset samples with silence : Yes
Delete leading and trailing silent blocks : No
Null samples used in CRC calculations : Yes
Used interface : Native Win32 interface for Win NT & 2000

Used output format : Internal WAV Routines
Sample format : 44.100 Hz; 16 Bit; Stereo


TOC of the extracted CD

Track | Start | Length | Start sector | End sector
––––––––––––––––––––––––––––-
1 | 0:00.00 | 0:53.24 | 0 | 3998
2 | 0:53.24 | 5:58.20 | 3999 | 30868
3 | 6:51.44 | 5:22.09 | 30869 | 55027
4 | 12:13.53 | 6:38.50 | 55028 | 84927
5 | 18:52.28 | 4:39.68 | 84928 | 105920
6 | 23:32.21 | 5:18.49 | 105921 | 129819
7 | 28:50.70 | 5:45.44 | 129820 | 155738
8 | 34:36.39 | 5:14.48 | 155739 | 179336
9 | 39:51.12 | 5:33.25 | 179337 | 204336
10 | 45:24.37 | 3:57.50 | 204337 | 222161
11 | 49:22.12 | 4:37.24 | 222162 | 242960
12 | 53:59.36 | 4:55.05 | 242961 | 265090
13 | 58:54.41 | 5:12.39 | 265091 | 288529
14 | 64:07.05 | 5:17.41 | 288530 | 312345
15 | 69:24.46 | 4:53.25 | 312346 | 334345


Range status and errors

Selected range

Filename C:\Documents and Settings\Admin\Рабочий стол\Rip by ALLexxess\Rush\2011 Sector 3 (5CD + DVD Box Set Vinyl Replica Anthem Records)\1989 A Show Of Hands\Rush - A Show Of Hands.wav

Peak level 100.0 %
Extraction speed 5.9 X
Range quality 100.0 %
Test CRC 0B1A1D73
Copy CRC 0B1A1D73
Copy OK

No errors occurred


AccurateRip summary

Track 1 accurately ripped (confidence 1) [C6C6AA26] (AR v1)
Track 2 accurately ripped (confidence 1) [ED93B3AD] (AR v1)
Track 3 accurately ripped (confidence 1) [4173C495] (AR v1)
Track 4 accurately ripped (confidence 1) [7AB8223B] (AR v1)
Track 5 accurately ripped (confidence 1) [53303D9F] (AR v1)
Track 6 accurately ripped (confidence 1) [2E0A8074] (AR v1)
Track 7 accurately ripped (confidence 1) [02B5C91C] (AR v1)
Track 8 accurately ripped (confidence 1) [48163E52] (AR v1)
Track 9 accurately ripped (confidence 1) [67021DFC] (AR v1)
Track 10 accurately ripped (confidence 1) [DE5DBC65] (AR v1)
Track 11 accurately ripped (confidence 1) [F73A884C] (AR v1)
Track 12 accurately ripped (confidence 1) [7EF89EE2] (AR v1)
Track 13 accurately ripped (confidence 1) [7A6B76CC] (AR v1)
Track 14 accurately ripped (confidence 1) [C07AB6AE] (AR v1)
Track 15 accurately ripped (confidence 1) [5004EF92] (AR v1)

All tracks accurately ripped

End of status report

==== Log checksum 0DD44E476BE8FE1F8604008A7CA790A5027170C454EE151D5FD6ED2AFD44AF2F ====



Dynamic range(s): 8 / 9 / 7 / 8 / 8
7 / 8 / 10 / 5 / 11 / 9 / 8 / 7 / 7 / 7.

all thanks goes to ALLexxess!

Rush | Fly By Night | Caress Of Steel | 2112
All The World's A Stage | A Farewell Kings | Hemispheres
Permanent Waves | Moving Pictures | Exit… Stage Left
Signals | Grace Under Pressure | Power Windows
Hold Your Fire | A Show Of Hands | Boxes & Booklets Scans


* Where the album title is his release year, and "L" is FLAC, "M" is MP3's,
"DAV" is DVD-Audio/Video, "Sc" is covers, and boxes & booklets were packed separately.
~ 3-5% on restoration included