Subcategories

Rush - Exit... Stage Left (1981) [Japan 1991]

Posted By: perfecta
Rush - Exit... Stage Left (1981) [Japan 1991]

Rush - Exit… Stage Left (1981) [Japan 1991]
EAC-FLAC Tracks with CUE, LOG & Covers - 450 MB
Hard Rock / Progressive Rock | Atlantic/MMG Inc # AMCY-290


allmusic.com says:
Rush was planning on releasing a live album after the Permanent Waves tour, but manager Cliff Burnstein convinced the group that they were peaking musically, and should go straight back into the recording studio – resulting in their finest album, 1981's Moving Pictures. So after the tour wound down, their postponed live album was finally assembled and released as Exit…Stage Left the same year. The album turned out to be the polar opposite of its predecessor, 1976's raw and direct All the World's a Stage; in fact, the performances often sound identical to the recently released studio versions. The contagious energy that helped make All the World's a Stage such a success is muted, replaced by workmanlike renditions that border on the uninspired. There's no denying the high quality of the songs selected – "Spirit of Radio," "Tom Sawyer," "Xanadu," "The Trees," "Closer to the Heart," "Jacob's Ladder" – it's just that the performances rarely catch fire. Compared to Rush's three other concert albums (the aforementioned All the World's a Stage, 1988's A Show of Hands, and 1998's Different Stages), Exit…Stage Left is probably the weakest.

Tracks:

01. The Spirit of Radio
02. Red Barchetta
03. YYZ (Includes a Peart drum solo)
04. A Passage to Bangkok
05. Closer to the Heart
06. Beneath, Between & Behind
07. Jacob's Ladder
08. Broon's Bane
09. The Trees
10. Xanadu
11. Freewill
12. Tom Sawyer
13. La Villa Strangiato

Running time: 73:20 minutes

Produced by Terry Brown.

More information @ Wikipedia



Exact Audio Copy V0.99 prebeta 4 from 23. January 2008

EAC extraction logfile from 20. August 2010, 12:10

Rush / Exit… Stage Left [Japan AMCY-290]

Used drive : BENQ CDRW 5232X Adapter: 1 ID: 0

Read mode : Secure
Utilize accurate stream : Yes
Defeat audio cache : Yes
Make use of C2 pointers : No

Read offset correction : 738
Overread into Lead-In and Lead-Out : No
Fill up missing offset samples with silence : Yes
Delete leading and trailing silent blocks : No
Null samples used in CRC calculations : Yes
Used interface : Installed external ASPI interface
Gap handling : Appended to previous track

Used output format : Internal WAV Routines
Sample format : 44.100 Hz; 16 Bit; Stereo


TOC of the extracted CD

Track | Start | Length | Start sector | End sector
––––––––––––––––––––––––––––-
1 | 0:00.00 | 5:13.50 | 0 | 23524
2 | 5:13.50 | 6:49.05 | 23525 | 54204
3 | 12:02.55 | 7:45.45 | 54205 | 89124
4 | 19:48.25 | 3:08.57 | 89125 | 103281
5 | 22:57.07 | 2:38.10 | 103282 | 115141
6 | 25:35.17 | 8:48.23 | 115142 | 154764
7 | 34:23.40 | 1:36.72 | 154765 | 162036
8 | 36:00.37 | 4:49.58 | 162037 | 183769
9 | 40:50.20 | 12:11.65 | 183770 | 238659
10 | 53:02.10 | 5:33.50 | 238660 | 263684
11 | 58:35.60 | 5:03.62 | 263685 | 286471
12 | 63:39.47 | 9:39.73 | 286472 | 329969


Track 1

Filename C:\01 - The Spirit Of Radio.wav

Pre-gap length 0:00:02.00

Peak level 77.6 %
Track quality 100.0 %
Test CRC E4894D5F
Copy CRC E4894D5F
Cannot be verified as accurate (confidence 2) [8D87BC91], AccurateRip returned [1AD45A9E]
Copy OK

Track 2

Filename C:\02 - Red Barchetta.wav

Peak level 94.7 %
Track quality 100.0 %
Test CRC BBE80F92
Copy CRC BBE80F92
Track not present in AccurateRip database
Copy OK

Track 3

Filename C:\03 - YYZ.wav

Peak level 95.5 %
Track quality 100.0 %
Test CRC 5B9DCF61
Copy CRC 5B9DCF61
Cannot be verified as accurate (confidence 2) [CDCED995], AccurateRip returned [D9AEF1A5]
Copy OK

Track 4

Filename C:\04 - Closer To The Heart.wav

Pre-gap length 0:00:00.97

Peak level 91.6 %
Track quality 100.0 %
Test CRC FECE140A
Copy CRC FECE140A
Track not present in AccurateRip database
Copy OK

Track 5

Filename C:\05 - Beneath, Between And Behind.wav

Peak level 92.0 %
Track quality 100.0 %
Test CRC 3B4EDCAD
Copy CRC 3B4EDCAD
Cannot be verified as accurate (confidence 2) [A91C5F54], AccurateRip returned [E2AAF06C]
Copy OK

Track 6

Filename C:\06 - Jacob's Ladder.wav

Pre-gap length 0:00:02.42

Peak level 87.5 %
Track quality 99.9 %
Test CRC 01544F67
Copy CRC 01544F67
Cannot be verified as accurate (confidence 2) [9A099191], AccurateRip returned [B8DEF49F]
Copy OK

Track 7

Filename C:\07 - Broon's Bane.wav

Peak level 18.8 %
Track quality 99.8 %
Test CRC 0CCE5FCC
Copy CRC 0CCE5FCC
Cannot be verified as accurate (confidence 2) [70E922F2], AccurateRip returned [66A45FA3]
Copy OK

Track 8

Filename C:\08 - The Trees.wav

Peak level 96.4 %
Track quality 100.0 %
Test CRC A83E76C8
Copy CRC A83E76C8
Cannot be verified as accurate (confidence 2) [C6B7701E], AccurateRip returned [8275556E]
Copy OK

Track 9

Filename C:\09 - Xanadu.wav

Peak level 95.1 %
Track quality 99.9 %
Test CRC 538632DB
Copy CRC 538632DB
Cannot be verified as accurate (confidence 2) [E8B3CC1A], AccurateRip returned [0873C84D]
Copy OK

Track 10

Filename C:\10 - Freewill.wav

Peak level 79.4 %
Track quality 100.0 %
Test CRC 7B0C1FF8
Copy CRC 7B0C1FF8
Cannot be verified as accurate (confidence 2) [A3CE62B9], AccurateRip returned [E15A5EE9]
Copy OK

Track 11

Filename C:\11 - Tom Sawyer.wav

Peak level 84.9 %
Track quality 99.9 %
Test CRC 1C06FB26
Copy CRC 1C06FB26
Track not present in AccurateRip database
Copy OK

Track 12

Filename C:\12 - La Villa Strangiato.wav

Pre-gap length 0:00:02.36

Peak level 80.2 %
Track quality 100.0 %
Test CRC 20CF7E13
Copy CRC 20CF7E13
Cannot be verified as accurate (confidence 2) [4EA704C8], AccurateRip returned [9BB88BEE]
Copy OK


9 track(s) could not be verified as accurate
3 track(s) not present in the AccurateRip database

No tracks could be verified as accurate
You may have a different pressing from the one(s) in the database

No errors occurred

End of status report

………………..

Track [ CRC ] Status
01 [8d87bc91] (0/4) No match
02 [3e7eb9fb] (0/2) No match
03 [cdced995] (0/3) No match
04 [2e964775] (0/2) No match
05 [a91c5f54] (0/3) No match
06 [9a099191] (0/3) No match
07 [70e922f2] (0/3) No match
08 [c6b7701e] (0/3) No match
09 [e8b3cc1a] (0/3) No match
10 [a3ce62b9] (0/3) No match
11 [805c8b4e] (0/2) No match
12 [4ea704c8] (0/3) No match
Offsetted by -228:
01 [1ad45a9e] (4/4) Accurately ripped
02 [e8c6ad3e] (2/2) Accurately ripped
03 [d9aef1a5] (3/3) Accurately ripped
04 [1e15f78b] (2/2) Accurately ripped
05 [e2aaf06c] (3/3) Accurately ripped
06 [b8def49f] (3/3) Accurately ripped
07 [66a45fa3] (3/3) Accurately ripped
08 [8275556e] (3/3) Accurately ripped
09 [0873c84d] (3/3) Accurately ripped
10 [e15a5ee9] (3/3) Accurately ripped
11 [b4531c84] (2/2) Accurately ripped
12 [9bb88bee] (3/3) Accurately ripped

Track Peak [ CRC32 ] [W/O NULL] [ LOG ]
– 96,4 [E4083333] [9DAB2733]
01 77,6 [E4894D5F] [C7BE590C] CRC32
02 94,7 [BBE80F92] [8B0DE453] CRC32
03 95,5 [5B9DCF61] [66908435] CRC32
04 91,6 [FECE140A] [ACB8A380] CRC32
05 92,0 [3B4EDCAD] [A097204E] CRC32
06 87,5 [01544F67] [7E74BA1B] CRC32
07 18,8 [0CCE5FCC] [1A769539] CRC32
08 96,4 [A83E76C8] [0E757C57] CRC32
09 95,1 [538632DB] [F0DADD29] CRC32
10 79,4 [7B0C1FF8] [FE83D385] CRC32
11 84,9 [1C06FB26] [AD5CBF34] CRC32
12 80,2 [20CF7E13] [A76F1901] CRC32



Rush - Fly By Night (1975) [Japan 1991]
Rush - Caress Of Steel (1975) [Japan 1991]
Rush - 2112 (1976) [Japan 1991]
Rush - All The World's A Stage (1976) [Japan 1991]
Rush - A Farewell To Kings (1977) [Japan 1991]
Rush - Hemispheres (1978) [Japan 1991]
Rush - Permanent Waves (1980) [Japan 1991]
Rush - Moving Pictures (1981) [Japan 1991]

Thanks to original ripper!