Subcategories

Robert Janssen & The Strings of Paris - Romantic Harmonica Melodies (1989)

Posted By: Speedyclick
Robert Janssen & The Strings of Paris - Romantic Harmonica Melodies (1989)

Robert Janssen & The Strings of Paris - Romantic Harmonica Melodies (1989)
EAC Rip | FLAC (image & cue & log) | tracks: 16 | ~ 314 Mb | 54:14 | Scans
Label: BMC | Genre: Instrumental, easy listening, harmonica

Sweet and tender melodies played by a virtuoso harmonica player and backed by The Strings of Paris. A refreshing and relaxing experience for any time you need it. A CD from the 'Beautiful Music Collection' series with 16 well known tunes especially selected to induce an euphoric feeling.

TRACKLIST
01. Midnight Cowboy
02. Yesterdays
03. Ben
04. The Fool On The Hill
05. Blue Moon
06. The Sun Ain't Gonna Shine Anymore
07. Sailing
08. Johnny Guitar
09. One Day I'll Fly Away
10. Easy To Love
11. Michelle
12. Cavatina
13. Dicembre
14. Emmanuelle
15. Good Luck Jack
16. Evergreen

Exact Audio Copy V0.99 prebeta 5 from 4. May 2009

EAC extraction logfile from 26. January 2011, 10:33

Robert Janssen / Romantic Harmonica Melodies

Used drive : HL-DT-STDVDRAM GH10N Adapter: 1 ID: 0

Read mode : Secure
Utilize accurate stream : Yes
Defeat audio cache : Yes
Make use of C2 pointers : No

Read offset correction : 667
Overread into Lead-In and Lead-Out : No
Fill up missing offset samples with silence : Yes
Delete leading and trailing silent blocks : No
Null samples used in CRC calculations : Yes
Used interface : Native Win32 interface for Win NT & 2000

Used output format : User Defined Encoder
Selected bitrate : 896 kBit/s
Quality : High
Add ID3 tag : No
Command line compressor : C:\Program Files\FLAC\flac.exe
Additional command line options : -V -5 -T "artist=%a" -T "title=%t" -T "album=%g" -T "date=%y" -T "tracknumber=%n" -T "genre=%m" -5 %s


TOC of the extracted CD

Track | Start | Length | Start sector | End sector
––––––––––––––––––––––––––––-
1 | 0:00.33 | 4:07.25 | 33 | 18582
2 | 4:07.58 | 3:24.70 | 18583 | 33952
3 | 7:32.53 | 2:30.62 | 33953 | 45264
4 | 10:03.40 | 3:09.63 | 45265 | 59502
5 | 13:13.28 | 3:30.25 | 59503 | 75277
6 | 16:43.53 | 3:34.40 | 75278 | 91367
7 | 20:18.18 | 3:47.42 | 91368 | 108434
8 | 24:05.60 | 3:07.23 | 108435 | 122482
9 | 27:13.08 | 3:19.07 | 122483 | 137414
10 | 30:32.15 | 3:01.30 | 137415 | 151019
11 | 33:33.45 | 3:25.05 | 151020 | 166399
12 | 36:58.50 | 3:40.63 | 166400 | 182962
13 | 40:39.38 | 3:24.00 | 182963 | 198262
14 | 44:03.38 | 3:06.60 | 198263 | 212272
15 | 47:10.23 | 3:47.60 | 212273 | 229357
16 | 50:58.08 | 3:15.67 | 229358 | 244049


Range status and errors

Selected range

Filename S:\EAC Rips\Romantic Harmonica\Robert Janssen - Romantic Harmonica Melodies.wav

Peak level 99.8 %
Range quality 100.0 %
Test CRC 66333C25
Copy CRC 66333C25
Copy OK

No errors occurred


AccurateRip summary

Track 1 not present in database
Track 2 not present in database
Track 3 not present in database
Track 4 not present in database
Track 5 not present in database
Track 6 not present in database
Track 7 not present in database
Track 8 not present in database
Track 9 not present in database
Track 10 not present in database
Track 11 not present in database
Track 12 not present in database
Track 13 not present in database
Track 14 not present in database
Track 15 not present in database
Track 16 not present in database

None of the tracks are present in the AccurateRip database

End of status report