Subcategories

The Rolling Stones - Some Girls. Live In Texas '78 (2011) [CD+DVD] {Eagle Rock}

Posted By: ruskaval
The Rolling Stones - Some Girls. Live In Texas '78 (2011) [CD+DVD] {Eagle Rock}

The Rolling Stones - Some Girls. Live In Texas '78 (2011) [CD+DVD] {Eagle Rock}
EAC rip (secure mode) | FLAC (tracks)+CUE+LOG -> 591 Mb | MP3 @320 -> 191 Mb
DVD6 -> 7.30 Gb | All Regions | NTSC 16:9 | English (Dolby AC3, 2 ch / Dolby AC3, 6 ch / DTS, 6 ch) | ~ 128 m | ISO Image
Subs: English, Deutsch, Espanol, Francais
Full Artwork @ 300 dpi (jpg) -> 105 Mb | 5% repair rar
© 2011 Eagle Rock / Promotone | EV303959
Rock / Classic Rock / Blues Rock / Hard Rock

The Rolling Stones 1978 tour of the USA in support of that year’s “Some Girls” album is considered by fans to be one of their very best. The tour followed immediately on the release of the “Some Girls” album and by the time the band arrived in Texas in mid-July the album had hit the No.1 spot on the US charts. The tour took a “back to basics” approach, with the band and their music very much at the forefront and little or no elaborate staging.
The Rolling Stones - Some Girls. Live In Texas '78 (2011) [CD+DVD] {Eagle Rock}

Filmed at the Will Rogers Memorial Center in Fort Worth, Texas, on 18 July 1978, this concert is typical of the tour with the Rolling Stones delivering a raw, energetic performance in front of a crowd who are clearly loving the show. Many of the tracks from “Some Girls” are included in the live set with a sprinkling of Stones classics from earlier albums. Originally shot on 16mm film, the footage has been carefully restored and the sound remixed and remastered by Bob Clearmountain from the original multitrack tapes.
The Rolling Stones - Some Girls. Live In Texas '78 (2011) [CD+DVD] {Eagle Rock}

The Rolling Stones were losing their edge. By the late ‘70s, amid the throes of punk's rebellious angst and disco's ribald decadence, the Stones—who had long personified both such distinctions—seemed atypically tame.

It had been a long six years since the band’s last really big deal, Exile on Main Street, and even that wasn’t considered the classic then that it generally is today. Critics had begun to dismiss the Stones as obsolete, a relic of a bygone age. If they failed to harness their collective talent, stave off their detractors, and deliver the goods with their next album, the world’s greatest rock ‘n’ roll band stood to get knocked off its proverbial cloud.

Some Girls, released in June 1978, heralded the Stones’ brazen return to form and, moreover, to artistic relevance. Simmering with loose groove and swagger, the album seethed with all the spunk and splendor of New York’s urban jungle.

By the time the Stones rolled into the Lone Star State the following month on a tour stop in Fort Worth, Some Girls was the number one album in America. Their performance at the Will Rogers Memorial Centre, captured in the concert film, Some Girls - Live in Texas '78, reveals just how hard they were pushing to stay on top.

Watching them here, not so much playing but working—the band performs seven of the new album’s 10 tracks in one block, bookended by a smattering of older hits and favorites—is riveting.

Mick Jagger prowls the stage with a feral, no-bounds libido—during “Tumbling Dice” he cops a feel of guitarist Ronnie Wood’s crotch—and striking, in-the-moment conviction. Fronting the band with impassioned, soulful urgency one moment (“Beast of Burden”) and savage ferocity the next (“Shattered,” “When The Whip Comes Down”), he rules the roost throughout this stunning performance.

tracklist:
CD

01. Let It Rock
02. All Down the Line
03. Honky Tonk Women
04. Star Star
05. When the Whip Comes Down
06. Beast of Burden
07. Miss You
08. Imagination
09. Shattered
10. Respectable
11. Far Away Eyes
12. Love in Vain
13. Tumbling Dice
14. Happy
15. Sweet Little 16
16. Brown Sugar
17. Jumpin' Jack Flash

DVD
01. Let It Rock
02. All Down The Line
03. Honky Tonk Women
04. Star Star
05. When The Whip Comes Down
06. Beast Of Burden
07. Miss You
08. Imagination
09. Shattered
10. Respectable
11. Far Away Eyes
12. Love In Vain
13. Tumbling Dice
14. Happy
15. Sweet Little 16
16. Brown Sugar
17. Jumpin' Jack Flash
extras
-Mick Jagger Interview 2011
Saturday Night Live:
- Tomorrow with Dan Aykroyd & Mick Jagger
- Beast of Burden
- Respectable
- Shattered
- ABC News 20/20 Interviews with The Stones

Exact Audio Copy V0.99 prebeta 5 from 4. May 2009

EAC extraction logfile from 10. March 2013, 2:33

The Rolling Stones / Some Girls. Live In Texas '78

Used drive : PLEXTOR DVDR PX-L890SA Adapter: 6 ID: 0

Read mode : Secure
Utilize accurate stream : Yes
Defeat audio cache : Yes
Make use of C2 pointers : No

Read offset correction : 6
Overread into Lead-In and Lead-Out : No
Fill up missing offset samples with silence : Yes
Delete leading and trailing silent blocks : No
Null samples used in CRC calculations : Yes
Used interface : Native Win32 interface for Win NT & 2000
Gap handling : Appended to previous track

Used output format : User Defined Encoder
Selected bitrate : 1024 kBit/s
Quality : High
Add ID3 tag : No
Command line compressor : C:\Program Files (x86)\FLAC\flac.exe
Additional command line options : -8 -V -T "ARTIST=%a" -T "TITLE=%t" -T "ALBUM=%g" -T "DATE=%y" -T "TRACKNUMBER=%n" -T "GENRE=%m" -T "COMMENT=EAC FLAC -8" %s


TOC of the extracted CD

Track | Start | Length | Start sector | End sector
––––––––––––––––––––––––––––-
1 | 0:00.00 | 2:12.40 | 0 | 9939
2 | 2:12.40 | 3:56.47 | 9940 | 27686
3 | 6:09.12 | 3:38.21 | 27687 | 44057
4 | 9:47.33 | 3:47.41 | 44058 | 61123
5 | 13:34.74 | 5:13.16 | 61124 | 84614
6 | 18:48.15 | 6:28.68 | 84615 | 113782
7 | 25:17.08 | 8:35.42 | 113783 | 152449
8 | 33:52.50 | 6:40.07 | 152450 | 182456
9 | 40:32.57 | 4:44.71 | 182457 | 203827
10 | 45:17.53 | 3:23.20 | 203828 | 219072
11 | 48:40.73 | 5:51.08 | 219073 | 245405
12 | 54:32.06 | 4:53.61 | 245406 | 267441
13 | 59:25.67 | 4:38.67 | 267442 | 288358
14 | 64:04.59 | 3:12.56 | 288359 | 302814
15 | 67:17.40 | 3:11.37 | 302815 | 317176
16 | 70:29.02 | 3:14.34 | 317177 | 331760
17 | 73:43.36 | 6:15.19 | 331761 | 359904


Track 1

Filename C:\rs_some_2011\01 - Let It Rock.wav

Pre-gap length 0:00:02.00

Peak level 98.7 %
Track quality 100.0 %
Test CRC 8F70D818
Copy CRC 8F70D818
Track not present in AccurateRip database
Copy OK

Track 2

Filename C:\rs_some_2011\02 - All Down The Line.wav

Peak level 98.7 %
Track quality 100.0 %
Test CRC 10EA0F31
Copy CRC 10EA0F31
Track not present in AccurateRip database
Copy OK

Track 3

Filename C:\rs_some_2011\03 - Honky Tonk Woman.wav

Peak level 97.3 %
Track quality 100.0 %
Test CRC 002A12D5
Copy CRC 002A12D5
Track not present in AccurateRip database
Copy OK

Track 4

Filename C:\rs_some_2011\04 - Star Star.wav

Peak level 97.8 %
Track quality 100.0 %
Test CRC 033EAF4D
Copy CRC 033EAF4D
Track not present in AccurateRip database
Copy OK

Track 5

Filename C:\rs_some_2011\05 - When The Whip Come Down.wav

Peak level 97.4 %
Track quality 100.0 %
Test CRC 04919685
Copy CRC 04919685
Track not present in AccurateRip database
Copy OK

Track 6

Filename C:\rs_some_2011\06 - Beast Of Burden.wav

Peak level 97.1 %
Track quality 100.0 %
Test CRC A0834511
Copy CRC A0834511
Track not present in AccurateRip database
Copy OK

Track 7

Filename C:\rs_some_2011\07 - Miss You.wav

Peak level 98.7 %
Track quality 100.0 %
Test CRC E0A37B46
Copy CRC E0A37B46
Track not present in AccurateRip database
Copy OK

Track 8

Filename C:\rs_some_2011\08 - Just My Imagination.wav

Peak level 98.7 %
Track quality 100.0 %
Test CRC 54634A5E
Copy CRC 54634A5E
Track not present in AccurateRip database
Copy OK

Track 9

Filename C:\rs_some_2011\09 - Shattered.wav

Peak level 98.7 %
Track quality 100.0 %
Test CRC 2F217053
Copy CRC 2F217053
Track not present in AccurateRip database
Copy OK

Track 10

Filename C:\rs_some_2011\10 - Respectable.wav

Peak level 98.7 %
Track quality 100.0 %
Test CRC 9D1E5F07
Copy CRC 9D1E5F07
Track not present in AccurateRip database
Copy OK

Track 11

Filename C:\rs_some_2011\11 - Far Away Eyes.wav

Peak level 94.2 %
Track quality 100.0 %
Test CRC B2B49756
Copy CRC B2B49756
Track not present in AccurateRip database
Copy OK

Track 12

Filename C:\rs_some_2011\12 - Love In Vain.wav

Peak level 98.7 %
Track quality 100.0 %
Test CRC EEDCCB4E
Copy CRC EEDCCB4E
Track not present in AccurateRip database
Copy OK

Track 13

Filename C:\rs_some_2011\13 - Tumbling Dice.wav

Peak level 98.7 %
Track quality 100.0 %
Test CRC 35740998
Copy CRC 35740998
Track not present in AccurateRip database
Copy OK

Track 14

Filename C:\rs_some_2011\14 - Happy.wav

Peak level 98.7 %
Track quality 100.0 %
Test CRC 27DD35FF
Copy CRC 27DD35FF
Track not present in AccurateRip database
Copy OK

Track 15

Filename C:\rs_some_2011\15 - Sweet Little 16.wav

Peak level 98.7 %
Track quality 100.0 %
Test CRC 26A2CC6B
Copy CRC 26A2CC6B
Track not present in AccurateRip database
Copy OK

Track 16

Filename C:\rs_some_2011\16 - Brown Sugar.wav

Peak level 98.7 %
Track quality 100.0 %
Test CRC 4C14B88C
Copy CRC 4C14B88C
Track not present in AccurateRip database
Copy OK

Track 17

Filename C:\rs_some_2011\17 - Jumpin' Jack Flash.wav

Peak level 98.7 %
Track quality 99.9 %
Test CRC DB52ABE9
Copy CRC DB52ABE9
Track not present in AccurateRip database
Copy OK


None of the tracks are present in the AccurateRip database

No errors occurred

End of status report


The Rolling Stones - Some Girls. Live In Texas '78 (2011) [CD+DVD] {Eagle Rock}

The Rolling Stones - Some Girls. Live In Texas '78 (2011) [CD+DVD] {Eagle Rock}

The Rolling Stones - Some Girls. Live In Texas '78 (2011) [CD+DVD] {Eagle Rock}

The Rolling Stones - Some Girls. Live In Texas '78 (2011) [CD+DVD] {Eagle Rock}

The Rolling Stones - Some Girls. Live In Texas '78 (2011) [CD+DVD] {Eagle Rock}

The Rolling Stones - Some Girls. Live In Texas '78 (2011) [CD+DVD] {Eagle Rock}

The Rolling Stones - Some Girls. Live In Texas '78 (2011) [CD+DVD] {Eagle Rock}


Thanks to 0xxa, dafnaplus, tjana!