Rock And Roll High School - Featuring the Ramones (1979) The Film + Original Soundtrack [RE-UPLOAD]

Posted By: Rehabilly
Rock And Roll High School - Featuring the Ramones (1979) The Film + Original Soundtrack [RE-UPLOAD]

Rock 'N' Roll High School (1979)
Musical Comedy | DVDRip: AVI XviD 608x336, MP3 CBR 128 (Eng) | 93 min | ~ 1,1 GB
or BDRip: MKV x264 1280x720, DD 192 Kbps (Eng/Rus), 7x Subtitles | 93 min | 4,72 GB
plus OST: WV+CUE+LOG or MP3 CBR 320 Kbps | Covers | 44 min | 292 MB or 102 MB

A group of rock-music-loving students, with the help of the Ramones, take over their school to combat its newly installed oppressive administration..

Vince Lombardi High School keeps losing principals to nervous breakdowns because of the students' love of rock 'n' roll and their disregard of education. The putative leader of the students is Riff Randell, who loves the music of the Ramones. A new principal, the rock-music-hating Miss Evelyn Togar, is brought in and promises to put an end to the music craze. When Miss Togar and a group of parents attempt to burn a pile of rock records, the students take over the high school, joined by the Ramones, who are made honorary students. When the police are summoned and demand that the students evacuate the building, they do so, which leads to an explosive finale.

Actors: P.J. Soles, Vincent Van Patten, Clint Howard, Dey Young, Mary Woronov, and The Ramones!
Director: Allan Arkush, Story: Allan Arkush & Joe Dante

IMDb
Rock And Roll High School - Featuring the Ramones (1979) The Film + Original Soundtrack [RE-UPLOAD]
XviD screens - click to enlarge

General
Complete name : Rock 'n' Roll High School (XviD)\Rock 'n' Roll High School_2xaudio-xvid-belos.avi
Format : AVI
Format/Info : Audio Video Interleave
File size : 1.09 GiB
Duration : 1h 33mn
Overall bit rate : 1 678 Kbps
Writing application : VirtualDubMod 1.5.4.1 (build 2178/release)
Writing library : VirtualDubMod build 2178/release

Video
ID : 0
Format : MPEG-4 Visual
Format profile : AdvancedSimple@L5
Format settings, BVOP : Yes
Format settings, QPel : No
Format settings, GMC : No warppoints
Format settings, Matrix : Default (H.263)
Muxing mode : Packed bitstream
Codec ID : XVID
Codec ID/Hint : XviD
Duration : 1h 33mn
Bit rate : 1 413 Kbps
Width : 608 pixels
Height : 336 pixels
Display aspect ratio : 16:9
Frame rate : 23.976 fps
Resolution : 24 bits
Colorimetry : 4:2:0
Scan type : Progressive
Bits/(Pixel*Frame) : 0.289
Stream size : 943 MiB (84%)
Writing library : XviD 1.2.0.dev47 (UTC 2006-11-01)

Audio #1
ID : 1
Format : MPEG Audio
Format version : Version 1
Format profile : Layer 3
Codec ID : 55
Codec ID/Hint : MP3
Duration : 1h 33mn
Bit rate mode : Constant
Bit rate : 128 Kbps
Channel(s) : 2 channels
Sampling rate : 48.0 KHz
Resolution : 16 bits
Stream size : 85.4 MiB (8%)
Alignment : Aligned on interleaves
Interleave, duration : 83 ms (2.00 video frames)
Interleave, preload duration : 504 ms
Writing library : LAME3.97
Language : English

Audio #2
ID : 2
Format : MPEG Audio
Format version : Version 1
Format profile : Layer 3
Codec ID : 55
Codec ID/Hint : MP3
Duration : 1h 33mn
Bit rate mode : Constant
Bit rate : 128 Kbps
Channel(s) : 2 channels
Sampling rate : 48.0 KHz
Resolution : 16 bits
Stream size : 85.4 MiB (8%)
Alignment : Aligned on interleaves
Interleave, duration : 83 ms (2.00 video frames)
Interleave, preload duration : 504 ms
Writing library : LAME3.97
Language : English


The second audio track it is the director's comment

General
Complete name : Rock 'N' Roll High School\Rock.'N'.Roll.High.School.(1979).BDRip.720p.-aAF.mkv
Format : Matroska
File size : 4.50 GiB
Duration : 1h 33mn
Overall bit rate : 6 896 Kbps
Encoded date : UTC 2011-02-25 06:50:02
Writing application : mkvmerge v4.5.0 ('Speed of Light') сборка от Feb 1 2011 02:10:32
Writing library : libebml v1.2.0 + libmatroska v1.1.0

Video
ID : 1
Format : AVC
Format/Info : Advanced Video Codec
Format profile : High@L4.1
Format settings, CABAC : Yes
Format settings, ReFrames : 5 frames
Muxing mode : Container profile=Unknown@4.1
Codec ID : V_MPEG4/ISO/AVC
Duration : 1h 33mn
Bit rate : 6 375 Kbps
Nominal bit rate : 6 512 Kbps
Width : 1 280 pixels
Height : 720 pixels
Display aspect ratio : 16:9
Frame rate : 23.976 fps
Resolution : 24 bits
Colorimetry : 4:2:0
Scan type : Progressive
Bits/(Pixel*Frame) : 0.289
Stream size : 4.15 GiB (92%)
Title : aAF & WSmit60
Writing library : x264 core 96 r1613 81e75e9
Encoding settings : cabac=1 / ref=5 / deblock=1:0:0 / analyse=0x3:0x133 / me=umh / subme=8 / psy=1 / psy_rd=1.00:0.00 / mixed_ref=1 / me_range=16 / chroma_me=1 / trellis=1 / 8x8dct=1 / cqm=0 / deadzone=21,11 / fast_pskip=0 / chroma_qp_offset=-2 / threads=12 / sliced_threads=0 / nr=0 / decimate=1 / interlaced=0 / constrained_intra=0 / bframes=3 / b_pyramid=2 / b_adapt=1 / b_bias=0 / direct=1 / weightb=1 / weightp=2 / keyint=240 / keyint_min=24 / scenecut=40 / intra_refresh=0 / rc_lookahead=40 / rc=2pass / mbtree=1 / bitrate=6512 / ratetol=1.0 / qcomp=0.60 / qpmin=10 / qpmax=51 / qpstep=4 / cplxblur=20.0 / qblur=0.5 / ip_ratio=1.40 / aq=1:1.00

Audio #1
ID : 2
Format : AC-3
Format/Info : Audio Coding 3
Codec ID : A_AC3
Duration : 1h 33mn
Bit rate mode : Constant
Bit rate : 192 Kbps
Channel(s) : 2 channels
Channel positions : L R
Sampling rate : 48.0 KHz
Stream size : 128 MiB (3%)
Title : English DD 2.0@192k

Audio #2
ID : 3
Format : AC-3
Format/Info : Audio Coding 3
Codec ID : A_AC3
Duration : 1h 33mn
Bit rate mode : Constant
Bit rate : 192 Kbps
Channel(s) : 2 channels
Channel positions : L R
Sampling rate : 48.0 KHz
Stream size : 128 MiB (3%)
Title : AVO(Севастьянов) DD 2.0@192k
Language : Russian

Text #1
ID : 4
Format : UTF-8
Codec ID : S_TEXT/UTF8
Codec ID/Info : UTF-8 Plain Text
Language : German

Text #2
ID : 5
Format : UTF-8
Codec ID : S_TEXT/UTF8
Codec ID/Info : UTF-8 Plain Text
Language : Spanish

Text #3
ID : 6
Format : UTF-8
Codec ID : S_TEXT/UTF8
Codec ID/Info : UTF-8 Plain Text
Language : Catalan

Text #4
ID : 7
Format : UTF-8
Codec ID : S_TEXT/UTF8
Codec ID/Info : UTF-8 Plain Text
Language : Hungarian

Text #5
ID : 8
Format : UTF-8
Codec ID : S_TEXT/UTF8
Codec ID/Info : UTF-8 Plain Text
Language : Croatian

Text #6
ID : 9
Format : UTF-8
Codec ID : S_TEXT/UTF8
Codec ID/Info : UTF-8 Plain Text
Language : Polish

Text #7
ID : 10
Format : UTF-8
Codec ID : S_TEXT/UTF8
Codec ID/Info : UTF-8 Plain Text
Language : Finnish





Soundtrack - Tracklist:

01. Ramones - Rock 'N' Roll High School
02. Ramones - I Want You Around
03. The Paley Brothers+Ramones - Come On Let's Go
04. Ramones - Medley (5 songs/live)
05. Nick Lowe - So It Goes
06. Brian Eno - Energy Fools The Magician
07. P.J. Soles - Rock 'N' Roll High School
08. Devo - Come Back Jonee
09. Eddie & The Hot Rods - Teenage Depression
10. Brownsville Station - Smoking In The Boys' Room
11. Chuck Berry - School Days
12. Todd Rundgren - A Dream Goes On Forever
13. Alice Cooper - School's Out

Exact Audio Copy V0.99 prebeta 3 from 28. July 2007

EAC extraction logfile from 20. January 2008, 22:41

Various / Rock 'N' Roll High School

Used drive : PLEXTOR CD-R PREMIUM2 Adapter: 1 ID: 1

Read mode : Secure
Utilize accurate stream : Yes
Defeat audio cache : Yes
Make use of C2 pointers : No

Read offset correction : 30
Overread into Lead-In and Lead-Out : Yes
Fill up missing offset samples with silence : Yes
Delete leading and trailing silent blocks : No
Null samples used in CRC calculations : Yes
Used interface : Installed external ASPI interface

Used output format : Internal WAV Routines
Sample format : 44.100 Hz; 16 Bit; Stereo


TOC of the extracted CD

Track | Start | Length | Start sector | End sector
––––––––––––––––––––––––––––-
1 | 0:00.33 | 2:20.25 | 33 | 10557
2 | 2:20.58 | 3:04.17 | 10558 | 24374
3 | 5:25.00 | 2:14.25 | 24375 | 34449
4 | 7:39.25 | 11:04.35 | 34450 | 84284
5 | 18:43.60 | 2:31.05 | 84285 | 95614
6 | 21:14.65 | 2:05.08 | 95615 | 104997
7 | 23:19.73 | 2:12.60 | 104998 | 114957
8 | 25:32.58 | 3:46.45 | 114958 | 131952
9 | 29:19.28 | 2:56.60 | 131953 | 145212
10 | 32:16.13 | 2:57.02 | 145213 | 158489
11 | 35:13.15 | 2:44.10 | 158490 | 170799
12 | 37:57.25 | 2:23.65 | 170800 | 181589
13 | 40:21.15 | 3:25.65 | 181590 | 197029


Range status and errors

Selected range

Filename C:\200\Rock & Roll High School (OST, 1979)\OST - Rock 'N' Roll High School.wav

Peak level 97.4 %
Range quality 100.0 %
Copy CRC 1291E1D8
Copy OK

No errors occurred


AccurateRip summary

Track 1 accurately ripped (confidence 2) [0628CA33]
Track 2 accurately ripped (confidence 2) [28691FF8]
Track 3 accurately ripped (confidence 2) [F8672270]
Track 4 accurately ripped (confidence 2) [EC9E12BE]
Track 5 accurately ripped (confidence 2) [9CED0E1F]
Track 6 accurately ripped (confidence 2) [6EA91962]
Track 7 accurately ripped (confidence 2) [7F39E49D]
Track 8 accurately ripped (confidence 2) [F971A5B6]
Track 9 accurately ripped (confidence 2) [0352841B]
Track 10 not present in database
Track 11 accurately ripped (confidence 2) [D2E3A792]
Track 12 accurately ripped (confidence 2) [3E326834]
Track 13 not present in database

11 track(s) accurately ripped
2 track(s) not present in the AccurateRip database

Some tracks could not be verified as accurate

End of status report




!!