Subcategories

Joe Satriani - Satchurated: Live in Montreal (2012)

Posted By: rd
Joe Satriani - Satchurated: Live in Montreal (2012)

Joe Satriani - Satchurated: Live In Montreal (2012)
EAC Rip | FLAC + CUE + LOG | 1,18 Gb | Covers | 2:30:47
Genre: Rock, Instrumental

If there is one thing that can be said about veteran guitarist Joe Satriani, it is that he loves to play in front of a crowd. One of the most respected and innovative guitarist’s in the world today released of the live-concert, Satchurated: Live in Montreal.


Release Date: April 24, 2012
Label: Pirate Label


Tracklist:

Disc: 1
1. Ice 9
2. Hordes of Locusts
3. Flying In A Blue Dream
4. Light Years Away
5. Memories
6. War
7. Premonition
8. Satch Boogie
9. Revelation
10. Pyrrhic Victoria
11. Crystal Planet
12. The Mystical Potato Head Groove Thing
13. Dream Song

Disc: 2
1. God Is Crying
2. Andalusia
3. Solitude
4. Littleworth Lane
5. Why
6. Wind In The Trees
7. Always With Me, Always With You
8. Big Bad Moon
9. Crowd Chant
10. Summer Song



Exact Audio Copy V1.0 beta 3 from 29. August 2011

EAC extraction logfile from 5. May 2012, 20:22

Joe Satriani / Satchurated- live In Montreal (Disc1)

Used drive : MATSHITABD-CMB UJ242AS Adapter: 0 ID: 1

Read mode : Secure
Utilize accurate stream : Yes
Defeat audio cache : Yes
Make use of C2 pointers : No

Read offset correction : 103
Overread into Lead-In and Lead-Out : No
Fill up missing offset samples with silence : Yes
Delete leading and trailing silent blocks : No
Null samples used in CRC calculations : Yes
Used interface : Installed external ASPI interface

Used output format : User Defined Encoder
Selected bitrate : 1024 kBit/s
Quality : High
Add ID3 tag : Yes
Command line compressor : C:\Program Files (x86)\Exact Audio Copy\Flac\flac.exe
Additional command line options : -V -8 -T "Date=%year%" -T "Genre=%genre%" %source%


TOC of the extracted CD

Track | Start | Length | Start sector | End sector
––––––––––––––––––––––––––––-
1 | 0:00.00 | 5:14.64 | 0 | 23613
2 | 5:14.64 | 4:54.71 | 23614 | 45734
3 | 10:09.60 | 6:32.55 | 45735 | 75189
4 | 16:42.40 | 6:27.00 | 75190 | 104214
5 | 23:09.40 | 8:56.39 | 104215 | 144453
6 | 32:06.04 | 6:32.02 | 144454 | 173855
7 | 38:38.06 | 4:26.67 | 173856 | 193872
8 | 43:04.73 | 4:57.71 | 193873 | 216218
9 | 48:02.69 | 7:47.65 | 216219 | 251308
10 | 55:50.59 | 5:15.23 | 251309 | 274956
11 | 61:06.07 | 5:42.59 | 274957 | 300665
12 | 66:48.66 | 6:51.71 | 300666 | 331561
13 | 73:40.62 | 4:57.03 | 331562 | 353839


Range status and errors

Selected range

Filename C:\EACrip\Joe Satriani - Satchurated- live In Montreal (Disc1).wav

Peak level 100.0 %
Extraction speed 4.6 X
Range quality 100.0 %
Test CRC 5B289476
Copy CRC 5B289476
Copy OK

No errors occurred


AccurateRip summary

Track 1 not present in database
Track 2 not present in database
Track 3 not present in database
Track 4 not present in database
Track 5 not present in database
Track 6 not present in database
Track 7 not present in database
Track 8 not present in database
Track 9 not present in database
Track 10 not present in database
Track 11 not present in database
Track 12 not present in database
Track 13 not present in database

None of the tracks are present in the AccurateRip database

End of status report

==== Log checksum DE2F5C03EFECC572B0C2BCAC7184F91BE3997CF18B1B0CFA7913CA3E3B8A4805 ====
***********
Exact Audio Copy V1.0 beta 3 from 29. August 2011

EAC extraction logfile from 6. May 2012, 5:52

Joe Satriani / Satchurated - Live In Montreal (Disc2)

Used drive : MATSHITABD-CMB UJ242AS Adapter: 0 ID: 1

Read mode : Secure
Utilize accurate stream : Yes
Defeat audio cache : Yes
Make use of C2 pointers : No

Read offset correction : 103
Overread into Lead-In and Lead-Out : No
Fill up missing offset samples with silence : Yes
Delete leading and trailing silent blocks : No
Null samples used in CRC calculations : Yes
Used interface : Installed external ASPI interface

Used output format : User Defined Encoder
Selected bitrate : 1024 kBit/s
Quality : High
Add ID3 tag : Yes
Command line compressor : C:\Program Files (x86)\Exact Audio Copy\Flac\flac.exe
Additional command line options : -V -8 -T "Date=%year%" -T "Genre=%genre%" %source%


TOC of the extracted CD

Track | Start | Length | Start sector | End sector
––––––––––––––––––––––––––––-
1 | 0:00.00 | 8:06.04 | 0 | 36453
2 | 8:06.04 | 6:22.34 | 36454 | 65137
3 | 14:28.38 | 0:59.44 | 65138 | 69606
4 | 15:28.07 | 3:47.16 | 69607 | 86647
5 | 19:15.23 | 7:08.64 | 86648 | 118811
6 | 26:24.12 | 9:03.20 | 118812 | 159556
7 | 35:27.32 | 3:50.02 | 159557 | 176808
8 | 39:17.34 | 9:07.60 | 176809 | 217893
9 | 48:25.19 | 3:44.55 | 217894 | 234748
10 | 52:09.74 | 8:26.50 | 234749 | 272748
11 | 60:36.49 | 4:14.20 | 272749 | 291818
12 | 64:50.69 | 7:19.18 | 291819 | 324761


Range status and errors

Selected range

Filename C:\EACrip\Joe Satriani - Satchurated - Live In Montreal (Disc2).wav

Peak level 100.0 %
Extraction speed 1.6 X
Range quality 99.8 %
Test CRC 3AADFADA
Copy CRC 3AADFADA
Copy OK

No errors occurred


AccurateRip summary

Track 1 not present in database
Track 2 not present in database
Track 3 not present in database
Track 4 not present in database
Track 5 not present in database
Track 6 not present in database
Track 7 not present in database
Track 8 not present in database
Track 9 not present in database
Track 10 not present in database
Track 11 not present in database
Track 12 not present in database

None of the tracks are present in the AccurateRip database

End of status report

==== Log checksum 95A0D68A710F7D4291629DFCBCE28A0946018D4CBAFB73B4B650E8EE3EE0AC89 ====

Прошу обратить внимание на то, что весь материал, представленный выше, предназначен исключительно для ознакомления! Приобретайте, пожалуйста, легальные диски, которые вне всякого сомнения станут достойным украшением вашей коллекции!

FLAC

Fpost 1 Fpost 2 Fpost 3
Fpost 4 Fpost 5 Fpost 6

По ссылкам ниже
Убедительно прошу вас начинать скачивание кликнув
"нет, спасибо"
Скачивание начнется немедленно!
On the links below
To start your free download just press
"нет, спасибо" ("No, thanks") button.
Download will start immediately!

Unibytes 1 Unibytes 2 Unibytes 3
Unibytes 4 Unibytes 5 Unibytes 6

или / or

Gigabase 1 Gigabase 2 Gigabase 3
Gigabase 4 Gigabase 5 Gigabase 6

или / or

Share4web 1 Share4web 2 Share4web 3
Share4web 4 Share4web 5 Share4web 6