Subcategories

The Ramones - Pleasant Dreams (1981/2002) [Expanded & Remastered Reissue] FULLY RENEWED

Posted By: Rehabilly
The Ramones - Pleasant Dreams (1981/2002) [Expanded & Remastered Reissue] FULLY RENEWED

Ramones - Pleasant Dreams (1981/2002)
EAC | FLAC+CUE+LOG or MP3 CBR 320 | 54:25 min | 402 or 123 MB
Rhino Remaster 2002. Deluxe Expanded Edition

Pleasant Dreams is the sixth studio album by the Ramones. It reached #58 on the US Billboard album charts. The album was frowned upon by guitarist Johnny Ramone because to him it sounded "too slick" and is generally viewed as part of the Ramones' pop experimentation. The album's lyrics also closely follow the fallout between Joey Ramone and Johnny Ramone due to Johnny "stealing" Joey's girl. Songwriting is credited entirely either to vocalist Joey Ramone or bassist Dee Dee Ramone instead of the whole band like previous efforts, as such, this is the only album not to feature an "outside" songwriter.

This expanded & remastered edition, first produced by 10cc's Graham Gouldman, includes the original album's 12 songs plus 7 previously unreleased bonus tracks.

Tracklist:

01. We Want The Airwaves
02. All's Quiet On The Eastern Front
03. The KKK Took My Baby Away
04. Don't Go
05. You Sound Like You're Sick
06. It's Not My Place (In The 9 To 5 World)
07. She's A Sensation
08. 7-11
09. You Didn't Mean Anything To Me
10. Come On Now
11. This Business Is Killing Me
12. Sitting In My Room
13. Touring [1981 Version]
14. I Can't Get You Out Of My Mind
15. Chop Suey [Alternate Version]
16. Sleeping Troubles [Demo]
17. Kicks To Try [Demo]
18. I'm Not An Answer [Demo]
19. Stares In This Town [Demo]

Exact Audio Copy V1.0 beta 1 from 15. November 2010

EAC extraction logfile from 1. November 2013, 21:47

Ramones / Pleasant Dreams [RM 2002]

Used drive : PIONEER DVD-RW DVR-219L Adapter: 5 ID: 0

Read mode : Secure
Utilize accurate stream : Yes
Defeat audio cache : Yes
Make use of C2 pointers : No

Read offset correction : 6
Overread into Lead-In and Lead-Out : No
Fill up missing offset samples with silence : Yes
Delete leading and trailing silent blocks : No
Null samples used in CRC calculations : Yes
Used interface : Installed external ASPI interface

Used output format : Internal WAV Routines
Sample format : 44.100 Hz; 16 Bit; Stereo


TOC of the extracted CD

Track | Start | Length | Start sector | End sector
––––––––––––––––––––––––––––-
1 | 0:00.00 | 3:21.67 | 0 | 15141
2 | 3:21.67 | 2:13.60 | 15142 | 25176
3 | 5:35.52 | 2:32.03 | 25177 | 36579
4 | 8:07.55 | 2:48.27 | 36580 | 49206
5 | 10:56.07 | 2:42.50 | 49207 | 61406
6 | 13:38.57 | 3:23.28 | 61407 | 76659
7 | 17:02.10 | 3:29.25 | 76660 | 92359
8 | 20:31.35 | 3:35.42 | 92360 | 108526
9 | 24:07.02 | 3:00.18 | 108527 | 122044
10 | 27:07.20 | 2:33.15 | 122045 | 133534
11 | 29:40.35 | 2:41.47 | 133535 | 145656
12 | 32:22.07 | 2:37.18 | 145657 | 157449
13 | 34:59.25 | 2:49.55 | 157450 | 170179
14 | 37:49.05 | 3:24.65 | 170180 | 185544
15 | 41:13.70 | 3:32.20 | 185545 | 201464
16 | 44:46.15 | 2:07.07 | 201465 | 210996
17 | 46:53.22 | 2:09.63 | 210997 | 220734
18 | 49:03.10 | 2:55.32 | 220735 | 233891
19 | 51:58.42 | 2:26.43 | 233892 | 244884


Range status and errors

Selected range

Filename C:\_AvaxHome.ru__Rehabilly\1981- Pleasant Dreams [Expanded & Remastered 2002]\Ramones - Pleasant Dreams (R2-78156).wav

Peak level 98.8 %
Extraction speed 0.3 X
Range quality 100.0 %
Test CRC 806435C2
Copy CRC 806435C2
Copy OK

No errors occurred


AccurateRip summary

Track 1 accurately ripped (confidence 17) [C1E0C679]
Track 2 accurately ripped (confidence 17) [1C818E41]
Track 3 accurately ripped (confidence 17) [D229A135]
Track 4 accurately ripped (confidence 17) [3E16305B]
Track 5 accurately ripped (confidence 17) [C11EFECE]
Track 6 accurately ripped (confidence 17) [5658080A]
Track 7 accurately ripped (confidence 17) [39B50BA8]
Track 8 accurately ripped (confidence 17) [E3C012F1]
Track 9 accurately ripped (confidence 17) [608C87D4]
Track 10 accurately ripped (confidence 17) [3D94A0E2]
Track 11 accurately ripped (confidence 17) [7A23DBD5]
Track 12 accurately ripped (confidence 17) [68631552]
Track 13 accurately ripped (confidence 17) [83D9E77A]
Track 14 accurately ripped (confidence 17) [C2A76D12]
Track 15 accurately ripped (confidence 17) [6D08D5E5]
Track 16 accurately ripped (confidence 17) [D91D8700]
Track 17 accurately ripped (confidence 17) [B77DB8C6]
Track 18 accurately ripped (confidence 17) [C0423C4A]
Track 19 accurately ripped (confidence 18) [41F11346]

All tracks accurately ripped

End of status report

==== Log checksum 715692CB791B96FFBA25423F6313BC466BA77DE4C3E71DA88332FD8004D56BAA ====


Original Album Produced by Graham Gouldman. Arrangements by The Ramones
Original Album Recorded March – April 1981 at:
Media Sound, NYC - Engineered by Lincoln Y. Clapp & Harvey Goldberg;
Strawberry Studio North, Stockport, England - Engineered by Chris Nagle;
Strawberry Studio North, Dorking, England - Engineered by Keith Bessey.
Reissue Produced for Release by Bill Inglot & Gary Stewart
Remastered by Dan Hersch and Bill Inglot at Digiprep.

• Joey Ramone - lead vocals
• Johnny Ramone - guitar
• Dee Dee Ramone - bass, vocals
• Marky Ramone - drums

additional musicians:
- Dick Emerson: keyboards
- Dave Hassel: percussion
- Graham Gouldman: backing vocals
- Russell Mael: backing vocals
- Ian Wilson: backing vocals
- Deborah Harry: backing vocals
- Kate Pierson: backing vocals
- Cindy Wilson: backing vocals

Original Release Date: July 20, 1981
Re-Release Date: August 20, 2002
Format: Original Recordings Remastered
Label: Warner Archives/Rhino Entertainment
Catalog No.: R2 78156
The Right choice*
http://filepost.com/files/e3924ae5/RAM8102PD04F.part1.rar
http://filepost.com/files/4e3m31a5/RAM8102PD04F.part2.rar

all covers.png (149 MB)
http://filepost.com/files/8c228586/RAM8102PD515C.rar

lossy.mp3
http://filepost.com/files/9m42a8ec/RAM8102PD20G.rar


Original CD -> EAC Image, embedded cuesheet & more, foobar2000 ready, etc.
(all CUEs, LOGs and other technical info includes in the internal "CD_Support" archive)


_______________________________