The Ramones - Ramones (1976/2001) [Expanded & Remastered Reissue] FULLY RENEWED & RESTORED

Posted By: Rehabilly
The Ramones - Ramones (1976/2001) [Expanded & Remastered Reissue] FULLY RENEWED & RESTORED

Ramones - Ramones (1976/2001) [Expanded & Remastered Reissue]
EAC | FLAC+CUE+LOG or MP3 CBR 320 | 44:46 min | 323 or 101 MB
Rhino Remaster 2001. Deluxe Expanded Edition

Rhino's 2001 expanded reissue of the Ramones' seminal debut album would have been welcomed if it had simply brought the original album back in print. It may have been available as part of the wonderful All the Stuff & More, Vol. 1 compilation, but there's nothing like hearing the original album in a concentrated blast of gleeful primitivism – unless it's hearing it in this expanded form with eight bonus tracks. Apart from the final cut, the single version of "Blitzkrieg Bop", these are all demos, some appearing on All the Stuff & More, some appearing on a 1997 7" on Norton Records, some previously unreleased. It would be misleading to call these bonus cuts revelatory, even if they do confirm the group's affection for pop, but they're all welcome additions to the album, especially since they do contain "I Can't Be" and "I Don't Wanna Be Learned/I Don't Wanna Be Tamed", songs that never made it to Ramones albums, plus early versions of "I Don't Care" and "You Should Never Have Opened That Door". On top of the music is the 20-page booklet, containing full artwork and lyrics, tons of rare photographs, and notes from Donna Gaines. It's a terrific package, and it's not just for the dedicated Ramones or punk fan – it's essential for any rock library.

Tracklist:

01. Blitzkrieg Bop
02. Beat On The Brat
03. Judy Is A Punk
04. I Wanna Be Your Boyfriend
05. Chain Saw
06. Now I Wanna Sniff Some Glue
07. I Don't Wanna Go Down To The Basement
08. Loudmouth
09. Havana Affair
10. Listen To My Heart
11. 53rd & 3rd
12. Let's Dance
13. I Don't Wanna Walk Around With You
14. Today Your Love, Tomorrow The World
15. I Wanna Be Your Boyfriend [Demo]
16. Judy Is A Punk [Demo]
17. I Don't Care [Demo]
18. I Can't Be [Demo]
19. Now I Wanna Sniff Some Glue [Demo]
20. I Don't Wanna Be Learned / I Don't Wanna Be Tamed [Demo]
21. You Should Never Have Opened That Door [Demo]
22. Blitzkrieg Bop [Single Version]

Exact Audio Copy V1.0 beta 1 from 15. November 2010

EAC extraction logfile from 24. October 2013, 19:30

Ramones / Ramones [RM 2001]

Used drive : PIONEER DVD-RW DVR-219L Adapter: 5 ID: 0

Read mode : Secure
Utilize accurate stream : Yes
Defeat audio cache : Yes
Make use of C2 pointers : No

Read offset correction : 6
Overread into Lead-In and Lead-Out : No
Fill up missing offset samples with silence : Yes
Delete leading and trailing silent blocks : No
Null samples used in CRC calculations : Yes
Used interface : Installed external ASPI interface

Used output format : Internal WAV Routines
Sample format : 44.100 Hz; 16 Bit; Stereo


TOC of the extracted CD

Track | Start | Length | Start sector | End sector
––––––––––––––––––––––––––––-
1 | 0:00.32 | 2:13.33 | 32 | 10039
2 | 2:13.65 | 2:32.67 | 10040 | 21506
3 | 4:46.57 | 1:32.38 | 21507 | 28444
4 | 6:19.20 | 2:24.50 | 28445 | 39294
5 | 8:43.70 | 1:56.55 | 39295 | 48049
6 | 10:40.50 | 1:36.20 | 48050 | 55269
7 | 12:16.70 | 2:40.17 | 55270 | 67286
8 | 14:57.12 | 2:15.05 | 67287 | 77416
9 | 17:12.17 | 1:57.03 | 77417 | 86194
10 | 19:09.20 | 1:58.55 | 86195 | 95099
11 | 21:08.00 | 2:21.35 | 95100 | 105709
12 | 23:29.35 | 1:52.22 | 105710 | 114131
13 | 25:21.57 | 1:43.08 | 114132 | 121864
14 | 27:04.65 | 2:17.30 | 121865 | 132169
15 | 29:22.20 | 3:02.07 | 132170 | 145826
16 | 32:24.27 | 1:36.70 | 145827 | 153096
17 | 34:01.22 | 1:55.25 | 153097 | 161746
18 | 35:56.47 | 1:56.43 | 161747 | 170489
19 | 37:53.15 | 1:42.02 | 170490 | 178141
20 | 39:35.17 | 1:05.03 | 178142 | 183019
21 | 40:40.20 | 1:54.10 | 183020 | 191579
22 | 42:34.30 | 2:12.17 | 191580 | 201496


Range status and errors

Selected range

Filename C:\_AvaxHome.ru__Rehabilly\1976- Ramones [Expanded & Remastered 2001]\Ramones - Ramones (R2-74306).wav

Peak level 99.2 %
Extraction speed 0.3 X
Range quality 100.0 %
Test CRC F2E14BAE
Copy CRC F2E14BAE
Copy OK

No errors occurred


AccurateRip summary

Track 1 accurately ripped (confidence 55) [D63FB915]
Track 2 accurately ripped (confidence 55) [40619F82]
Track 3 accurately ripped (confidence 55) [7D9308E9]
Track 4 accurately ripped (confidence 55) [84BB2D36]
Track 5 accurately ripped (confidence 55) [11D32E68]
Track 6 accurately ripped (confidence 55) [ACC89847]
Track 7 accurately ripped (confidence 54) [24AA55F4]
Track 8 accurately ripped (confidence 55) [1522788C]
Track 9 accurately ripped (confidence 55) [4581CE09]
Track 10 accurately ripped (confidence 55) [76C5426F]
Track 11 accurately ripped (confidence 55) [994AB7CF]
Track 12 accurately ripped (confidence 55) [617AA89B]
Track 13 accurately ripped (confidence 55) [E4DBA984]
Track 14 accurately ripped (confidence 55) [A69752D3]
Track 15 accurately ripped (confidence 51) [4858C60F]
Track 16 accurately ripped (confidence 51) [32DDC775]
Track 17 accurately ripped (confidence 51) [A2EAEAFB]
Track 18 accurately ripped (confidence 50) [6B244200]
Track 19 accurately ripped (confidence 51) [5BAEEB0B]
Track 20 accurately ripped (confidence 51) [2A19B10A]
Track 21 accurately ripped (confidence 51) [3B9982F4]
Track 22 accurately ripped (confidence 50) [0765CB8B]

All tracks accurately ripped

End of status report

==== Log checksum A13613F8FBC418B08F68768D6E4C0779C66B6757D668C3BA0B03F9F4AAF6630D ====


Original Album Produced by Craig Leon
Recorded February 2-19, 1976 at Plaza Sound, Radio City Music Hall, New York
Reissue Produced for Release by Bill Inglot & Gary Stewart
Remastered by Dan Hersch and Bill Inglot at Digiprep.

• Joey Ramone - lead vocals
• Johnny Ramone - guitar
• Dee Dee Ramone - bass, b-vocals
• Tommy Ramone - drums

Original Release Date: April 23, 1976
Re-Release Date: Juny 19, 2001
Format: Original Recordings Remastered
Label: Warner Archives/Rhino Entertainment
Catalog No.: R2 74306
The Right choice*
http://filepost.com/files/2257a259/RAM7601ST960F.rar

all covers.png (160 MB)
http://filepost.com/files/84a876md/RAM7601ST483C.rar

lossy.mp3
http://filepost.com/files/635dff6m/RAM7601ST20G.rar


* Original CD -> EAC Image, embedded cuesheet & more, foobar2000 ready, etc.
(all CUEs, LOGs and other technical info includes in the internal "CD_Support" archive)


_______________________________