The Ramones - Adios Amigos! (1995) RESTORED

Posted By: Rehabilly
The Ramones - Adios Amigos! (1995) RESTORED

The Ramones - ¡Adios Amigos! (1995)
FLAC+CUE+LOG or MP3 CBR 320 | 36:24 min | 274 or 82 MB

The Ramones announced before the release of ¡Adios Amigos! that the record would likely be their last – unless it sold in massive quantities, that is. While it's hardly their best effort, ¡Adios Amigos! is an admirable way to bow out. The Ramones haven't progressed much since the mid-'80s, yet they have recaptured a bit of the inspiration that fueled their last great album, Too Tough to Die. Even with the extra kick of energy, there are moments on the album that veer too close to self-parody – even the grungy stomp through Tom Waits' "I Don't Wanna Grow Up", one of the record's best moments, seems forced. Still, the weakest moments of the record outshine the best songs on the stiff and over-produced Brain Drain and Mondo Bizarro. They might not have been on the top of their game, yet the Ramones knew that a record like ¡Adios Amigos! was the right way to call it a day – it rocks and it rolls, and it's not an embarrassment.

~ Stephen Thomas Erlewine, all music group
The Ramones - Adios Amigos! (1995) RESTORED

Tracklist:

01. I Don't Want To Grow Up
02. Makin' Monsters For My Friends
03. It's Not For Me To Know
04. The Crusher
05. Life's A Gas
06. Take The Pain Away
07. I Love You
08. Cretin Family
09. Have A Nice Day
10. Scattergun
11. Got Alot To Say
12. She Talks To Rainbows
13. Born To Die In Berlin
14. Spiderman (hidden track)

Exact Audio Copy V1.0 beta 1 from 15. November 2010

EAC extraction logfile from 28. January 2011, 14:12

Ramones / Adios Amigos!

Used drive : PLEXTOR CD-R PREMIUM2 Adapter: 8 ID: 0

Read mode : Secure
Utilize accurate stream : Yes
Defeat audio cache : Yes
Make use of C2 pointers : No

Read offset correction : 30
Overread into Lead-In and Lead-Out : No
Fill up missing offset samples with silence : Yes
Delete leading and trailing silent blocks : No
Null samples used in CRC calculations : Yes
Used interface : Installed external ASPI interface

Used output format : Internal WAV Routines
Sample format : 44.100 Hz; 16 Bit; Stereo


TOC of the extracted CD

Track | Start | Length | Start sector | End sector
––––––––––––––––––––––––––––-
1 | 0:00.00 | 2:45.37 | 0 | 12411
2 | 2:45.37 | 2:35.60 | 12412 | 24096
3 | 5:21.22 | 2:51.58 | 24097 | 36979
4 | 8:13.05 | 2:27.07 | 36980 | 48011
5 | 10:40.12 | 3:34.43 | 48012 | 64104
6 | 14:14.55 | 2:42.60 | 64105 | 76314
7 | 16:57.40 | 2:20.72 | 76315 | 86886
8 | 19:18.37 | 2:09.50 | 86887 | 96611
9 | 21:28.12 | 1:38.73 | 96612 | 104034
10 | 23:07.10 | 2:30.40 | 104035 | 115324
11 | 25:37.50 | 1:41.40 | 115325 | 122939
12 | 27:19.15 | 3:14.52 | 122940 | 137541
13 | 30:33.67 | 5:50.40 | 137542 | 163831


Range status and errors

Selected range

Filename C:\AvaxHome.ru\Ramones - Adios Amigos! (1995) [1st US press]\Ramones - Adios Amigos! (RARD-11273).wav

Peak level 100.0 %
Extraction speed 0.9 X
Range quality 99.9 %
Test CRC 2890F8CA
Copy CRC 2890F8CA
Copy OK

No errors occurred


AccurateRip summary

Track 1 accurately ripped (confidence 22) [93367BBC]
Track 2 accurately ripped (confidence 22) [2F659680]
Track 3 accurately ripped (confidence 22) [3E9B1BC1]
Track 4 accurately ripped (confidence 22) [A0360981]
Track 5 accurately ripped (confidence 22) [B8035E0D]
Track 6 accurately ripped (confidence 22) [7F9D5A6D]
Track 7 accurately ripped (confidence 22) [ED645C9C]
Track 8 accurately ripped (confidence 22) [F10117DC]
Track 9 accurately ripped (confidence 22) [47B42B62]
Track 10 accurately ripped (confidence 22) [146EA108]
Track 11 accurately ripped (confidence 22) [19587816]
Track 12 accurately ripped (confidence 22) [189744B5]
Track 13 accurately ripped (confidence 22) [32C06E83]

All tracks accurately ripped

End of status report

==== Log checksum BDD5BC0592095DC94C26972646BCD2D2273BD14EB593C3C8E6B1AA49F075E16C ====



Produced by Daniel Rey. Engineered by Bryce Goggin
Recorded at Baby Monster Studio, New York, NY.

• Joey Ramone - lead vocals, backing vocals on "4"
• Johnny Ramone - guitar
• C.J. Ramone - bass, lead vocals on "2, 4, 8, 10"
• Marky Ramone - drums

Release Date: July 18, 1995
Format: Original Recording
Label: Radioactive Records
Source: RARD 11273-2
The Right choice*
http://filepost.com/files/f2b4142d/RAM195ADA20F.part1.rar
http://filepost.com/files/11e738d4/RAM195ADA20F.part2.rar
http://filepost.com/files/374ff2b5/RAM195ADA20F.part3.rar

all covers.png/jpg (78 MB) NEW
http://filepost.com/files/4e9d14mc/RAM195ADA367C.rar

lossy.mp3
http://filepost.com/files/am91848e/RAM195ADA20G.rar


* Original CD -> EAC image, embedded cuesheet & more, foobar2000 ready, etc.
(all CUEs, LOGs and other technical info includes in the internal "CD_Support" archive)


___________________________________