Subcategories

The Ramones - Acid Eaters (1993) [1st US press] RESTORED

Posted By: Rehabilly
The Ramones - Acid Eaters (1993) [1st US press] RESTORED

Ramones - Acid Eaters (1993)
FLAC+CUE+LOG or MP3 CBR 320 | 31:10 min | 230 or 72 MB

Acid Eaters forms a musical tribute to the Ramones' 60s favourites, and highlights the influence that earlier bands such as The Beach Boys, The Who, The Rolling Stones, Bob Dylan and more…

The Ramones have been playing the same great tune for almost 20 years, and Acid Eaters is no exception. The only catch being that here they play the same great tune with 12 cover versions. The guest appearances of Pete Townshend ("Substitute"), Sebastian Bach (Skid Row), and ex-porn star Traci Lords ("Somebody to Love") help make the record a blast. Romping, stomping and breathing their own particular Ramonecentricities into these songs, this record acknowledges the tremendous debt that punk owes to 60s rock. Nonetheless, the blood that pumps through these tracks is pure punk–pure Ramones punk. What other band would dare turn the beautiful desolation of "Have You Ever Seen The Rain" into an exuberant, supercharged punk anthem?..
Tracklist:

01. Journey To The Center Of The Mind - (originally by Amboy Dukes)
02. Substitute - (originally by The Who)
03. Out Of Time - (originally by The Rolling Stones)
04. The Shape Of Things To Come - (originally by Max Frost and the Troopers)
05. Somebody To Love - (originally by The Great Society)
06. When I Was Young - (originally by The Animals)
07. 7 And 7 Is - (originally by Love)
08. My Back Pages - (originally by Bob Dylan)
09. Can't Seem To Make You Mine - (originally by The Seeds)
10. Have You Ever Seen The Rain - (originally by Creedence Clearwater Revival)
11. I Can't Control Myself - (originally by The Troggs)
12. Surf City - (originally by Jan and Dean)

Exact Audio Copy V1.0 beta 1 from 15. November 2010

EAC extraction logfile from 28. January 2011, 12:50

Ramones / Acid Eaters

Used drive : PIONEER DVD-RW DVR-116D Adapter: 1 ID: 0

Read mode : Secure
Utilize accurate stream : Yes
Defeat audio cache : Yes
Make use of C2 pointers : No

Read offset correction : 96
Overread into Lead-In and Lead-Out : No
Fill up missing offset samples with silence : Yes
Delete leading and trailing silent blocks : No
Null samples used in CRC calculations : Yes
Used interface : Installed external ASPI interface

Used output format : Internal WAV Routines
Sample format : 44.100 Hz; 16 Bit; Stereo


TOC of the extracted CD

Track | Start | Length | Start sector | End sector
––––––––––––––––––––––––––––-
1 | 0:00.00 | 2:51.55 | 0 | 12879
2 | 2:51.55 | 3:15.37 | 12880 | 27541
3 | 6:07.17 | 2:41.30 | 27542 | 39646
4 | 8:48.47 | 1:46.45 | 39647 | 47641
5 | 10:35.17 | 2:31.65 | 47642 | 59031
6 | 13:07.07 | 3:16.15 | 59032 | 73746
7 | 16:23.22 | 1:50.63 | 73747 | 82059
8 | 18:14.10 | 2:27.70 | 82060 | 93154
9 | 20:42.05 | 2:42.47 | 93155 | 105351
10 | 23:24.52 | 2:22.28 | 105352 | 116029
11 | 25:47.05 | 2:55.67 | 116030 | 129221
12 | 28:42.72 | 2:26.58 | 129222 | 140229


Range status and errors

Selected range

Filename C:\AvaxHome.ru\Ramones - Acid Eaters (1993) [1st US press]\Ramones - Acid Eaters (RARD-10913).wav

Peak level 100.0 %
Extraction speed 0.5 X
Range quality 100.0 %
Test CRC 03F42507
Copy CRC 03F42507
Copy OK

No errors occurred


AccurateRip summary

Track 1 accurately ripped (confidence 10) [3CED9976]
Track 2 accurately ripped (confidence 10) [F144C8C5]
Track 3 accurately ripped (confidence 10) [04EAA155]
Track 4 accurately ripped (confidence 10) [AAE3E4CF]
Track 5 accurately ripped (confidence 10) [C88460F6]
Track 6 accurately ripped (confidence 9) [61488169]
Track 7 accurately ripped (confidence 10) [91D80A12]
Track 8 accurately ripped (confidence 10) [815BDF90]
Track 9 accurately ripped (confidence 10) [ADE14523]
Track 10 accurately ripped (confidence 10) [8D36AB94]
Track 11 accurately ripped (confidence 10) [DF52DBEF]
Track 12 accurately ripped (confidence 9) [986C138F]

All tracks accurately ripped

End of status report

==== Log checksum 2449C9FE4BB81368285AA9CD38337AC9F2BC61902A3897E70458826113F4E1F1 ====



Produced by Scott Hackwith. Recorded by Trent Slatton
Basic tracks recorded at Baby Monster Studio, New York, NY
Overdubs recorded at Baby Monster & Chung King House Of Metal, New York, NY.

• Joey Ramone - lead vocals
• Johnny Ramone - guitar
• C.J. Ramone - bass, lead vocals on "1, 4, 8"
• Marky Ramone - drums

additional musicians:
- Joe McGinty - all keyboards

Release Date: December 1993
Fprmat: Original recording
Label: Radioactive Records
Catalog No.: RARD 10913-2
The Right choice*
http://filepost.com/files/268cb9b6/RAM193AES04F.part1.rar
http://filepost.com/files/29fbbm99/RAM193AES04F.part2.rar

all covers.png (71 MB) NEW
http://filepost.com/files/em9a81ac/RAM193AES442C.rar

lossy.mp3
http://filepost.com/files/61b9a4c3/RAM193AES20G.rar


* Original CD -> EAC image, embedded cuesheet & more, foobar2000 ready, etc.
(all CUEs, LOGs and other technical info includes in the internal "CD_Support" archive)


___________________________________