Subcategories

The Queers - Move Back Home + Surf Goddess EP (1995) RESTORED

Posted By: Rehabilly
The Queers - Move Back Home + Surf Goddess EP (1995) RESTORED

The Queers - Move Back Home (1995)
WV+CUE+LOG or MP3 CBR 320 | 33:03 min | 252 or 76 MB
Original Recording / Lookout Records LK-114CD

A quick scan of the words in the song titles make it clear that these guys are coming straight out of the Ramones-land. And that's just fine, because demonstrates that the Queers are getting better and better at channeling the black leather jacket-clad spirit of their forefathers… The best demonstration of how good they've gotten of crafting great pop songs is the fact that it's hard to tell which song is a Brian Wilson cover and which one is an original!


The concert above is the 2013's show filmed especially for Spanish TV



Tracklist:

01. She's A Cretin
02. Next Stop Rehabilitation
03. High School Psychopath II
04. If You Only Had A Brain
05. I Gotta Girlfriend
06. Hawaii
07. From Your Boy
08. Definitely
09. Everything's Going My Way
10. Cut It Dude
11. I Can't Get Invited To The Prom
12. That Girl
13. Peppermint Girl

Exact Audio Copy V0.99 prebeta 4 from 23. January 2008

EAC extraction logfile from 18. February 2009, 10:38

The Queers / Move Back Home

Used drive : ASUS DRW-1814BL Adapter: 1 ID: 0

Read mode : Secure
Utilize accurate stream : Yes
Defeat audio cache : Yes
Make use of C2 pointers : No

Read offset correction : 6
Overread into Lead-In and Lead-Out : No
Fill up missing offset samples with silence : Yes
Delete leading and trailing silent blocks : No
Null samples used in CRC calculations : Yes
Used interface : Installed external ASPI interface

Used output format : Internal WAV Routines
Sample format : 44.100 Hz; 16 Bit; Stereo


TOC of the extracted CD

Track | Start | Length | Start sector | End sector
––––––––––––––––––––––––––––-
1 | 0:00.00 | 2:10.37 | 0 | 9786
2 | 2:10.37 | 2:03.50 | 9787 | 19061
3 | 4:14.12 | 2:07.48 | 19062 | 28634
4 | 6:21.60 | 1:46.25 | 28635 | 36609
5 | 8:08.10 | 2:53.00 | 36610 | 49584
6 | 11:01.10 | 2:00.05 | 49585 | 58589
7 | 13:01.15 | 3:36.07 | 58590 | 74796
8 | 16:37.22 | 2:32.58 | 74797 | 86254
9 | 19:10.05 | 2:16.37 | 86255 | 96491
10 | 21:26.42 | 2:00.50 | 96492 | 105541
11 | 23:27.17 | 3:04.48 | 105542 | 119389
12 | 26:31.65 | 1:40.72 | 119390 | 126961
13 | 28:12.62 | 4:49.68 | 126962 | 148704


Range status and errors

Selected range

Filename C:\200\The Queers - Move Back Home (1995)\The Queers - Move Back Home (Orig).wav

Peak level 100.0 %
Range quality 99.9 %
Copy CRC 81CD51D0
Test CRC 81CD51D0
Copy OK

No errors occurred


AccurateRip summary

Track 1 cannot be verified as accurate (confidence 2) [DE5781B2], AccurateRip returned [9DCBD376]
Track 2 cannot be verified as accurate (confidence 3) [4FB1C1D5], AccurateRip returned [CA95A089]
Track 3 cannot be verified as accurate (confidence 3) [468D98F7], AccurateRip returned [BEC1E7EB]
Track 4 cannot be verified as accurate (confidence 3) [A9E6D489], AccurateRip returned [B0DA34D5]
Track 5 cannot be verified as accurate (confidence 3) [22A99E87], AccurateRip returned [8B85EFF7]
Track 6 cannot be verified as accurate (confidence 3) [E4BC1027], AccurateRip returned [D2D9757F]
Track 7 cannot be verified as accurate (confidence 4) [CA0F97AA], AccurateRip returned [6EE5028A]
Track 8 cannot be verified as accurate (confidence 3) [3B2D0918], AccurateRip returned [D201A547]
Track 9 cannot be verified as accurate (confidence 4) [FDC848AD], AccurateRip returned [0062964D]
Track 10 cannot be verified as accurate (confidence 3) [E2C4EACA], AccurateRip returned [368F9835]
Track 11 cannot be verified as accurate (confidence 3) [266064B1], AccurateRip returned [0511A2A3]
Track 12 cannot be verified as accurate (confidence 4) [F1FDAF9D], AccurateRip returned [6C669FDA]
Track 13 cannot be verified as accurate (confidence 2) [AF435773], AccurateRip returned [E913B9E8]

No tracks could be verified as accurate
You may have a different pressing from the one(s) in the database

End of status report


Disc ID: 000ea79c-0094bc90-bc07be0d
Track [ CRC ] Status
01 [de5781b2] (03/08) Accurately ripped as in pressing(s) #2
02 [4fb1c1d5] (03/09) Accurately ripped as in pressing(s) #2
03 [468d98f7] (03/09) Accurately ripped as in pressing(s) #2
04 [a9e6d489] (03/09) Accurately ripped as in pressing(s) #2
05 [22a99e87] (03/09) Accurately ripped as in pressing(s) #2
06 [e4bc1027] (03/09) Accurately ripped as in pressing(s) #2
07 [ca0f97aa] (03/09) Accurately ripped as in pressing(s) #2
08 [3b2d0918] (03/09) Accurately ripped as in pressing(s) #2
09 [fdc848ad] (03/09) Accurately ripped as in pressing(s) #2
10 [e2c4eaca] (03/09) Accurately ripped as in pressing(s) #2
11 [266064b1] (03/09) Accurately ripped as in pressing(s) #2
12 [f1fdaf9d] (03/09) Accurately ripped as in pressing(s) #2
13 [af435773] (03/08) Accurately ripped as in pressing(s) #2
Offsetted by -1892:
01 [9dcbd376] (05/08) Accurately ripped as in pressing(s) #1
02 [ca95a089] (06/09) Accurately ripped as in pressing(s) #1
03 [bec1e7eb] (06/09) Accurately ripped as in pressing(s) #1
04 [b0da34d5] (06/09) Accurately ripped as in pressing(s) #1
05 [8b85eff7] (06/09) Accurately ripped as in pressing(s) #1
06 [d2d9757f] (06/09) Accurately ripped as in pressing(s) #1
07 [6ee5028a] (06/09) Accurately ripped as in pressing(s) #1
08 [a2407610] (06/09) Partial match to pressing(s) #1
09 [0062964d] (06/09) Accurately ripped as in pressing(s) #1
10 [a519b63e] (06/09) Partial match to pressing(s) #1
11 [631f1f87] (06/09) Partial match to pressing(s) #1
12 [48aa5827] (06/09) Partial match to pressing(s) #1
13 [dbf2aced] (05/08) Partial match to pressing(s) #1

Track [ CRC32 ] [W/O NULL] [ LOG ]
– [81CD51D0] [8A782263] CRC32
01 [F7D08B1C] [37B55CC3]
02 [87062E75] [C6EDB8DA]
03 [6861D1F3] [45DC402E]
04 [642E3D85] [01B53A05]
05 [505C9D9F] [D22FF3C0]
06 [F578A70A] [6881FDE7]
07 [189B182A] [0B331F28]
08 [38C188D7] [86C38A73]
09 [C9D0525C] [0674FA61]
10 [EC4D792D] [518349D3]
11 [DCBCCE6F] [EA814F06]
12 [587D530A] [177B0D05]
13 [567643D7] [59775FBC]

Recorded by Mass Giorgini at Sonic Iguana Studios, IN.

• Joe "Queer" King - lead vocals, guitar
• Chris "B-Face" Barnard - bass guitar, backing vocals
• Hugh O'Neill - drums, backing vocals

Release Date: May 5, 1995
Format: Original recording reissued
Label: Lookout Records
Catalog No.: LK-114CD

–––––––––––––––––––––––––––––––––––––––––––––-

The Queers - Move Back Home + Surf Goddess EP (1995) RESTORED

The Queers - Surf Goddess (EP 1995)
WV+CUE+LOG or MP3 CBR 320 | 10:57 min | 89 or 34 MB
Original Recording / Lookout Records LK-108CD


Tracklist:

01. Surf Goddess
02. Mirage
03. Get Over You
04. Quit Talkin'

Exact Audio Copy V0.99 prebeta 4 from 23. January 2008

EAC extraction logfile from 18. February 2009, 12:35

The Queers / Surf Goddess

Used drive : ASUS DRW-1814BL Adapter: 1 ID: 0

Read mode : Secure
Utilize accurate stream : Yes
Defeat audio cache : Yes
Make use of C2 pointers : No

Read offset correction : 6
Overread into Lead-In and Lead-Out : No
Fill up missing offset samples with silence : Yes
Delete leading and trailing silent blocks : No
Null samples used in CRC calculations : Yes
Used interface : Installed external ASPI interface

Used output format : Internal WAV Routines
Sample format : 44.100 Hz; 16 Bit; Stereo


TOC of the extracted CD

Track | Start | Length | Start sector | End sector
––––––––––––––––––––––––––––-
1 | 0:00.00 | 3:15.50 | 0 | 14674
2 | 3:15.50 | 3:02.60 | 14675 | 28384
3 | 6:18.35 | 2:32.52 | 28385 | 39836
4 | 8:51.12 | 2:06.23 | 39837 | 49309


Range status and errors

Selected range

Filename C:\200\The Queers - Surf Goddess (EP, 1995)\The Queers - Surf Goddess (EP).wav

Peak level 100.0 %
Range quality 99.9 %
Copy CRC 7943E89D
Copy OK

No errors occurred


AccurateRip summary

Track 1 accurately ripped (confidence 2) [55FA9F6E]
Track 2 accurately ripped (confidence 2) [1765C978]
Track 3 accurately ripped (confidence 2) [305A6591]
Track 4 accurately ripped (confidence 2) [13175C4A]

All tracks accurately ripped

End of status report

Produced by Larry Livermore
Recorded by Mass Giorgini at Sonic Iguana Studios, IN.

• Joe Queer - lead vocals, guitar
• B-Face - bass guitar, backing vocals
• Hugh O'Neill - drums, backing vocals
+ Danny Vapid - guitar

Release Date: February 10, 1995
Format: EP, Original recording
Label: Lookout Records
Catalog No.: LK-108CD
Move Back Home
The Right choice*
http://www.nitroflare.com/view/12DD96BC71D836A
http://www.nitroflare.com/view/7B7B9466ACE7967

all covers.png (60 MB) NEW
http://www.nitroflare.com/view/638DD41B15F124D

lossy.mp3
http://www.nitroflare.com/view/5EAE603E0052565


Surf Goddess EP (Covers included in both types of archives)
The Right choice*
http://www.nitroflare.com/view/05D5206E10AF7A8

lossy.mp3
http://www.nitroflare.com/view/BD385B17CDA5232


* Original CD -> EAC Image, embedded cuesheet & more, foobar2000 ready, etc.
(all CUEs, LOGs and other technical info includes in the internal "CD_Support" archive).

_______________________________