Subcategories

The Queers + The Manges - Acid Beaters (Love And Let Die) [Split CD, 2003] NEW POST

Posted By: Rehabilly
The Queers + The Manges - Acid Beaters (Love And Let Die) [Split CD, 2003] NEW POST

The Queers + The Manges - Acid Beaters (Love And Let Die)
WV+CUE+LOG or MP3 CBR 320 Kbps | 28:57 min | 212 or 67 MB

The Queers + The Manges - Acid Beaters (Love And Let Die) [Split CD, 2003] NEW POST

In the trashy tradition of the Ramones and Mono Men comes this fun split release from Rotterdam's Stardumb imprint, featuring the Queers and Italian leather jacket revivalists Manges blasting through a brace of covers and originals. The Queers are first with a hyper take on the bubblegum classic "Chewy Chewy"; they also find a way to ring a few drops of vitality from well-used surf rock like "Wipeout" and "Ft. Lauderdale". Best might be the Helen Love cover "Girl About Town", for which the Queers show off their veterans' command of harmony and dynamics. For their part, Manges turn in five overdriven originals, augmented by a run through Cheap Trick's "Surrender". Manges aren't much for complicated chord changes – their sound is accented Screeching Weasel, pure and simple. But it's snotty, well-played, and sharper than a bomber jacket lapel, as standout cuts like "Morphine" and "Barrage of Hate" illustrate.

~ Johnny Loftus, all media guide
Tracklist:

01. The Queers – Chewy Chewy
02. The Queers – Ft. Lauderdale
03. The Queers – Girl About Town
04. The Queers – Sunday Morning
05. The Queers – Wipeout
06. The Queers – With A Girl Like You


Produced by The Queers & Mattew Ellard.
Engineered by Mattew Ellard
Recorded at Q-Division Studio in Boston, MA

• Joe Queer - vocals, guitar
• Dangerous Dave - bass
• JJ Rassler - guitar
• Dusty Watson - drums

07. The Manges – Frontline
08. The Manges – Surrender
09. The Manges – Barrage Of Hate
10. The Manges – Saving Private Pierson
11. The Manges – I Don't Wanna Live In Hell
12. The Manges – Morphine


Produced by Herve' Peawee and The Manges
Recorded by Danilo Mandelli at Elfo Studio, Winter 2003

"Barrage Of Hate" dedicated in memory of Douglas Colvin (Dee Dee Ramone).

• Andrea - vocals
• Matteo - guitar
• Mass - bass guitar
• Manuel - drums

Mastered in July 2003 at the Excess Studio by Robbert Kok in Rotterdam, Netherlands

Exact Audio Copy V0.99 prebeta 4 from 23. January 2008

EAC extraction logfile from 9. March 2009, 6:50

Various / Acid Beaters (Love And Let Die)

Used drive : ASUS DRW-1814BL Adapter: 1 ID: 0

Read mode : Secure
Utilize accurate stream : Yes
Defeat audio cache : Yes
Make use of C2 pointers : No

Read offset correction : 6
Overread into Lead-In and Lead-Out : No
Fill up missing offset samples with silence : Yes
Delete leading and trailing silent blocks : No
Null samples used in CRC calculations : Yes
Used interface : Installed external ASPI interface

Used output format : Internal WAV Routines
Sample format : 44.100 Hz; 16 Bit; Stereo


TOC of the extracted CD

Track | Start | Length | Start sector | End sector
––––––––––––––––––––––––––––-
1 | 0:00.00 | 2:46.60 | 0 | 12509
2 | 2:46.60 | 1:33.66 | 12510 | 19550
3 | 4:20.51 | 2:49.24 | 19551 | 32249
4 | 7:10.00 | 2:55.27 | 32250 | 45401
5 | 10:05.27 | 2:40.46 | 45402 | 57447
6 | 12:45.73 | 2:27.40 | 57448 | 68512
7 | 15:13.38 | 2:16.69 | 68513 | 78781
8 | 17:30.32 | 3:26.19 | 78782 | 94250
9 | 20:56.51 | 2:15.30 | 94251 | 104405
10 | 23:12.06 | 2:04.12 | 104406 | 113717
11 | 25:16.18 | 1:50.24 | 113718 | 121991
12 | 27:06.42 | 1:50.33 | 121992 | 130274


Range status and errors

Selected range

Filename C:\200\QUEERS+MANGES - Acid Beaters (Love And Let Die)\Queers + Manges - Acid Beaters (Split).wav

Peak level 96.6 %
Range quality 99.9 %
Test CRC 9B5C7FEA
Copy CRC 9B5C7FEA
Copy OK

No errors occurred


AccurateRip summary

Track 1 not present in database
Track 2 not present in database
Track 3 not present in database
Track 4 not present in database
Track 5 not present in database
Track 6 not present in database
Track 7 not present in database
Track 8 not present in database
Track 9 not present in database
Track 10 not present in database
Track 11 not present in database
Track 12 not present in database

None of the tracks are present in the AccurateRip database

End of status report


Disc ID: 000d69fa-007d0b63-9d06c90c
Track [ CRC ] Status
01 [612664e7] (02/02) Accurately ripped as in pressing(s) #1
02 [a01f6d89] (02/02) Accurately ripped as in pressing(s) #1
03 [61cfb392] (02/02) Accurately ripped as in pressing(s) #1
04 [fec4489d] (02/02) Accurately ripped as in pressing(s) #1
05 [e17a9880] (02/02) Accurately ripped as in pressing(s) #1
06 [45e464c1] (02/02) Accurately ripped as in pressing(s) #1
07 [eeac45db] (02/02) Accurately ripped as in pressing(s) #1
08 [ccae668e] (02/02) Accurately ripped as in pressing(s) #1
09 [de10c9a9] (02/02) Accurately ripped as in pressing(s) #1
10 [422e0134] (02/02) Accurately ripped as in pressing(s) #1
11 [10a43562] (02/02) Accurately ripped as in pressing(s) #1
12 [78e9910a] (02/02) Accurately ripped as in pressing(s) #1

Track [ CRC32 ] [W/O NULL] [ LOG ]
– [9B5C7FEA] [A3B69666] CRC32
01 [1D32ED45] [A339CC9F]
02 [F2655CF0] [147BED1E]
03 [449ADC7E] [67E75296]
04 [239CD6CC] [B639EB5C]
05 [FE2D2B96] [14CF7859]
06 [544293AF] [6F8E5254]
07 [0136F33B] [AAB4EFCA]
08 [BAFD0C83] [CFB242FD]
09 [0C040E35] [DD0B9006]
10 [5299888A] [EEF63A5B]
11 [79FC9A89] [2553310E]
12 [4373927C] [BFB8D880]

Release Date: November 4, 2003
Format: Split CD, Original recording
Label: Stardumb Records
Catalog No.: SDR.35
The Right choice*
http://filepost.com/files/e342mdf1/TQ203ABS996V.part1.rar
http://filepost.com/files/1f3851e4/TQ203ABS996V.part2.rar

all covers.png/jpg (40 MB) New back-cover
http://filepost.com/files/4445e4ba/TQ203ABS360C.rar

lossy.mp3
http://filepost.com/files/6ff94m1a/TQ203ABS20G.rar


* Original CD -> EAC Image, embedded cuesheet & more, foobar2000 ready, etc.
(all CUEs, LOGs and other technical info includes in the internal "CD_Support" archive).

_______________________________