Subcategories

The Queers - Don't Back Down (1996) Technical repost

Posted By: Rehabilly
The Queers - Don't Back Down (1996) Technical repost

The Queers - Don't Back Down
WV+CUE+LOG or MP3 CBR 320 | 41:02 min | 241 or 71 MB
Original Recording / Lookout Records #LK140CD

The Queers - Don't Back Down (1996) Technical repost

It doesn't get any better than this. On Don't Back Down the rip-roaring punk songs with no melody ("No Tit", for instance) are more than counterbalanced by the many mind-blowingly catchy songs ("Punk Rock Girls", "Number One", "Janelle, Janelle"). Some of the songs, dare it be said, even surpass many of Brian Wilson's perfect pop songs. Whereas the Ben Weasel-fronted group the Riverdales aspire to be nothing more than Ramones imitators, the Queers successfully use the musical vocabularies developed by the Ramones (as well as the Beach Boys and others) and take their songs to new incredible levels.

~ Kembrew McLeod, all media guide


Tracklist:

01. No Tit
02. Punk Rock Girls
03. I'm OK, You're Fucked
04. Number One
05. Don't Back Down
06. I Only Drink Bud
07. I Always Knew
08. Born To Do Dishes
09. Janelle, Janelle
10. Brush Your Teeth
11. Sidewalk Surfin' Girl
12. Another Girl
13. Love Love Love
14. I Can't Get Over You

Exact Audio Copy V0.99 prebeta 4 from 23. January 2008

EAC extraction logfile from 19. February 2009, 2:32

The Queers / Don't Back Down

Used drive : ASUS DRW-1814BL Adapter: 1 ID: 0

Read mode : Secure
Utilize accurate stream : Yes
Defeat audio cache : Yes
Make use of C2 pointers : No

Read offset correction : 6
Overread into Lead-In and Lead-Out : No
Fill up missing offset samples with silence : Yes
Delete leading and trailing silent blocks : No
Null samples used in CRC calculations : Yes
Used interface : Installed external ASPI interface

Used output format : Internal WAV Routines
Sample format : 44.100 Hz; 16 Bit; Stereo


TOC of the extracted CD

Track | Start | Length | Start sector | End sector
––––––––––––––––––––––––––––-
1 | 0:00.00 | 1:29.62 | 0 | 6736
2 | 1:29.62 | 2:42.35 | 6737 | 18921
3 | 4:12.22 | 1:00.63 | 18922 | 23484
4 | 5:13.10 | 3:10.60 | 23485 | 37794
5 | 8:23.70 | 1:58.57 | 37795 | 46701
6 | 10:22.52 | 2:05.48 | 46702 | 56124
7 | 12:28.25 | 2:57.45 | 56125 | 69444
8 | 15:25.70 | 1:56.05 | 69445 | 78149
9 | 17:22.00 | 2:44.67 | 78150 | 90516
10 | 20:06.67 | 1:16.33 | 90517 | 96249
11 | 21:23.25 | 2:00.67 | 96250 | 105316
12 | 23:24.17 | 1:47.10 | 105317 | 113351
13 | 25:11.27 | 2:47.63 | 113352 | 125939
14 | 27:59.15 | 13:03.15 | 125940 | 184679


Range status and errors

Selected range

Filename C:\200\The Queers - Don't Back Down (1996)\The Queers - Don't Back Down (Orig).wav

Peak level 99.9 %
Range quality 100.0 %
Copy CRC 891B80D0
Copy OK

No errors occurred


AccurateRip summary

Track 1 accurately ripped (confidence 6) [4B72E445]
Track 2 accurately ripped (confidence 6) [617D72D3]
Track 3 accurately ripped (confidence 6) [C4709804]
Track 4 accurately ripped (confidence 6) [AAA3F580]
Track 5 accurately ripped (confidence 6) [E296F29C]
Track 6 accurately ripped (confidence 6) [161B973D]
Track 7 accurately ripped (confidence 6) [EC9D554A]
Track 8 accurately ripped (confidence 6) [5EB920D3]
Track 9 accurately ripped (confidence 6) [1EC9AC51]
Track 10 accurately ripped (confidence 6) [ABD2A2D7]
Track 11 accurately ripped (confidence 6) [35334714]
Track 12 accurately ripped (confidence 6) [3C09BF0D]
Track 13 accurately ripped (confidence 6) [16450724]
Track 14 accurately ripped (confidence 6) [A5200087]

All tracks accurately ripped

End of status report

Produced by JJ Rassler and Mass Giorgini
Engineered and Mixed by Mass Giorgini
Recorded & Mixed at Big Sounds Studios, Westbrook, Maine, May 3-11, 1996
Executive Producer: Lawrence Livermore

• Joe King - lead vocals, guitar
• Chris Barnard - bass, backing vocals
• Hugh O'Neill - drums, backing vocals

guest musicians:
- JJ Rassler - guitar, vocals
- Lisa Marr - backups and lead vocals on "14"

Original Release Date: August 27, 1996
Format: Original recording
Label: Lookout Records
Catalog No.: LK140-2

The Right choice*
http://filepost.com/files/d8d551df/TQ196DBD796V.part1.rar
http://filepost.com/files/b858335e/TQ196DBD796V.part2.rar

alll scans (png)
http://filepost.com/files/3bf72866/TQ196DBD390C.rar

lossy.mp3
http://filepost.com/files/746c9f68/TQ196DBD20G.rar

* Original CD -> EAC Image, embedded cuesheet & more, foobar2000 ready, etc.
Re-ripped & re-scanned somewhere in 2009. Complete PNG Artwork -> 32 MB


_______________________________