Subcategories

The Queers - Beyond The Valley... (2000) NEW POST

Posted By: Rehabilly
The Queers - Beyond The Valley... (2000) NEW POST

The Queers - Beyond The Valley… (2000)
WV+CUE+LOG or MP3 CBR 320 | 32:54 min | 261 or 75 MB
Hopeless Records # HR 643-2

Beyond the Valley… is a much darker and less overtly funny album than almost anything the band has ever done. There's a lot of anger expressed in these songs, and little of it is of the cheerful middle-finger-salute variety head Queer Joe King specializes in. (It may be worth noting that this was the Queers' first release after the 1999 death of King's longtime friend and bandmate Hugh O'Neill). "Little Rich Working Class Oi-Boy", "Stupid F**king Vegan", "Strangle The Girl", and "Babyface (Boo-Hoo-Hoo)" are a lot more cutting and vengeful than is normally King's style, and frankly, two songs with titles involving King's favorite word for female genitalia is probably one too many. There are a few blasts of good old-fashioned Queers fun, especially the catchy singalongs "I Just Called to Say F**k You" and "I Hate Your F**king Guts", but overall, this record sounds like it was uncomfortable to make, and at times it's certainly uncomfortable to listen to. The weird, near psychedelic title track, a droning, Velvet Underground-style riff topped with a free association mantra by Joe King, is among the most unexpected things the Queers have ever done.

~ Stewart Mason, all media guide
Tracklist:

01. Uncouth
02. Little Rich Working Class Oi Boy
03. Strangle The Girl
04. I'm Not A Mongo (Anymore)
05. Stupid Fucking Vegan
06. In With The Out Crowd
07. I Wanna Know
08. Journey To The Center Of Your Empty Fucking Skull
09. I Hate Your Fucking Guts
10. Babyface (Boo-Hoo-Hoo)
11. My Cunt's A Cunt
12. I Just Called To Say Fuck You
13. Just Say Cunt
14. Theme From Beyond The Valley Of The Assfuckers

Exact Audio Copy V0.99 prebeta 4 from 23. January 2008

EAC extraction logfile from 1. March 2009, 18:38

The Queers / Beyond The Valley…

Used drive : ASUS DRW-1814BL Adapter: 1 ID: 0

Read mode : Secure
Utilize accurate stream : Yes
Defeat audio cache : Yes
Make use of C2 pointers : No

Read offset correction : 6
Overread into Lead-In and Lead-Out : No
Fill up missing offset samples with silence : Yes
Delete leading and trailing silent blocks : No
Null samples used in CRC calculations : Yes
Used interface : Installed external ASPI interface

Used output format : Internal WAV Routines
Sample format : 44.100 Hz; 16 Bit; Stereo


TOC of the extracted CD

Track | Start | Length | Start sector | End sector
––––––––––––––––––––––––––––-
1 | 0:00.00 | 1:39.47 | 0 | 7471
2 | 1:39.47 | 1:39.28 | 7472 | 14924
3 | 3:19.00 | 2:33.42 | 14925 | 26441
4 | 5:52.42 | 1:12.33 | 26442 | 31874
5 | 7:05.00 | 1:53.17 | 31875 | 40366
6 | 8:58.17 | 2:41.43 | 40367 | 52484
7 | 11:39.60 | 2:13.50 | 52485 | 62509
8 | 13:53.35 | 2:17.45 | 62510 | 72829
9 | 16:11.05 | 1:35.30 | 72830 | 79984
10 | 17:46.35 | 3:30.12 | 79985 | 95746
11 | 21:16.47 | 2:02.73 | 95747 | 104969
12 | 23:19.45 | 2:45.55 | 104970 | 117399
13 | 26:05.25 | 1:37.22 | 117400 | 124696
14 | 27:42.47 | 5:10.25 | 124697 | 147971


Range status and errors

Selected range

Filename C:\200\The Queers - Beyond The Valley… (2000)\The Queers - Beyond The Valley.wav

Peak level 98.9 %
Range quality 100.0 %
Copy CRC BEEAC668
Copy OK

No errors occurred


AccurateRip summary

Track 1 accurately ripped (confidence 3) [091C0985]
Track 2 accurately ripped (confidence 3) [7887283C]
Track 3 accurately ripped (confidence 3) [AA4EF432]
Track 4 accurately ripped (confidence 3) [043849B0]
Track 5 accurately ripped (confidence 3) [DBB9FB7E]
Track 6 accurately ripped (confidence 3) [C275EBBA]
Track 7 accurately ripped (confidence 3) [80B293F9]
Track 8 accurately ripped (confidence 3) [AD444333]
Track 9 accurately ripped (confidence 3) [CD113521]
Track 10 accurately ripped (confidence 3) [0A156992]
Track 11 accurately ripped (confidence 3) [2D65A764]
Track 12 accurately ripped (confidence 3) [262B2AE4]
Track 13 accurately ripped (confidence 3) [31C45E28]
Track 14 accurately ripped (confidence 3) [3FC70C43]

All tracks accurately ripped

End of status report

all songs written by Joe King except "1" by King/Chris Barrows,
"4", "5", "12" by King/Rutherford
Produced & Recorded by Jim Tierney at The Electric Cave Studio

• Joe Queer - vocals, guitar
• Dangerous Dave - bass
• Lurch Nobody - drums, vocals

guest stars:
- Wimpy Rutherford - lead vocals on "5 & 12"
- Joe Brian - guitar solos on "2 & 10"

Release Date: May 16, 2000
Format: Explicit Lyrics
Label: Hopeless Records
Catalog No.: HR 643-2
The Right choice*
http://filepost.com/files/edm5877a/TQ200BTV79V.part1.rar
http://filepost.com/files/3abc44da/TQ200BTV79V.part2.rar

all covers.png (48 MB)
http://filepost.com/files/c37mm47f/TQ200BTV348C.rar

lossy.mp3
http://filepost.com/files/cffm1551/TQ200BTV20G.rar


* Original CD -> EAC Image, embedded cuesheet & more, foobar2000 ready, etc.
(all CUEs, LOGs and other technical info includes in the internal "CD_Support" archive).

_______________________________