Subcategories

The Queers - Everything's OK (CD-EP, 1998) RESTORED

Posted By: Rehabilly
The Queers - Everything's OK (CD-EP, 1998) RESTORED

The Queers - Everything's O.K. (EP 1998)
WV+CUE+LOG or MP3 CBR 320 | 8:40 min | 67 or 20 MB

Tracklist:

01. Everything's OK (EP version)
02. Queerbait
03. Get A Life And Live It Loser
04. I Enjoy Being A Boy (EP version)

Exact Audio Copy V0.99 prebeta 4 from 23. January 2008

EAC extraction logfile from 16. February 2009, 10:52

The Queers / Everything's O.K. (EP)

Used drive : ASUS DRW-1814BL Adapter: 1 ID: 0

Read mode : Secure
Utilize accurate stream : Yes
Defeat audio cache : Yes
Make use of C2 pointers : No

Read offset correction : 6
Overread into Lead-In and Lead-Out : No
Fill up missing offset samples with silence : Yes
Delete leading and trailing silent blocks : No
Null samples used in CRC calculations : Yes
Used interface : Installed external ASPI interface

Used output format : Internal WAV Routines
Sample format : 44.100 Hz; 16 Bit; Stereo


TOC of the extracted CD

Track | Start | Length | Start sector | End sector
––––––––––––––––––––––––––––-
1 | 0:00.00 | 2:16.10 | 0 | 10209
2 | 2:16.10 | 1:42.15 | 10210 | 17874
3 | 3:58.25 | 1:45.65 | 17875 | 25814
4 | 5:44.15 | 2:53.72 | 25815 | 38861


Range status and errors

Selected range

Filename C:\200\The Queers - Everything's OK (EP, 1998)\The Queers - Everything's OK (EP).wav

Peak level 98.2 %
Range quality 100.0 %
Test CRC 926261D5
Copy CRC 926261D5
Copy OK

No errors occurred


AccurateRip summary

Track 1 not present in database
Track 2 not present in database
Track 3 not present in database
Track 4 not present in database

None of the tracks are present in the AccurateRip database

End of status report


Disc ID: 00016a5a-0005aba0-21020604
Track [ CRC ] Status
01 [3b902d47] (02/02) Accurately ripped as in pressing(s) #1
02 [4feb238e] (02/02) Accurately ripped as in pressing(s) #1
03 [ce4fb458] (02/02) Accurately ripped as in pressing(s) #1
04 [69595ac2] (02/02) Accurately ripped as in pressing(s) #1

Track [ CRC32 ] [W/O NULL] [ LOG ]
– [926261D5] [74233762] CRC32
01 [D4501506] [AE56352F]
02 [E09C874A] [54AD3CCC]
03 [4FB13FD5] [8AF0A31B]
04 [E3267636] [8878ED5D]

Produced by Mass Giorgini
Recorded February 12-14th at Big Sound Studios in Westbrook,Maine
Mixed at Sonic Iguana by Mass Giorgini, March 1st 1998

• Joe "Queer" King - lead vocals, guitar
• Geoff "Useless" Palmer - bass guitar, backing vocals
• Rick "Respectable" Orcut - drums, backing vocals

Mr. Palmer & Mr. Orcut on that moment were a members of The Guts.

Release Date: May 19, 1998
Format: EP, Original recording
Label: Hopeless Records
Catalog No.: HR-631-2
The Right choice*
http://filepost.com/files/5a64496f/TQ198EOK49V.rar

all covers.png (34 MB) Some NEW
http://filepost.com/files/7edce3fa/TQ198EOK405C.rar

lossy.mp3
http://filepost.com/files/9mb576d4/TQ198EOK20G.rar


* Original CD -> EAC Image, embedded cuesheet & more, foobar2000 ready, etc.
(all CUEs, LOGs and other technical info includes in the internal "CD_Support" archive).

_______________________________