Subcategories

V.A. - Putumayo Presents Songs With Women (5CD, 1996-2008)

Posted By: Speedyclick
V.A. - Putumayo Presents Songs With Women (5CD, 1996-2008)

V.A. - Putumayo Presents Songs With Women (5CD, 1996-2008)
EAC Rip | FLAC (image/tracks & cue & log) & mp3 @ 320 kbps | tracks: 57 | Covers | 3:31:32 | ~ 1,5 Gb & 717 Mb
Label: Putumayo World Music | 5% recovery record | World, folk, latin, jazz

Delightful package of 5 albums from Putumayo with female singers of many styles from all around the world: Women's work, Women of Africa, Women of Latin America, Women of the world acoustic and Women of jazz. A happy mosaic of rhythms, melodies, languages and styles with known and unknown female voices. Enjoy an uplifting and refreshing musical experience of three and a half hours in lossless.

V.A. - Putumayo Presents Songs With Women (5CD, 1996-2008)

V.A. - Putumayo Presents Women's Work (1996)
EAC Rip | FLAC (tracks & cue & log) & mp3 @ 320 kbps | tracks: 13 | Cover | 53:47 | ~ 339 Mb & 125 Mb

In 1996 the interest in singer-songwriters was cresting and women were a big part of the emerging trend. The songs they wrote were not about fanciful dream images; they came from real life and were insightful, bitter, funny, and often painfully intimate. While a vanguard of younger artists were just finding their way, established performers were also being rediscovered, and the two groups gave each other considerable inspiration and support. These 13 songs are an amazingly accurate time capsule of a period when the vogue finally shifted to include singers who used small forces to sort out big problems and overwhelming emotions. Romances go sour, philosophy brings cold comfort, and reality is sometimes too much to stomach, but the women keep going as best they can despite craziness, opposition on various fronts, and their own frailty. With Ani DiFranco, Janis Ian, Vonda Shepard, and Toni Childs.
Christina Roden, Amazon

As a long-time fan of Ani DiFranco, I was thrilled to find this rocking, live version of "Cradle and All". I didn't know any of the other artists, but soon grew to love them. This has become one of those albums I can't live without! The CD includes quite a few up-and-comers, all of whom I hope begin gaining the widespread attention they deserve. Most of the songs have a folk edge to them, but a couple break the mold. The songs tend to not be overtly political, focusing mostly on stories of things that happen to women. Many of these stories will ring a familiar chord. If you are a fan of contemporary women's music and are looking to expand your horizons, this album is the perfect starting point!

This CD is one I bought at random, because I happened to like the cover, and it's one I've never regretted. It rarely leaves my CD player for long. If you're looking for real lyrics that have some true poetry in them, sung by beautiful voices, and accompanied with actual music, then you've found the right CD. There are a few tracks that I don't care for, but that's to be expected. Barbara Kessler's "Notion" is perfect, and Eliza Gilkyson's "Wild Horses" makes me cry every time. I've discovered several new artists from this CD that have since become some of my favorites. God bless Putamayo. Buy the CD.
Amazon customers
TRACKLIST
01. Ani Difranco - Cradle And All (Live)
02. Catie Curtis - The Wolf
03. Janis Ian - When the Silence Falls
04. Vonda Shepard - Maryland
05. Toshi Reagon - Just Enough
06. Barbara Kessler - Notion
07. Fiona Joyce - Letting Go
08. Eliza Gilkyson - Wild Horse
09. Kristen Hall - Thru Cryin'
10. Laura Love - If You Leave Me
11. Ferron - Testimony
12. Christine Kane - Off The Ground
13. Toni Childs - I Met a Man (Live)

Exact Audio Copy V0.99 prebeta 5 from 4. May 2009

EAC extraction logfile from 8. October 2009, 10:21

Various / Putumayo Presents: Women's Work

Used drive : SAMSUNG CDRW/DVD SN-324S Adapter: 1 ID: 0

Read mode : Secure
Utilize accurate stream : Yes
Defeat audio cache : Yes
Make use of C2 pointers : No

Read offset correction : 6
Overread into Lead-In and Lead-Out : No
Fill up missing offset samples with silence : Yes
Delete leading and trailing silent blocks : No
Null samples used in CRC calculations : Yes
Used interface : Installed external ASPI interface
Gap handling : Appended to previous track

Used output format : User Defined Encoder
Selected bitrate : 768 kBit/s
Quality : High
Add ID3 tag : No
Command line compressor : C:\Programfiler\Exact Audio Copy\FLAC\FLAC.EXE
Additional command line options : -V -8 -T "artist=%a" -T "title=%t" -T "album=%g" -T "date=%y" -T "tracknumber=%n" -T "genre=%m" %s


TOC of the extracted CD

Track | Start | Length | Start sector | End sector
––––––––––––––––––––––––––––-
1 | 0:00.00 | 3:58.40 | 0 | 17889
2 | 3:58.40 | 3:14.30 | 17890 | 32469
3 | 7:12.70 | 2:33.25 | 32470 | 43969
4 | 9:46.20 | 3:52.30 | 43970 | 61399
5 | 13:38.50 | 4:29.42 | 61400 | 81616
6 | 18:08.17 | 3:47.38 | 81617 | 98679
7 | 21:55.55 | 4:52.42 | 98680 | 120621
8 | 26:48.22 | 3:59.10 | 120622 | 138556
9 | 30:47.32 | 4:37.48 | 138557 | 159379
10 | 35:25.05 | 4:58.55 | 159380 | 181784
11 | 40:23.60 | 4:20.45 | 181785 | 201329
12 | 44:44.30 | 4:06.42 | 201330 | 219821
13 | 48:50.72 | 4:56.08 | 219822 | 242029


Track 1

Filename C:\EAC rips\Putumayo Presents- Women's Work (1996)\01 - Ani Difranco - Cradle And All (Live) .wav

Pre-gap length 0:00:02.00

Peak level 82.7 %
Track quality 100.0 %
Test CRC 53C9C41E
Copy CRC 53C9C41E
Cannot be verified as accurate (confidence 6) [ACAE7420], AccurateRip returned [D7CDF968]
Copy OK

Track 2

Filename C:\EAC rips\Putumayo Presents- Women's Work (1996)\02 - Catie Curtis - The Wolf .wav

Pre-gap length 0:00:02.90

Peak level 62.1 %
Track quality 100.0 %
Test CRC B695097B
Copy CRC B695097B
Cannot be verified as accurate (confidence 6) [F07016D0], AccurateRip returned [2E9D7CC2]
Copy OK

Track 3

Filename C:\EAC rips\Putumayo Presents- Women's Work (1996)\03 - Janis Ian - When the Silence Falls .wav

Pre-gap length 0:00:01.57

Peak level 99.1 %
Track quality 100.0 %
Test CRC CF29BD51
Copy CRC CF29BD51
Cannot be verified as accurate (confidence 6) [0A766056], AccurateRip returned [CACF7B8C]
Copy OK

Track 4

Filename C:\EAC rips\Putumayo Presents- Women's Work (1996)\04 - Vonda Shepard - Maryland .wav

Pre-gap length 0:00:02.57

Peak level 99.1 %
Track quality 99.7 %
Test CRC 0BDE43D5
Copy CRC 0BDE43D5
Cannot be verified as accurate (confidence 6) [364B23C9], AccurateRip returned [AFD4114D]
Copy OK

Track 5

Filename C:\EAC rips\Putumayo Presents- Women's Work (1996)\05 - Toshi Reagon - Just Enough .wav

Pre-gap length 0:00:01.57

Peak level 85.0 %
Track quality 99.6 %
Test CRC 2C027A1F
Copy CRC 2C027A1F
Cannot be verified as accurate (confidence 6) [2D8C94B5], AccurateRip returned [B276635D]
Copy OK

Track 6

Filename C:\EAC rips\Putumayo Presents- Women's Work (1996)\06 - Barbara Kessler - Notion .wav

Pre-gap length 0:00:02.56

Peak level 93.8 %
Track quality 100.0 %
Test CRC 79F33EBC
Copy CRC 79F33EBC
Cannot be verified as accurate (confidence 6) [ECA902B9], AccurateRip returned [939A0609]
Copy OK

Track 7

Filename C:\EAC rips\Putumayo Presents- Women's Work (1996)\07 - Fiona Joyce - Letting Go .wav

Pre-gap length 0:00:01.53

Peak level 94.7 %
Track quality 99.9 %
Test CRC 5D690571
Copy CRC 5D690571
Cannot be verified as accurate (confidence 6) [A36A9ED0], AccurateRip returned [56EC05C6]
Copy OK

Track 8

Filename C:\EAC rips\Putumayo Presents- Women's Work (1996)\08 - Eliza Gilkyson - Wild Horse .wav

Pre-gap length 0:00:02.53

Peak level 90.5 %
Track quality 100.0 %
Test CRC D538F376
Copy CRC D538F376
Cannot be verified as accurate (confidence 6) [1C898138], AccurateRip returned [DDEED07C]
Copy OK

Track 9

Filename C:\EAC rips\Putumayo Presents- Women's Work (1996)\09 - Kristen Hall - Thru Cryin' .wav

Pre-gap length 0:00:01.20

Peak level 75.6 %
Track quality 100.0 %
Test CRC BF4C923B
Copy CRC BF4C923B
Cannot be verified as accurate (confidence 6) [12E941BB], AccurateRip returned [8B575DC9]
Copy OK

Track 10

Filename C:\EAC rips\Putumayo Presents- Women's Work (1996)\10 - Laura Love - If You Leave Me .wav

Pre-gap length 0:00:02.57

Peak level 74.7 %
Track quality 100.0 %
Test CRC F30FF941
Copy CRC F30FF941
Cannot be verified as accurate (confidence 6) [239B3811], AccurateRip returned [14732B15]
Copy OK

Track 11

Filename C:\EAC rips\Putumayo Presents- Women's Work (1996)\11 - Ferron - Testimony .wav

Pre-gap length 0:00:02.86

Peak level 99.9 %
Track quality 100.0 %
Test CRC 3859B734
Copy CRC 3859B734
Cannot be verified as accurate (confidence 6) [1191F08C], AccurateRip returned [2554CDF6]
Copy OK

Track 12

Filename C:\EAC rips\Putumayo Presents- Women's Work (1996)\12 - Christine Kane - Off The Ground .wav

Pre-gap length 0:00:02.84

Peak level 96.6 %
Track quality 100.0 %
Test CRC AE3FA1B1
Copy CRC AE3FA1B1
Cannot be verified as accurate (confidence 6) [8F19FBB9], AccurateRip returned [011D7727]
Copy OK

Track 13

Filename C:\EAC rips\Putumayo Presents- Women's Work (1996)\13 - Toni Childs - I Met a Man (Live) .wav

Pre-gap length 0:00:02.56

Peak level 97.9 %
Track quality 100.0 %
Test CRC 1DFDCA9F
Copy CRC 1DFDCA9F
Cannot be verified as accurate (confidence 6) [AF4A2094], AccurateRip returned [5B7BCCD2]
Copy OK


No tracks could be verified as accurate
You may have a different pressing from the one(s) in the database

No errors occurred

End of status report

V.A. - Putumayo Presents Songs With Women (5CD, 1996-2008)

V.A. - Putumayo Presents Women of Africa (2004)
EAC Rip | FLAC (image & cue & log) & mp3 @ 320 kbps | tracks: 12 | Full Scans | 40:16 | ~ 420 Mb & 254 Mb

Women have always been at the center of sub-Saharan music, as they were the keepers of the hearth, intimately involved in the life-sustaining mysteries of agriculture, food preparation, birth, and death. However, Africa, like the rest the world, is in the throes of social change. Female roles are evolving and the artists heard here represent a confident, worldly sensibility. The roster encompasses Dorothy Masuka's comfortable, gospel-flavored South African jazz, Maria de Barrios' sensual Cape Verdean morna, and a liltingly tonal ballad from Paris-based Algerian refugee Souad Massi. But a major reason to purchase this album is the track by Khadja Nin of Burundi; her deep-toned, knowing, unpolished voice transforms a Stevie Wonder tune into an ecstatic anthem of empowerment. Despite the occasional overuse of easy-fix electric keyboards, each singer emerges as a force to be reckoned with as, one by one, their voices salute the earth and soar into the heavens.
Christina Roden, Amazon

While the African music scene is currently dominated largely by men, there has never been any stigma to speak of against women performing (with the possible exception of some of the North African Islamic nations). The catch is that women tended historically to spend less time playing instruments in favor of other portions of the rituals and work, and stayed primarily within the vocal field as a result. Putumayo is taking advantage of this to combine three of their favorite forms of compilation: African music, women's music, and vocal music. The range here covers essentially the whole of Africa, with representatives from each of the major areas. South African Judith Sephuma opens the album with a contemporary piece, followed by Benin's great Angélique Kidjo with something based on Brazilian idioms. Following the Portuguese influence a step further (or closer, as the case may be), Maria de Barros performs a bit of morna from Cape Verde before the album makes a return to South Africa with Sibongile Khumalo. A quick run to the east allows for a nice Malagasy work from Tarika, and a jump north to Cameroon precedes the third South African piece, this time a bit of classic jazz from Dorothy Masuka. Firmly moving away from the South African sphere of influence, a wonderful piece from the often-excluded Comoros is included, preceding Ivorian Dobet Gnahore with a chipper work. A beautiful ballad from Souad Massi's Island release takes up the North African end, followed by an acoustic guitar-based rhythm from Burundi's Khadja Nin. Closing the album is a bit of female isicathamiya, courtesy of the Women of Mambazo, led by Joseph Shabalala's wife prior to her murder. Overall, it's quite a good album, with nice coverage of the various regions and the use of some underexposed but noteworthy artists.
Adam Greenberg, All Music
TRACKLIST
01. Judith Sephuma - Le Tshephile Mang (South Africa)
02. Angelique Kidjo - Bahia (Benin)
03. Maria de Barros - Mi Nada Um Ca Tem (Cape Verde)
04. Sibongile Khumalo - Mayihlome (South Africa))
05. Tarika - Retany (Madagascar)
06. Kaissa - To Ndje (Cameroon)
07. Dorothy Masuka - Mfan' Omncane (Zimbabwe & South Africa)
08. Nawal - Hima (Comoros)
09. Dobet Gnahore - Abiani (Ivory Cost)
10. Souad Massi - Raoui (Algeria)
11. Khadja Nin - Sina Mali, Sina Deni (Burundi)
12. Women of Mambazo - Vimba (South Africa)

Exact Audio Copy V0.99 prebeta 5 from 4. May 2009

EAC extraction logfile from 7. March 2011, 21:32

Various / Women of Africa

Used drive : HL-DT-STDVDRAM GH10N Adapter: 1 ID: 0

Read mode : Secure
Utilize accurate stream : Yes
Defeat audio cache : Yes
Make use of C2 pointers : No

Read offset correction : 667
Overread into Lead-In and Lead-Out : No
Fill up missing offset samples with silence : Yes
Delete leading and trailing silent blocks : No
Null samples used in CRC calculations : Yes
Used interface : Native Win32 interface for Win NT & 2000

Used output format : User Defined Encoder
Selected bitrate : 896 kBit/s
Quality : High
Add ID3 tag : No
Command line compressor : C:\Program Files\FLAC\flac.exe
Additional command line options : -V -5 -T "artist=%a" -T "title=%t" -T "album=%g" -T "date=%y" -T "tracknumber=%n" -T "genre=%m" -5 %s


TOC of the extracted CD

Track | Start | Length | Start sector | End sector
––––––––––––––––––––––––––––-
1 | 0:00.00 | 3:41.02 | 0 | 16576
2 | 3:41.02 | 3:34.20 | 16577 | 32646
3 | 7:15.22 | 3:51.08 | 32647 | 49979
4 | 11:06.30 | 3:53.60 | 49980 | 67514
5 | 15:00.15 | 2:50.65 | 67515 | 80329
6 | 17:51.05 | 4:14.52 | 80330 | 99431
7 | 22:05.57 | 2:48.35 | 99432 | 112066
8 | 24:54.17 | 3:10.25 | 112067 | 126341
9 | 28:04.42 | 2:43.25 | 126342 | 138591
10 | 30:47.67 | 3:48.03 | 138592 | 155694
11 | 34:35.70 | 4:10.05 | 155695 | 174449
12 | 38:46.00 | 1:30.00 | 174450 | 181199


Range status and errors

Selected range

Filename S:\EAC Rips\Putumayo Presents - Women of Africa\Various - Women of Africa.wav

Peak level 100.0 %
Range quality 100.0 %
Test CRC 652918A9
Copy CRC 652918A9
Copy OK

No errors occurred


AccurateRip summary

Track 1 accurately ripped (confidence 10) [E9AA4497]
Track 2 accurately ripped (confidence 10) [BC09D5D1]
Track 3 accurately ripped (confidence 10) [03ED4F73]
Track 4 accurately ripped (confidence 10) [291EAFEB]
Track 5 accurately ripped (confidence 10) [8435862D]
Track 6 accurately ripped (confidence 10) [5379F7BB]
Track 7 accurately ripped (confidence 10) [41C97A1A]
Track 8 accurately ripped (confidence 10) [88C0AE9F]
Track 9 accurately ripped (confidence 10) [2F307AE2]
Track 10 accurately ripped (confidence 11) [9705407A]
Track 11 accurately ripped (confidence 10) [26393D5B]
Track 12 accurately ripped (confidence 9) [0BED1F39]

All tracks accurately ripped

End of status report

V.A. - Putumayo Presents Songs With Women (5CD, 1996-2008)

V.A. - Putumayo Presents Women of Latin America (2004)
EAC Rip | FLAC (tracks & cue & log) & mp3 @ 320 kbps | tracks: 11 | Full Scans | 38:36 | ~ 297 Mb & 153 Mb

Latin America has produced dozens of brilliant female singers and composers, including trail-blazers like Violetta Parra, Elis Regina, Soledad Bravo and Mecedes Sosa, to mention only a few. The present generation is also shaping up nicely. There are more women bandleaders than ever before, firmly in charge of their own talent, free to choose their material and back-up players without interference. As they so often do, Putumayo has supplied a short-list of emerging stars; the voices heard on this album are uniformly splendid and worthy of deeper exploration. But there are a few stand-outs: Brazilian Mônica Salmaso's creamy dark voice makes a strong impression, as does Chilean chanteuse Jacqueline Fuentes's plaintive, fado-like mezzo and Lhasa's limpidly nostalgic Mexican ranchera. Some may cavil at yet another gender-based compilation. But they should consider that male-dominated equivalents have existed since the dawn of the recorded era; they were just not labeled as such.
Christina Roden, Amazon

Women of Latin America is truly a sweet treasure. This is the first album that i have bought from this series. I am very glad i did. Each artists from this CD exemplifies a mood in their own way. At times sensual to haunting, sad, and hopeful, these artists truly are talented, beautiful, and powerful. I wish artists like these had more praise and attention than the artists these days that are nothing more but entertainers using just sex appeal to be noticed. This is what real music is about, even when you don't know a single word from the lyrics! I know Spanish pretty well, and im telling you, even the lyrics are "muy hermosa" and just incredible. This is an album worth having if you truly appreciate the passion and beauty of the Spanish language, and beautiful Latin American woman. Gozar de la musica de vida!

What a perfect intro CD to listeners new to Latin songs performed by some of the greatest female vocalists! The multifarious selection in the CD exposes the listeners to the rich spectrum of melodious, soothing, and sensual musical gifts that those female artists share with the rest of world with their grace. This CD also serves as a perfect ramification tool to deepen one's appreciation of any of the female vocalists listed. I like all of them and intend to purchase each vocalist's individual CD to further my understanding of her musical style and philosophy.
Amazon's customers
TRACKLIST
01. Marta Gomez - La Ronda (Colombia)
02. Jacqueline Fuentes - Sinuoso Tropico (Chile)
03. Adriana Calcanhoto - Justo Agora (Brazil)
04. Monica Salmaso - Dancape (Brazil)
05. Mariana Montalvo - India Song (Chile)
06. Tania Liberdad - Anda Mareado (Peru)
07. Susana Baca - Caras Lindas (Peru)
08. Lila Downs - Incnocuicatl (Mexico)
09. Belo Velloso - Toda Sexta-Feira (Brazil)
10. Lhasa - La Frontera (Mexico)
11. Toto La Momposina - Yo Me Llamo Cumbia (Colombia)

Exact Audio Copy V0.99 prebeta 5 from 4. May 2009

EAC extraction logfile from 2. August 2011, 15:50

Various / Putumayo Presents - Women of Latin America

Used drive : Optiarc DVD RW AD-7700H Adapter: 0 ID: 1

Read mode : Secure
Utilize accurate stream : Yes
Defeat audio cache : Yes
Make use of C2 pointers : No

Read offset correction : 48
Overread into Lead-In and Lead-Out : No
Fill up missing offset samples with silence : Yes
Delete leading and trailing silent blocks : No
Null samples used in CRC calculations : Yes
Used interface : Native Win32 interface for Win NT & 2000
Gap handling : Appended to previous track

Used output format : User Defined Encoder
Selected bitrate : 32 kBit/s
Quality : High
Add ID3 tag : No
Command line compressor : C:\Program Files (x86)\Exact Audio Copy\FLAC\FLAC.EXE
Additional command line options : -8 -V -T "ARTIST=%a" -T "TITLE=%t" -T "ALBUM=%g" -T "DATE=%y" -T "TRACKNUMBER=%n" -T "GENRE=%m" -T "COMMENT=EAC FLAC -8" %s


TOC of the extracted CD

Track | Start | Length | Start sector | End sector
––––––––––––––––––––––––––––-
1 | 0:00.00 | 3:45.60 | 0 | 16934
2 | 3:45.60 | 3:51.00 | 16935 | 34259
3 | 7:36.60 | 3:45.15 | 34260 | 51149
4 | 11:22.00 | 3:28.50 | 51150 | 66799
5 | 14:50.50 | 3:00.15 | 66800 | 80314
6 | 17:50.65 | 3:13.25 | 80315 | 94814
7 | 21:04.15 | 3:31.12 | 94815 | 110651
8 | 24:35.27 | 3:15.38 | 110652 | 125314
9 | 27:50.65 | 3:09.20 | 125315 | 139509
10 | 31:00.10 | 3:04.20 | 139510 | 153329
11 | 34:04.30 | 4:32.10 | 153330 | 173739


Track 1

Filename C:\Users\sony\Music\Rutracker_Seeds\01 - La Ronda (Colombia) (Marta Gσmez).wav

Pre-gap length 0:00:02.00

Peak level 100.0 %
Track quality 99.9 %
Test CRC CB2722DF
Copy CRC CB2722DF
Accurately ripped (confidence 17) [1FB7CE81]
Copy OK

Track 2

Filename C:\Users\sony\Music\Rutracker_Seeds\02 - Sinuoso Trσpico (Chile) (Jacqueline Fuentes).wav

Pre-gap length 0:00:00.05

Peak level 87.0 %
Track quality 100.0 %
Test CRC 2F7EC01B
Copy CRC 2F7EC01B
Accurately ripped (confidence 17) [3F8C742B]
Copy OK

Track 3

Filename C:\Users\sony\Music\Rutracker_Seeds\03 - Justo Agora (Brazil) (Adriana Calcanhoto).wav

Pre-gap length 0:00:00.13

Peak level 89.1 %
Track quality 100.0 %
Test CRC 013806D5
Copy CRC 013806D5
Accurately ripped (confidence 17) [AC2FF7D3]
Copy OK

Track 4

Filename C:\Users\sony\Music\Rutracker_Seeds\04 - Danηapι (Brazil) (Mτnica Salmaso).wav

Pre-gap length 0:00:00.25

Peak level 99.9 %
Track quality 100.0 %
Test CRC BEF51782
Copy CRC BEF51782
Accurately ripped (confidence 17) [50F5F377]
Copy OK

Track 5

Filename C:\Users\sony\Music\Rutracker_Seeds\05 - India Song (Chile) (Mariana Montalvo).wav

Pre-gap length 0:00:00.25

Peak level 78.5 %
Track quality 100.0 %
Test CRC D20A0149
Copy CRC D20A0149
Accurately ripped (confidence 17) [A64337E7]
Copy OK

Track 6

Filename C:\Users\sony\Music\Rutracker_Seeds\06 - Anda Mareado (Peru) (Tania Liberdad).wav

Pre-gap length 0:00:00.03

Peak level 77.6 %
Track quality 100.0 %
Test CRC 51D7774B
Copy CRC 51D7774B
Accurately ripped (confidence 17) [4CA43DED]
Copy OK

Track 7

Filename C:\Users\sony\Music\Rutracker_Seeds\07 - Caras Lindas (Peru) (Susana Baca).wav

Pre-gap length 0:00:00.08

Peak level 100.0 %
Track quality 99.9 %
Test CRC 4635A2E2
Copy CRC 4635A2E2
Accurately ripped (confidence 17) [A4615815]
Copy OK

Track 8

Filename C:\Users\sony\Music\Rutracker_Seeds\08 - Incnocuicatl (Mexico) (Lila Downs).wav

Pre-gap length 0:00:01.27

Peak level 100.0 %
Track quality 100.0 %
Test CRC 69960493
Copy CRC 69960493
Accurately ripped (confidence 17) [B6B06F1C]
Copy OK

Track 9

Filename C:\Users\sony\Music\Rutracker_Seeds\09 - Toda Sexta-Feira (Brazil) (Belτ Velloso).wav

Pre-gap length 0:00:00.54

Peak level 66.8 %
Track quality 99.9 %
Test CRC EA0825AE
Copy CRC EA0825AE
Accurately ripped (confidence 17) [795F8926]
Copy OK

Track 10

Filename C:\Users\sony\Music\Rutracker_Seeds\10 - La Frontera (Mexico) (Lhasa).wav

Pre-gap length 0:00:00.53

Peak level 87.9 %
Track quality 99.9 %
Test CRC 47347CA4
Copy CRC 47347CA4
Accurately ripped (confidence 17) [3DF2E086]
Copy OK

Track 11

Filename C:\Users\sony\Music\Rutracker_Seeds\11 - Yo Me Llamo Cumbia (Colombia) (Totσ La Momposina).wav

Pre-gap length 0:00:01.33

Peak level 89.1 %
Track quality 100.0 %
Test CRC 43D256ED
Copy CRC 43D256ED
Accurately ripped (confidence 16) [B72B736D]
Copy OK


All tracks accurately ripped

No errors occurred

End of status report

V.A. - Putumayo Presents Songs With Women (5CD, 1996-2008)

V.A. - Putumayo Presents Women Of The World Acoustic (2007)
EAC Rip | FLAC (tracks & cue & log) & mp3 @ 320 kbps | tracks: 11 | Covers | 39:43 | ~ 251 Mb & 94 Mb

On March 8,women all over the world celebrate International Women’s Day. A national holiday in many countries and commemorated by the United Nations, International Women's Day is the story of ordinary women as makers of history. Though often divided by national boundaries and by ethnic, linguistic, cultural, economic and political differences, this day allows women everywhere to look back on a tradition of struggle for equality, justice, peace and development. As a tribute to this tradition, Putumayo World Music presents an album that literally sings its praises. Women of the World: Acoustic is an exploration of acoustic music by some of the world’s leading female artists.
Putumayo site

Released partly to celebrate International Women's Day, a holiday recognized by the United Nations, these eleven unplugged tunes from as many female singers make wonderfully varied and pleasurable listening. And the performers’ backgrounds are equally fascinating. Some are comparatively well-known; Sandrine Kiberlain is a French movie star while The Wailin' Jennys, from Canada, have appeared on Prairie Home Companion. Meanwhile, Emiliana Torrini, of Icelandic-Italian parentage, made her mark with "Gollum's Song" from the second Lord of the Rings soundtrack. Others found their voices through travel–Luca Mundaca was born in Chile, irresistibly drawn to Brazil, and now lives in the USA. Marta Topferova has achieved such an effortless command of South American traditions that hardly anyone ever guesses that she is originally from the Czech Republic. As each lady in turn assumes center stage, she bewitches all comers with her own brand of adroitness, confidence and charm. Although the music is, for the most part, richly redolent of folkloric sources, many of the artists display a neo-cabaret sophistication that somehow never lapses into world-weariness. A final note: a portion of the proceeds from the sale of this album will be donated to the Global Fund For Women, a good cause if ever there was one.
Amazon
TRACKLIST
01. Sandrine Kiberlain - M'envoyer Des Fleurs
02. Marta Topferova - Grano De Arena
03. Emiliana Torrini - Sunnyroad
04. Luca Mundaca - Nao Se Apavore
05. Lura - Bida Mriadu
06. Mona - Sekna
07. Tamara Obrovac - Tuca' La Louna
08. Anastasia Moutsatou - Ola Ta Diskola
09. Marta Gomez - Paula Ausente
10. Kaissa - Wa
11. Wailin' Jennys - One Voice

Exact Audio Copy V0.99 prebeta 3 from 28. July 2007

EAC extraction logfile from 29. August 2008, 10:21

Various / Women Of The World Acoustic

Used drive : SONY CD-RW CRX216E Adapter: 1 ID: 1

Read mode : Secure
Utilize accurate stream : Yes
Defeat audio cache : Yes
Make use of C2 pointers : No

Read offset correction : 6
Overread into Lead-In and Lead-Out : No
Fill up missing offset samples with silence : Yes
Delete leading and trailing silent blocks : No
Null samples used in CRC calculations : Yes
Used interface : Installed external ASPI interface
Gap handling : Appended to previous track

Used output format : User Defined Encoder
Selected bitrate : 192 kBit/s
Quality : High
Add ID3 tag : No
Command line compressor : C:\Program Files\Exact Audio Copy\flac.exe
Additional command line options : -8 -A tukey(0.25) -A gauss(0.1875) -b 4096 -V -T "artist=%a" -T "title=%t" -T "album=%g" -T "date=%y" -T "tracknumber=%n" -T "genre=%m" %s –sector-align


TOC of the extracted CD

Track | Start | Length | Start sector | End sector
––––––––––––––––––––––––––––-
1 | 0:00.00 | 2:35.25 | 0 | 11649
2 | 2:35.25 | 4:23.47 | 11650 | 31421
3 | 6:58.72 | 3:03.10 | 31422 | 45156
4 | 10:02.07 | 4:36.53 | 45157 | 65909
5 | 14:38.60 | 4:51.70 | 65910 | 87804
6 | 19:30.55 | 3:38.30 | 87805 | 104184
7 | 23:09.10 | 3:16.60 | 104185 | 118944
8 | 26:25.70 | 2:37.22 | 118945 | 130741
9 | 29:03.17 | 3:57.65 | 130742 | 148581
10 | 33:01.07 | 3:19.33 | 148582 | 163539
11 | 36:20.40 | 3:22.52 | 163540 | 178741


Track 1

Filename H:\Other\Flac\Putumayo Presents - Women Of The World Acoustic [2007] Flac\01 - Sandrine Kiberlain - M'envoyer Des Fleurs.wav

Pre-gap length 0:00:02.00

Peak level 79.4 %
Track quality 100.0 %
Test CRC 488ABC71
Copy CRC 488ABC71
Copy OK

Track 2

Filename H:\Other\Flac\Putumayo Presents - Women Of The World Acoustic [2007] Flac\02 - Marta Topferova - Grano De Arena.wav

Pre-gap length 0:00:01.06

Peak level 99.9 %
Track quality 100.0 %
Test CRC 5E621F18
Copy CRC 5E621F18
Copy OK

Track 3

Filename H:\Other\Flac\Putumayo Presents - Women Of The World Acoustic [2007] Flac\03 - Emiliana Torrini - Sunnyroad.wav

Pre-gap length 0:00:00.49

Peak level 99.9 %
Track quality 100.0 %
Test CRC 6239777D
Copy CRC 6239777D
Copy OK

Track 4

Filename H:\Other\Flac\Putumayo Presents - Women Of The World Acoustic [2007] Flac\04 - Luca Mundaca - Nγo Se Apavore.wav

Peak level 99.5 %
Track quality 100.0 %
Test CRC FA9E54F0
Copy CRC FA9E54F0
Copy OK

Track 5

Filename H:\Other\Flac\Putumayo Presents - Women Of The World Acoustic [2007] Flac\05 - Lura - Bida Mriadu.wav

Pre-gap length 0:00:00.80

Peak level 96.6 %
Track quality 100.0 %
Test CRC 45F12943
Copy CRC 45F12943
Copy OK

Track 6

Filename H:\Other\Flac\Putumayo Presents - Women Of The World Acoustic [2007] Flac\06 - Mona - Sekna.wav

Pre-gap length 0:00:00.70

Peak level 93.3 %
Track quality 100.0 %
Test CRC 0F98534A
Copy CRC 0F98534A
Copy OK

Track 7

Filename H:\Other\Flac\Putumayo Presents - Women Of The World Acoustic [2007] Flac\07 - Tamara Obrovac - Tuca' La Louna.wav

Pre-gap length 0:00:00.64

Peak level 99.9 %
Track quality 100.0 %
Test CRC 94792BBF
Copy CRC 94792BBF
Copy OK

Track 8

Filename H:\Other\Flac\Putumayo Presents - Women Of The World Acoustic [2007] Flac\08 - Anastasia Moutsatou - Ola Ta Aiskola.wav

Pre-gap length 0:00:00.57

Peak level 86.1 %
Track quality 100.0 %
Test CRC CA983823
Copy CRC CA983823
Copy OK

Track 9

Filename H:\Other\Flac\Putumayo Presents - Women Of The World Acoustic [2007] Flac\09 - Marta Gσmez - Paula Ausente.wav

Pre-gap length 0:00:01.06

Peak level 99.7 %
Track quality 100.0 %
Test CRC 2ACC8484
Copy CRC 2ACC8484
Copy OK

Track 10

Filename H:\Other\Flac\Putumayo Presents - Women Of The World Acoustic [2007] Flac\10 - Kaοssa - Wa.wav

Peak level 99.9 %
Track quality 100.0 %
Test CRC 078BF04A
Copy CRC 078BF04A
Copy OK

Track 11

Filename H:\Other\Flac\Putumayo Presents - Women Of The World Acoustic [2007] Flac\11 - Wailin' Jennys - One Voice.wav

Pre-gap length 0:00:00.53

Peak level 91.7 %
Track quality 100.0 %
Test CRC B09BA105
Copy CRC B09BA105
Copy OK

No errors occurred

End of status report

V.A. - Putumayo Presents Songs With Women (5CD, 1996-2008)

V.A. - Putumayo Presents Women of Jazz (2008)
EAC Rip | FLAC (tracks & cue & log) & mp3 @ 320 kbps | tracks: 10 | Covers | 39:10 | ~ 233 Mb & 91 Mb

Women of Jazz showcases the originality and artistry of 10 exceptional female vocalists from North America. This collection offers extraordinary artists from several eras – legends who have inspired today’s generation, stars of the contemporary jazz world and young women just now starting to make their mark on jazz history. Women of Jazz captures the depth and diversity of the female jazz experience.
Women of Jazz includes original songs alongside classic 1920s ballads and Broadway show tunes. A true reflection of the creativity of today’s female jazz artists, their songs often combine jazz with unexpected influences such as rhythm and blues and country ballads.
Melody Gardot’s song “Goodnite” showcases her subtly hip and swinging style. Madeleine Peyroux, whose sultry voice resembles that of Billie Holiday, turns Leonard Cohen’s folk song into a jazz classic. Sophie Milman, winner of Canada’s 2007 Juno award for best jazz vocal album, gives an inspired performance that incorporates gypsy violin and klezmer.
Several songs add a contemporary twist to well known tunes. Cassandra Wilson, a world-renowned jazz innovator, provides a modern take on the classic “Lover Come Back to Me”. Hope Waits’ rendition of “I’ll be Satisfied,” a 1950s rhythm and blues hit for crooner Jackie Wilson, sounds as if it had been written today by a contemporary singer-songwriter. Kate Paradise, part of the new generation of jazz musicians, provides her vocal improvisation of the classic tune “Mean to Me.” Jennifer Hartswick, who was a guest vocalist on several of the band Phish’s recordings, offers a new version of Billie Holiday’s “Lover Man.” Also on the collection, rising star Stacy Kent sings “Shall We Dance?” from The King and I.
Della Griffin, who sang with doo-wop and jazz groups in New York in the 1950s and spent most of the 1970s and 1980s as the featured artist at Harlem’s Blue Book Club, offers her interpretation of the jazz standard “It Could Happen to You.” Etta Jones, a jazz and blues legend, closes the album with the classic “Since I Fell for You.”
Putumayo site
TRACKLIST
01. Melody Cardot - Goodnite
02. Madeleine Peyroux - Dance me to the End of Love
03. Cassandra Wilson - Lover Come Back to Me
04. Sophie Milman - Lonely in New York
05. Hope Waits - I'll be Satisfied
06. Kate Paradise - Mean to Me
07. Jennifer Hartswick - Lover Man
08. Stacey Kent - Shall We Dance
09. Della Griffin - It Could Happen To You
10. Etta Jones - Since I Fell for You

Exact Audio Copy V0.99 prebeta 4 from 23. January 2008

EAC extraction logfile from 8. March 2009, 18:21

Various / Putumayo Presents: Women of Jazz

Used drive : _NEC DVD_RW ND-1300A Adapter: 1 ID: 0

Read mode : Secure
Utilize accurate stream : Yes
Defeat audio cache : Yes
Make use of C2 pointers : No

Read offset correction : 48
Overread into Lead-In and Lead-Out : No
Fill up missing offset samples with silence : Yes
Delete leading and trailing silent blocks : No
Null samples used in CRC calculations : Yes
Used interface : Native Win32 interface for Win NT & 2000
Gap handling : Appended to previous track

Used output format : User Defined Encoder
Selected bitrate : 768 kBit/s
Quality : High
Add ID3 tag : No
Command line compressor : C:\Programfiler\FLAC\flac.exe
Additional command line options : -V -8 -T "artist=%a" -T "title=%t" -T "album=%g" -T "date=%y" -T "tracknumber=%n" -T "genre=%m" %s


TOC of the extracted CD

Track | Start | Length | Start sector | End sector
––––––––––––––––––––––––––––-
1 | 0:00.01 | 3:06.42 | 1 | 13992
2 | 3:06.43 | 3:57.15 | 13993 | 31782
3 | 7:03.58 | 4:16.24 | 31783 | 51006
4 | 11:20.07 | 3:16.01 | 51007 | 65707
5 | 14:36.08 | 2:56.02 | 65708 | 78909
6 | 17:32.10 | 4:29.22 | 78910 | 99106
7 | 22:01.32 | 3:10.42 | 99107 | 113398
8 | 25:11.74 | 3:41.52 | 113399 | 130025
9 | 28:53.51 | 4:12.33 | 130026 | 148958
10 | 33:06.09 | 6:03.73 | 148959 | 176256


Track 1

Filename C:\EAC rips\Putumayo Presents- Women of Jazz - 2008\01 - Goodnite (Melody Cardot) - Goodnite (Melody Cardot) .wav

Pre-gap length 0:00:02.01

Peak level 93.3 %
Track quality 100.0 %
Test CRC D498F844
Copy CRC D498F844
Track not present in AccurateRip database
Copy OK

Track 2

Filename C:\EAC rips\Putumayo Presents- Women of Jazz - 2008\02 - Dance me to the End of Love (Madeleine Peyroux) - Dance me to the End of Love (Madeleine Peyroux) .wav

Peak level 80.7 %
Track quality 100.0 %
Test CRC EC5B845B
Copy CRC EC5B845B
Track not present in AccurateRip database
Copy OK

Track 3

Filename C:\EAC rips\Putumayo Presents- Women of Jazz - 2008\03 - Lover Come Back to Me (Cassandra Wilson) - Lover Come Back to Me (Cassandra Wilson) .wav

Peak level 100.0 %
Track quality 100.0 %
Test CRC 4611B2A9
Copy CRC 4611B2A9
Track not present in AccurateRip database
Copy OK

Track 4

Filename C:\EAC rips\Putumayo Presents- Women of Jazz - 2008\04 - Lonely in New York (Sophie Milman) - Lonely in New York (Sophie Milman) .wav

Peak level 90.4 %
Track quality 100.0 %
Test CRC 9693F4C3
Copy CRC 9693F4C3
Track not present in AccurateRip database
Copy OK

Track 5

Filename C:\EAC rips\Putumayo Presents- Women of Jazz - 2008\05 - I΄ll be Satisfied (Hope Waits) - I΄ll be Satisfied (Hope Waits) .wav

Peak level 97.6 %
Track quality 100.0 %
Test CRC 30F4D842
Copy CRC 30F4D842
Track not present in AccurateRip database
Copy OK

Track 6

Filename C:\EAC rips\Putumayo Presents- Women of Jazz - 2008\06 - Mean to Me (Kate Paradise) - Mean to Me (Kate Paradise) .wav

Peak level 100.0 %
Track quality 99.9 %
Test CRC 76048492
Copy CRC 76048492
Track not present in AccurateRip database
Copy OK

Track 7

Filename C:\EAC rips\Putumayo Presents- Women of Jazz - 2008\07 - Lover Man (Jennifer Hartswick) - Lover Man (Jennifer Hartswick) .wav

Peak level 94.2 %
Track quality 100.0 %
Test CRC 1CFB527C
Copy CRC 1CFB527C
Track not present in AccurateRip database
Copy OK

Track 8

Filename C:\EAC rips\Putumayo Presents- Women of Jazz - 2008\08 - Shall We Dance (Stacey Kent) - Shall We Dance (Stacey Kent) .wav

Peak level 88.5 %
Track quality 100.0 %
Test CRC B2EAD611
Copy CRC B2EAD611
Track not present in AccurateRip database
Copy OK

Track 9

Filename C:\EAC rips\Putumayo Presents- Women of Jazz - 2008\09 - It Could Happen To You (Della Griffin) - It Could Happen To You (Della Griffin) .wav

Peak level 100.0 %
Track quality 100.0 %
Test CRC 588DED07
Copy CRC 588DED07
Track not present in AccurateRip database
Copy OK

Track 10

Filename C:\EAC rips\Putumayo Presents- Women of Jazz - 2008\10 - Since I Fell for You (Etta Jones) - Since I Fell for You (Etta Jones) .wav

Peak level 100.0 %
Track quality 100.0 %
Test CRC 141AF62E
Copy CRC 141AF62E
Track not present in AccurateRip database
Copy OK


None of the tracks are present in the AccurateRip database

No errors occurred

End of status report

All credits to the initial rippers / uploaders of these albums
Quality lossless (Flac)
Download FilePost: Work | Africa | L.America | World | Jazz
Download Uploaded: Work | Africa | L.America | World | Jazz
Download GoldBytez: Work | Africa | L.America | World | Jazz
Download JunoCloud: Work | Africa | L.America | World | Jazz
Download FileFactory: Work | Africa | L.America | World | Jazz

Quality lossy (mp3 @ 320 kbps)
Download FilePost: Work | Africa | L.America | World | Jazz
Download Uploaded: Work | Africa | L.America | World | Jazz
Download GoldBytez: Work | Africa | L.America | World | Jazz
Download JunoCloud: Work | Africa | L.America | World | Jazz
Download FileFactory: Work | Africa | L.America | World | Jazz