Puccini: La Bohème – Katia Ricciarelli, José Carreras, Ingvar Wixell, Sir Colin Davis

Posted By: lupodimare
Puccini: La Bohème – Katia Ricciarelli, José Carreras, Ingvar Wixell, Sir Colin Davis

Puccini: La Bohème – Katia Ricciarelli, José Carreras, Ingvar Wixell, Sir Colin Davis
Classical (opera) | 2 CD | EAC Rip | FLAC, CUE, LOG | booklet and cover scans | 434 MB | EAN: 0028947824947
Released: 13 August 2010 | Label: DECCA | Recorded: February 1979 London, England


composer: Giacomo Puccini (1858-1924)
La Bohème: opera in four acts • in quattro atti • in vier Bildern • en quatre tableaux
libretto: Giuseppe Giacosa & Luigi Illica
after Henry Murger's Scenes de la vie de boheme

Orchestra and Chorus of the Royal Opera House, Covent Garden
conductor: Sir Colin Davis
Leader: John Brown
Chorus Master: John Barker
Assistant Conductor: David Syrus
Music and Language Adviser: Ubaldo Gardini

Cast:
Katia Ricciarelli, soprano (Mimi)
José Carreras, ténor (Rodolfo)
Ingvar Wixell, basso (Marcello)
Hakan Hagegard, basso (Schaunard)
Robert Lloyd, basso (Colline)
Ashley Putnam, soprano (Musetta)
Francis Egerton, (Parpignol)
Giovanni de Angelis, Benoit (basso)
William Elvin, baritono (Alcindoro)
Richard Hazell, basso (Sergente dei doganieri)
David Whelan, baritono (Un doganiere)



José Carreras and Katia Ricciarelli are the lovers Rodolfo and Mimi in opera’s greatest love story, set among the young bohemians of Paris. Puccini’s gloriously romantic score includes many of operas most heart-rending moments.

amazon review
This ranks among the best recordings of La Bohème (a very crowded category) and is particularly important for José Carreras fans as one of the last recordings he made in the 1970s, before leukemia threatened his life and undermined his voice. He and Katia Ricciarelli always worked well together, and the long, ecstatic duet that ends act 1 is a perfect showcase for their voices and their emotional involvement in the music. He is also effective in the heartbreaking acts 3 and 4, and Ingvar Wixell is at his rare best as the painter Rodolfo. –Joe McLellan



Exact Audio Copy V1.0 beta 2 from 29. April 2011

EAC extraction logfile from 17. December 2011, 17:43

Katia Ricciarelli, Jose Carreras, Robert Lloyd, Ashley Putnam / La Boheme - Davis CD 1

Used drive : Optiarc DVD RW AD-7561S Adapter: 0 ID: 1

Read mode : Secure
Utilize accurate stream : Yes
Defeat audio cache : Yes
Make use of C2 pointers : No

Read offset correction : 6
Overread into Lead-In and Lead-Out : No
Fill up missing offset samples with silence : Yes
Delete leading and trailing silent blocks : No
Null samples used in CRC calculations : Yes
Used interface : Native Win32 interface for Win NT & 2000
Gap handling : Appended to previous track

Used output format : User Defined Encoder
Selected bitrate : 32 kBit/s
Quality : High
Add ID3 tag : No
Command line compressor : C:\Program Files\Exact Audio Copy\Flac\flac.exe
Additional command line options : -V -8 -T "Genre=%genre%" -T "Artist=%artist%" -T "Title=%title%" -T "Album=%albumtitle%" -T "Date=%year%" -T "Tracknumber=%tracknr%" -T "Comment=%comment%" %source%


TOC of the extracted CD

Track | Start | Length | Start sector | End sector
––––––––––––––––––––––––––––-
1 | 0:00.00 | 4:17.38 | 0 | 19312
2 | 4:17.38 | 1:04.50 | 19313 | 24162
3 | 5:22.13 | 3:51.00 | 24163 | 41487
4 | 9:13.13 | 5:06.62 | 41488 | 64499
5 | 14:20.00 | 1:06.25 | 64500 | 69474
6 | 15:26.25 | 1:10.50 | 69475 | 74774
7 | 16:37.00 | 2:29.13 | 74775 | 85962
8 | 19:06.13 | 4:46.62 | 85963 | 107474
9 | 23:53.00 | 4:52.25 | 107475 | 129399
10 | 28:45.25 | 0:45.38 | 129400 | 132812
11 | 29:30.63 | 4:21.12 | 132813 | 152399
12 | 33:52.00 | 2:47.63 | 152400 | 164987
13 | 36:39.63 | 3:16.25 | 164988 | 179712
14 | 39:56.13 | 2:10.25 | 179713 | 189487
15 | 42:06.38 | 3:24.37 | 189488 | 204824
16 | 45:31.00 | 4:59.63 | 204825 | 227312
17 | 50:30.63 | 2:07.12 | 227313 | 236849


Track 1

Filename G:\Пуччини - La Boheme - Katia Ricciarelli, Jose Carreras, Robert Lloyd, Ashley Putnam - Sir Colin Davis\La Boheme - Sir Colin Davis CD 1\01. Questo Mar Rosso.wav

Pre-gap length 0:00:02.00

Peak level 56.0 %
Extraction speed 1.1 X
Track quality 100.0 %
Test CRC 82A32C25
Copy CRC 82A32C25
Accurately ripped (confidence 1) [E3E1FF51] (AR v1)
Copy OK

Track 2

Filename G:\Пуччини - La Boheme - Katia Ricciarelli, Jose Carreras, Robert Lloyd, Ashley Putnam - Sir Colin Davis\La Boheme - Sir Colin Davis CD 1\02. Pensier profondo.wav

Peak level 40.8 %
Extraction speed 0.9 X
Track quality 100.0 %
Test CRC 82CF65F8
Copy CRC 82CF65F8
Accurately ripped (confidence 1) [5CDCADEB] (AR v1)
Copy OK

Track 3

Filename G:\Пуччини - La Boheme - Katia Ricciarelli, Jose Carreras, Robert Lloyd, Ashley Putnam - Sir Colin Davis\La Boheme - Sir Colin Davis CD 1\03. Abasso, abbasso l'autor!.wav

Peak level 66.0 %
Extraction speed 1.3 X
Track quality 100.0 %
Test CRC 7A7A6774
Copy CRC 7A7A6774
Accurately ripped (confidence 1) [920AA6BE] (AR v1)
Copy OK

Track 4

Filename G:\Пуччини - La Boheme - Katia Ricciarelli, Jose Carreras, Robert Lloyd, Ashley Putnam - Sir Colin Davis\La Boheme - Sir Colin Davis CD 1\04. Si puo - Chi e la.wav

Peak level 78.2 %
Extraction speed 1.4 X
Track quality 100.0 %
Test CRC E4E971C8
Copy CRC E4E971C8
Accurately ripped (confidence 1) [3DC7B5A5] (AR v1)
Copy OK

Track 5

Filename G:\Пуччини - La Boheme - Katia Ricciarelli, Jose Carreras, Robert Lloyd, Ashley Putnam - Sir Colin Davis\La Boheme - Sir Colin Davis CD 1\05. Io resto.wav

Peak level 49.1 %
Extraction speed 1.1 X
Track quality 100.0 %
Test CRC 7AA8DE01
Copy CRC 7AA8DE01
Accurately ripped (confidence 1) [BEBA3119] (AR v1)
Copy OK

Track 6

Filename G:\Пуччини - La Boheme - Katia Ricciarelli, Jose Carreras, Robert Lloyd, Ashley Putnam - Sir Colin Davis\La Boheme - Sir Colin Davis CD 1\06. Chi e la.wav

Peak level 25.1 %
Extraction speed 1.1 X
Track quality 100.0 %
Test CRC 5EB73325
Copy CRC 5EB73325
Accurately ripped (confidence 1) [9AC5BDE9] (AR v1)
Copy OK

Track 7

Filename G:\Пуччини - La Boheme - Katia Ricciarelli, Jose Carreras, Robert Lloyd, Ashley Putnam - Sir Colin Davis\La Boheme - Sir Colin Davis CD 1\07. Si sente meglio.wav

Peak level 53.4 %
Extraction speed 1.4 X
Track quality 100.0 %
Test CRC 7E6DDA44
Copy CRC 7E6DDA44
Accurately ripped (confidence 1) [F2F01A96] (AR v1)
Copy OK

Track 8

Filename G:\Пуччини - La Boheme - Katia Ricciarelli, Jose Carreras, Robert Lloyd, Ashley Putnam - Sir Colin Davis\La Boheme - Sir Colin Davis CD 1\08. Che gelida manina.wav

Peak level 75.1 %
Extraction speed 1.5 X
Track quality 99.9 %
Test CRC 9766F59E
Copy CRC 9766F59E
Accurately ripped (confidence 1) [B58FEFD9] (AR v1)
Copy OK

Track 9

Filename G:\Пуччини - La Boheme - Katia Ricciarelli, Jose Carreras, Robert Lloyd, Ashley Putnam - Sir Colin Davis\La Boheme - Sir Colin Davis CD 1\09. Si. Mi chiamano Mimi.wav

Peak level 88.7 %
Extraction speed 1.8 X
Track quality 100.0 %
Test CRC 1E7A3969
Copy CRC 1E7A3969
Accurately ripped (confidence 1) [6BE56245] (AR v1)
Copy OK

Track 10

Filename G:\Пуччини - La Boheme - Katia Ricciarelli, Jose Carreras, Robert Lloyd, Ashley Putnam - Sir Colin Davis\La Boheme - Sir Colin Davis CD 1\10. Ehi! Rodolfo!.wav

Peak level 28.2 %
Extraction speed 0.7 X
Track quality 99.7 %
Test CRC 985BF9F2
Copy CRC 985BF9F2
Accurately ripped (confidence 1) [FAA3B790] (AR v1)
Copy OK

Track 11

Filename G:\Пуччини - La Boheme - Katia Ricciarelli, Jose Carreras, Robert Lloyd, Ashley Putnam - Sir Colin Davis\La Boheme - Sir Colin Davis CD 1\11. O soave fanciulla.wav

Peak level 84.8 %
Extraction speed 1.8 X
Track quality 100.0 %
Test CRC C21FF7BD
Copy CRC C21FF7BD
Accurately ripped (confidence 1) [201CC264] (AR v1)
Copy OK

Track 12

Filename G:\Пуччини - La Boheme - Katia Ricciarelli, Jose Carreras, Robert Lloyd, Ashley Putnam - Sir Colin Davis\La Boheme - Sir Colin Davis CD 1\12. Arranci, datteri!.wav

Pre-gap length 0:00:08.00

Peak level 97.2 %
Extraction speed 1.8 X
Track quality 100.0 %
Test CRC BEB2922A
Copy CRC BEB2922A
Accurately ripped (confidence 1) [DCBC4AA3] (AR v1)
Copy OK

Track 13

Filename G:\Пуччини - La Boheme - Katia Ricciarelli, Jose Carreras, Robert Lloyd, Ashley Putnam - Sir Colin Davis\La Boheme - Sir Colin Davis CD 1\13. Chi guardi - Ecco i giocattoli di Parpignol.wav

Peak level 74.2 %
Extraction speed 1.9 X
Track quality 100.0 %
Test CRC 4447581F
Copy CRC 4447581F
Accurately ripped (confidence 1) [9701291F] (AR v1)
Copy OK

Track 14

Filename G:\Пуччини - La Boheme - Katia Ricciarelli, Jose Carreras, Robert Lloyd, Ashley Putnam - Sir Colin Davis\La Boheme - Sir Colin Davis CD 1\14. Viva Parpignol… - Una cuffietta a pizzi.wav

Peak level 51.3 %
Extraction speed 1.8 X
Track quality 100.0 %
Test CRC 5097B525
Copy CRC 5097B525
Accurately ripped (confidence 1) [C70FC37A] (AR v1)
Copy OK

Track 15

Filename G:\Пуччини - La Boheme - Katia Ricciarelli, Jose Carreras, Robert Lloyd, Ashley Putnam - Sir Colin Davis\La Boheme - Sir Colin Davis CD 1\15. Beviam!.wav

Peak level 59.2 %
Extraction speed 1.7 X
Track quality 99.9 %
Test CRC 7E37DA11
Copy CRC 7E37DA11
Accurately ripped (confidence 1) [AA389F24] (AR v1)
Copy OK

Track 16

Filename G:\Пуччини - La Boheme - Katia Ricciarelli, Jose Carreras, Robert Lloyd, Ashley Putnam - Sir Colin Davis\La Boheme - Sir Colin Davis CD 1\16. Quando m'en vo.wav

Peak level 91.3 %
Extraction speed 2.2 X
Track quality 100.0 %
Test CRC 1970A20E
Copy CRC 1970A20E
Accurately ripped (confidence 1) [0AC89EC0] (AR v1)
Copy OK

Track 17

Filename G:\Пуччини - La Boheme - Katia Ricciarelli, Jose Carreras, Robert Lloyd, Ashley Putnam - Sir Colin Davis\La Boheme - Sir Colin Davis CD 1\17. Caro! - Fuori il danaro!.wav

Peak level 98.0 %
Extraction speed 1.5 X
Track quality 99.9 %
Test CRC 8AED7707
Copy CRC 8AED7707
Accurately ripped (confidence 1) [DD781631] (AR v1)
Copy OK


All tracks accurately ripped

No errors occurred

End of status report

==== Log checksum 727FE50AF8FE0596D3D2196B56310AA54B86147483990BBCAB2C6490D370EEB2 ====


Exact Audio Copy V0.99 prebeta 4 from 23. January 2008

Exact Audio Copy V1.0 beta 2 from 29. April 2011

EAC extraction logfile from 18. December 2011, 13:20

Katia Ricciarelli, Jose Carreras, Robert Lloyd, Ashley Putnam / La Boheme - Sir Colin Davis CD 2

Used drive : Optiarc DVD RW AD-7561S Adapter: 0 ID: 1

Read mode : Secure
Utilize accurate stream : Yes
Defeat audio cache : Yes
Make use of C2 pointers : No

Read offset correction : 6
Overread into Lead-In and Lead-Out : Yes
Fill up missing offset samples with silence : Yes
Delete leading and trailing silent blocks : No
Null samples used in CRC calculations : Yes
Used interface : Native Win32 interface for Win NT & 2000
Gap handling : Appended to previous track

Used output format : User Defined Encoder
Selected bitrate : 32 kBit/s
Quality : High
Add ID3 tag : No
Command line compressor : C:\Program Files\Exact Audio Copy\Flac\flac.exe
Additional command line options : -V -8 -T "Genre=%genre%" -T "Artist=%artist%" -T "Title=%title%" -T "Album=%albumtitle%" -T "Date=%year%" -T "Tracknumber=%tracknr%" -T "Comment=%comment%" %source%


TOC of the extracted CD

Track | Start | Length | Start sector | End sector
––––––––––––––––––––––––––––-
1 | 0:00.32 | 3:39.33 | 32 | 16489
2 | 3:39.65 | 1:32.25 | 16490 | 23414
3 | 5:12.15 | 4:48.47 | 23415 | 45061
4 | 10:00.62 | 1:13.08 | 45062 | 50544
5 | 11:13.70 | 1:25.47 | 50545 | 56966
6 | 12:39.42 | 3:18.65 | 56967 | 71881
7 | 15:58.32 | 3:18.18 | 71882 | 86749
8 | 19:16.50 | 5:35.57 | 86750 | 111931
9 | 24:52.32 | 1:23.50 | 111932 | 118206
10 | 26:16.07 | 5:30.25 | 118207 | 142981
11 | 31:46.32 | 1:46.25 | 142982 | 150956
12 | 33:32.57 | 5:55.25 | 150957 | 177606
13 | 39:28.07 | 2:12.13 | 177607 | 187519
14 | 41:40.20 | 5:55.07 | 187520 | 214151
15 | 47:35.27 | 2:45.05 | 214152 | 226531
16 | 50:20.32 | 3:04.00 | 226532 | 240331


Track 1

Filename G:\Пуччини - La Boheme - Katia Ricciarelli, Jose Carreras, Robert Lloyd, Ashley Putnam - Sir Colin Davis\Новая папка\01. Ohe, la, le guardie! - Aprite.wav

Pre-gap length 0:00:02.32

Peak level 59.1 %
Extraction speed 0.9 X
Track quality 99.9 %
Test CRC 3663E866
Copy CRC 3663E866
Cannot be verified as accurate (confidence 13) [B4EB945C], AccurateRip returned [DEF2C429] (AR v2)
Copy OK

Track 2

Filename G:\Пуччини - La Boheme - Katia Ricciarelli, Jose Carreras, Robert Lloyd, Ashley Putnam - Sir Colin Davis\Новая папка\02. Sa dirmi, scusi.wav

Peak level 40.7 %
Extraction speed 0.9 X
Track quality 100.0 %
Test CRC FB2FB14E
Copy CRC FB2FB14E
Cannot be verified as accurate (confidence 13) [F6619806], AccurateRip returned [9356B3A2] (AR v2)
Copy OK

Track 3

Filename G:\Пуччини - La Boheme - Katia Ricciarelli, Jose Carreras, Robert Lloyd, Ashley Putnam - Sir Colin Davis\Новая папка\03. Mimi - Rodolfo m'ama e mi fugge.wav

Peak level 91.6 %
Extraction speed 1.3 X
Track quality 100.0 %
Test CRC 63A9043E
Copy CRC 63A9043E
Cannot be verified as accurate (confidence 13) [4BDD4DA4], AccurateRip returned [CF443A99] (AR v2)
Copy OK

Track 4

Filename G:\Пуччини - La Boheme - Katia Ricciarelli, Jose Carreras, Robert Lloyd, Ashley Putnam - Sir Colin Davis\Новая папка\04. Marcello, Finalmaente!.wav

Peak level 61.5 %
Extraction speed 1.0 X
Track quality 100.0 %
Test CRC 0D23A875
Copy CRC 0D23A875
Cannot be verified as accurate (confidence 13) [AADB1B84], AccurateRip returned [4FC97BB0] (AR v2)
Copy OK

Track 5

Filename G:\Пуччини - La Boheme - Katia Ricciarelli, Jose Carreras, Robert Lloyd, Ashley Putnam - Sir Colin Davis\Новая папка\05. Mimi e una civette.wav

Peak level 59.1 %
Extraction speed 0.8 X
Track quality 99.8 %
Test CRC CD7277CE
Copy CRC CD7277CE
Cannot be verified as accurate (confidence 13) [81E7A3C5], AccurateRip returned [078A62ED] (AR v2)
Copy OK

Track 6

Filename G:\Пуччини - La Boheme - Katia Ricciarelli, Jose Carreras, Robert Lloyd, Ashley Putnam - Sir Colin Davis\Новая папка\06. Mimi e tanto malata!.wav

Peak level 56.0 %
Extraction speed 1.2 X
Track quality 99.9 %
Test CRC E3C5E32B
Copy CRC E3C5E32B
Cannot be verified as accurate (confidence 13) [68FBA8AF], AccurateRip returned [5EBF014F] (AR v2)
Copy OK

Track 7

Filename G:\Пуччини - La Boheme - Katia Ricciarelli, Jose Carreras, Robert Lloyd, Ashley Putnam - Sir Colin Davis\Новая папка\07. Donde lieta usci.wav

Peak level 95.6 %
Extraction speed 1.5 X
Track quality 100.0 %
Test CRC 85DF0BBB
Copy CRC 85DF0BBB
Cannot be verified as accurate (confidence 13) [09BF14B8], AccurateRip returned [C41B0C40] (AR v2)
Copy OK

Track 8

Filename G:\Пуччини - La Boheme - Katia Ricciarelli, Jose Carreras, Robert Lloyd, Ashley Putnam - Sir Colin Davis\Новая папка\08. Addio, dolce svegliare.wav

Peak level 98.2 %
Extraction speed 1.7 X
Track quality 100.0 %
Test CRC ADBC3C8D
Copy CRC ADBC3C8D
Cannot be verified as accurate (confidence 13) [A7A2355E], AccurateRip returned [F92EF4FE] (AR v2)
Copy OK

Track 9

Filename G:\Пуччини - La Boheme - Katia Ricciarelli, Jose Carreras, Robert Lloyd, Ashley Putnam - Sir Colin Davis\Новая папка\09. In un coupe.wav

Pre-gap length 0:00:07.00

Peak level 54.3 %
Extraction speed 1.0 X
Track quality 99.8 %
Test CRC E5081EC5
Copy CRC E5081EC5
Cannot be verified as accurate (confidence 13) [5D9A9E8D], AccurateRip returned [1A9FCCE9] (AR v2)
Copy OK

Track 10

Filename G:\Пуччини - La Boheme - Katia Ricciarelli, Jose Carreras, Robert Lloyd, Ashley Putnam - Sir Colin Davis\Новая папка\10. O Mimi, tu piu non torni - Che ora sia.wav

Peak level 79.8 %
Extraction speed 1.7 X
Track quality 99.9 %
Test CRC 6F70C589
Copy CRC 6F70C589
Cannot be verified as accurate (confidence 13) [D72C6806], AccurateRip returned [198FB81D] (AR v2)
Copy OK

Track 11

Filename G:\Пуччини - La Boheme - Katia Ricciarelli, Jose Carreras, Robert Lloyd, Ashley Putnam - Sir Colin Davis\Новая папка\11. Gavotta.wav

Peak level 64.1 %
Extraction speed 1.6 X
Track quality 100.0 %
Test CRC 6A5968FF
Copy CRC 6A5968FF
Cannot be verified as accurate (confidence 13) [2C22DE7B], AccurateRip returned [9AFEAFD7] (AR v2)
Copy OK

Track 12

Filename G:\Пуччини - La Boheme - Katia Ricciarelli, Jose Carreras, Robert Lloyd, Ashley Putnam - Sir Colin Davis\Новая папка\12. C'e Mimi.wav

Peak level 83.4 %
Extraction speed 2.0 X
Track quality 100.0 %
Test CRC 7E361111
Copy CRC 7E361111
Cannot be verified as accurate (confidence 13) [CAB7413E], AccurateRip returned [99EF4ECD] (AR v2)
Copy OK

Track 13

Filename G:\Пуччини - La Boheme - Katia Ricciarelli, Jose Carreras, Robert Lloyd, Ashley Putnam - Sir Colin Davis\Новая папка\13. Vecchia zimarra, senti.wav

Peak level 20.2 %
Extraction speed 1.7 X
Track quality 100.0 %
Test CRC D87DB2BB
Copy CRC D87DB2BB
Cannot be verified as accurate (confidence 13) [0CA00B99], AccurateRip returned [14A47F81] (AR v2)
Copy OK

Track 14

Filename G:\Пуччини - La Boheme - Katia Ricciarelli, Jose Carreras, Robert Lloyd, Ashley Putnam - Sir Colin Davis\Новая папка\14. Sono andati.wav

Peak level 87.4 %
Extraction speed 2.2 X
Track quality 100.0 %
Test CRC B0481B78
Copy CRC B0481B78
Cannot be verified as accurate (confidence 13) [544EF521], AccurateRip returned [E306CE47] (AR v2)
Copy OK

Track 15

Filename G:\Пуччини - La Boheme - Katia Ricciarelli, Jose Carreras, Robert Lloyd, Ashley Putnam - Sir Colin Davis\Новая папка\15. Oh Dio! Mimi.wav

Peak level 59.3 %
Extraction speed 2.0 X
Track quality 100.0 %
Test CRC 4F06FD40
Copy CRC 4F06FD40
Cannot be verified as accurate (confidence 13) [B0FC0D7D], AccurateRip returned [CDAD0B57] (AR v2)
Copy OK

Track 16

Filename G:\Пуччини - La Boheme - Katia Ricciarelli, Jose Carreras, Robert Lloyd, Ashley Putnam - Sir Colin Davis\Новая папка\16. Che ha detto il medico.wav

Peak level 95.2 %
Extraction speed 2.5 X
Track quality 100.0 %
Test CRC 68E8B208
Copy CRC 68E8B208
Cannot be verified as accurate (confidence 13) [A10BD876], AccurateRip returned [8974873F] (AR v2)
Copy OK


No tracks could be verified as accurate
You may have a different pressing from the one(s) in the database

No errors occurred

End of status report

==== Log checksum 489CAA2BAFB04C7507D3C6AF371541FCF767FC964467A4AE5A26BDE53E04D515 ====



CD1

Act 1
1 "Questo Mar Rosso mi ammollisce e assidera"
2 "Pensier profondo!"
3 "Abasso, abbasso l'autor!"
4 "Si puo?" - "Chi e là?"
5 "Io Resto Per Terminar L'articolo"
6 "Chi e là!? - scusi"
7 "Si sente meglio?"
8 "Che gelida manina"
9 "Si. Mi chiamano Mimi"
10 "Ehi! Rodolfo!"
11 "O soave fanciulla"

Act 2
12 "Arranci, datteri! Caldi i Marroni"
13 "Chi guardi?" - "Ecco i giocattoli di Parpignol"
14 "Viva Parpignol!" - "Una cuffietta a pizzi"
15 "Beviam!" - Ch'io beva del tossico!
16 "Quando men vo"
17 "Caro!" - "Fuori il danaro!"


CD2

Act 3
1 "Ohè, là, le guardie! Aprite!"
2 "Sa dirmi, scusi, qual'è l'osteria"
3 "Mimì?!" - - Speravo di trovarvi qui"
4 "Marcello. Finalmente!"
5 "Mimì e una civetta"
6 "Mimì e tanto malata!"
7 "D'onde lieta uscì"
8 "Addio dolce svegliare"

Act 4
9 "In un coupe?"
10 "O Mimi, tu piu non torni"
11 "Gavotta!" - "Minuetto!"
12 "C'e Mimi che mi segue e che sta male"
13 "Vecchia zimarra, senti"
14 "Sono andati? Fingevano di dormire
15 "Oh Dio! Mimi!"
16 "Che ha detto il medico?"

Total time: 52:34 cd1
Total time: 53:16 cd2