Subcategories

Pink Floyd - Shine On Live (2009) [2CD]

Posted By: merccury
Pink Floyd - Shine On Live (2009) [2CD]

Pink Floyd - Shine On Live (2009) [2CD]
Progressive Rock | EAC+LOG+CUE | FLAC | 722 MB 3% recovery | full scans @ 600dpi | RS
Label: IMC MUSIC LTD | release date: 2009 | TT 47:41 +52:24 | catalog: IMA-104237

Pink Floyd in New York (and Paris) 1988. Excellent quality for this live performance.
Pink Floyd - Shine On Live (2009) [2CD]

Tracklist
CD 1
[01] Shine on you crazy diamond
[02] Signs of life
[03] Learning to fly
[04] Sorrow
[05] The dogs of war
[06] On the turning away
[07] One of these days
[08] Time
CD 2
[01] On the run
[02] The great gig in teh sky
[03] Wish you were here
[04] Us und them
[05] Money
[06] Comfortably numb
[07] One slip
[08] Run like hell
[09] Shine on you crazy diamond

Personnel:
Guitar, Vocals - David Gilmour , Tim Renwick
Keyboards, Vocals - Jon Carin , Richard Wright
Drums - Nick Mason
Bass, Vocals - Guy Pratt
Percussion - Gary Wallis
Saxophone - Scott Page
Backing Vocals - Durga McBroom , Margaret Taylor , Rachel Fury


Exact Audio Copy V0.99 prebeta 5 from 4. May 2009

EAC extraction logfile from 28. December 2009, 13:12

Pink Floyd / Shine On Live CD1

Used drive : PLDS DVD+-RW DU-8A2S Adapter: 1 ID: 0

Read mode : Secure
Utilize accurate stream : Yes
Defeat audio cache : Yes
Make use of C2 pointers : No

Read offset correction : 6
Overread into Lead-In and Lead-Out : No
Fill up missing offset samples with silence : Yes
Delete leading and trailing silent blocks : No
Null samples used in CRC calculations : Yes
Used interface : Installed external ASPI interface

Used output format : Internal WAV Routines
Sample format : 44.100 Hz; 16 Bit; Stereo


TOC of the extracted CD

Track | Start | Length | Start sector | End sector
––––––––––––––––––––––––––––-
1 | 0:00.00 | 4:23.50 | 0 | 19774
2 | 4:23.50 | 2:53.05 | 19775 | 32754
3 | 7:16.55 | 4:48.58 | 32755 | 54412
4 | 12:05.38 | 8:50.59 | 54413 | 94221
5 | 20:56.22 | 8:06.08 | 94222 | 130679
6 | 29:02.30 | 7:40.12 | 130680 | 165191
7 | 36:42.42 | 6:11.33 | 165192 | 193049
8 | 42:54.00 | 4:46.62 | 193050 | 214561


Range status and errors

Selected range

Filename C:\Pink Floyd - Shine On Live CD1.wav

Peak level 96.6 %
Range quality 100.0 %
Copy CRC A38645E0
Copy OK

No errors occurred


AccurateRip summary

Track 1 not present in database
Track 2 not present in database
Track 3 not present in database
Track 4 not present in database
Track 5 not present in database
Track 6 not present in database
Track 7 not present in database
Track 8 not present in database

None of the tracks are present in the AccurateRip database

End of status report



[Verification date: 30/12/2009 10:12:57]
[Disc ID: 000dcdc9-005f409c-6a0b2c08]
Track [ CRC ] Status
01 [0bbe428e] (01/01) Accurately ripped as in pressing(s) #1
02 [c6afac5b] (01/01) Accurately ripped as in pressing(s) #1
03 [b4181694] (01/01) Accurately ripped as in pressing(s) #1
04 [b135076e] (01/01) Accurately ripped as in pressing(s) #1
05 [8dc8e506] (01/01) Accurately ripped as in pressing(s) #1
06 [f143d696] (01/01) Accurately ripped as in pressing(s) #1
07 [be28f6e0] (01/01) Accurately ripped as in pressing(s) #1
08 [6fc5379e] (01/01) Accurately ripped as in pressing(s) #1

Track [ CRC32 ] [W/O NULL] [ LOG ]
– [A38645E0] [295B0965] CRC32
01 [3EC414BC] [3DD104ED]
02 [4ED5B2A7] [421F9D9C]
03 [C21EF99E] [06C5372E]
04 [3710C1C7] [85A79814]
05 [AB6C6571] [D046E446]
06 [25EC43AA] [1D250E2D]
07 [7C6C9EBD] [DD103976]
08 [A6A326CF] [FD82F45A]



Exact Audio Copy V0.99 prebeta 5 from 4. May 2009

EAC extraction logfile from 28. December 2009, 13:42

Pink Floyd / Shine On Live CD2

Used drive : PLDS DVD+-RW DU-8A2S Adapter: 1 ID: 0

Read mode : Secure
Utilize accurate stream : Yes
Defeat audio cache : Yes
Make use of C2 pointers : No

Read offset correction : 6
Overread into Lead-In and Lead-Out : No
Fill up missing offset samples with silence : Yes
Delete leading and trailing silent blocks : No
Null samples used in CRC calculations : Yes
Used interface : Installed external ASPI interface

Used output format : Internal WAV Routines
Sample format : 44.100 Hz; 16 Bit; Stereo


TOC of the extracted CD

Track | Start | Length | Start sector | End sector
––––––––––––––––––––––––––––-
1 | 0:00.00 | 3:14.13 | 0 | 14562
2 | 3:14.13 | 3:39.72 | 14563 | 31059
3 | 6:54.10 | 5:01.24 | 31060 | 53658
4 | 11:55.34 | 7:18.16 | 53659 | 86524
5 | 19:13.50 | 9:51.25 | 86525 | 130874
6 | 29:05.00 | 7:14.36 | 130875 | 163460
7 | 36:19.36 | 5:53.32 | 163461 | 189967
8 | 42:12.68 | 7:06.37 | 189968 | 221954
9 | 49:19.30 | 3:04.52 | 221955 | 235806


Range status and errors

Selected range

Filename C:\Pink Floyd - Shine On Live CD2.wav

Peak level 96.6 %
Range quality 100.0 %
Copy CRC C084CFAB
Copy OK

No errors occurred


AccurateRip summary

Track 1 accurately ripped (confidence 1) [CCC2C271]
Track 2 accurately ripped (confidence 1) [C50F7718]
Track 3 accurately ripped (confidence 1) [FCECA253]
Track 4 accurately ripped (confidence 1) [CF498B0C]
Track 5 accurately ripped (confidence 1) [B13BEF91]
Track 6 accurately ripped (confidence 1) [2B780ADF]
Track 7 accurately ripped (confidence 1) [83554A06]
Track 8 accurately ripped (confidence 1) [2098AF80]
Track 9 accurately ripped (confidence 1) [92C095C3]

All tracks accurately ripped

End of status report



[Verification date: 30/12/2009 10:13:48]
[Disc ID: 001135c1-0082d5f6-770c4809]
Track [ CRC ] Status
01 [ccc2c271] (01/01) Accurately ripped as in pressing(s) #1
02 [c50f7718] (01/01) Accurately ripped as in pressing(s) #1
03 [fceca253] (01/01) Accurately ripped as in pressing(s) #1
04 [cf498b0c] (01/01) Accurately ripped as in pressing(s) #1
05 [b13bef91] (01/01) Accurately ripped as in pressing(s) #1
06 [2b780adf] (01/01) Accurately ripped as in pressing(s) #1
07 [83554a06] (01/01) Accurately ripped as in pressing(s) #1
08 [2098af80] (01/01) Accurately ripped as in pressing(s) #1
09 [92c095c3] (01/01) Accurately ripped as in pressing(s) #1

Track [ CRC32 ] [W/O NULL] [ LOG ]
– [C084CFAB] [64251FAC] CRC32
01 [A6A625E6] [80739FAF]
02 [54B820D6] [C22B15D5]
03 [145EB5F2] [633419E2]
04 [9CC8580A] [8FC36724]
05 [47D3AF01] [ED7ED071]
06 [957E18B0] [08CC9E22]
07 [728083C0] [ECAD5FF4]
08 [78E0C5E0] [9645CBC8]
09 [98942FF9] [E1CB8F78]


Source: CD from my collection.
Download text file with RS links