Subcategories

Payton MacDonald - Works for Tabla and Percussion (2007)

Posted By: pgf000
Payton MacDonald - Works for Tabla and Percussion (2007)

Payton MacDonald - Works for Tabla and Percussion (2007)
EAC Rip | FLAC+CUE+LOG | 267 MB | PDF booklet
MP3 CBR 320kbps | 129 MB | PDF Booklet
World/Classical | 55:49

As a teenager, percussionist and composer Payton MacDonald became fascinated with the tabla, an Indian instrument consisting of two drums, a smaller one with a wooden frame, and a larger one with a metal or ceramic frame. His interest continued through his graduate studies at the Eastman School of Music, and eventually led him to study with tabla master Pandit Sharda Sahai. He has also worked extensively with Canadian tabla player Shawn Mativetsky, who performs six of MacDonald's works on this CD. Three are solos and three are concertos for tabla and percussion quartet. The concertos are placed before the solos, but the listener new to the instrument may want to listen to the solos first to become familiar with the tabla's versatility.
1. Concerto No. 1 for Tabla and Percussion Quartet 10:43
2. Concerto No. 2 for Tabla and Percussion Quartet 13:08
3. Concerto No. 3 for Tabla and Percussion Quartet 11:49
4. Alap 8:04
5. Jor 5:35
6. Jhala 6:28
Exact Audio Copy V0.99 prebeta 5 from 4. May 2009

EAC extraction logfile from 26. February 2011, 9:51

Payton MacDonald / Works for tabla and percussion

Used drive : SlimtypeDVD A DS8A4S Adapter: 1 ID: 0

Read mode : Secure
Utilize accurate stream : Yes
Defeat audio cache : Yes
Make use of C2 pointers : No

Read offset correction : 6
Overread into Lead-In and Lead-Out : No
Fill up missing offset samples with silence : Yes
Delete leading and trailing silent blocks : No
Null samples used in CRC calculations : Yes
Used interface : Native Win32 interface for Win NT & 2000

Used output format : User Defined Encoder
Selected bitrate : 768 kBit/s
Quality : High
Add ID3 tag : Yes
Command line compressor : C:\Program Files (x86)\Exact Audio Copy\FLAC\FLAC.EXE
Additional command line options : -6 -V -T "ARTIST=%a" -T "TITLE=%t" -T "ALBUM=%g" -T "DATE=%y" -T "TRACKNUMBER=%n" -T "GENRE=%m" -T "COMMENT=%e" %s -o %d


TOC of the extracted CD

Track | Start | Length | Start sector | End sector
––––––––––––––––––––––––––––-
1 | 0:00.00 | 10:43.67 | 0 | 48291
2 | 10:43.67 | 13:08.14 | 48292 | 107405
3 | 23:52.06 | 11:49.50 | 107406 | 160630
4 | 35:41.56 | 8:04.20 | 160631 | 196950
5 | 43:46.01 | 5:35.07 | 196951 | 222082
6 | 49:21.08 | 6:28.22 | 222083 | 251204


Range status and errors

Selected range

Filename C:\Payton MacDonald - Works for tabla and percussion.wav

Peak level 87.2 %
Range quality 100.0 %
Copy CRC 9C2EB0D8
Copy OK

No errors occurred


AccurateRip summary

Track 1 not present in database
Track 2 not present in database
Track 3 not present in database
Track 4 not present in database
Track 5 not present in database
Track 6 not present in database

None of the tracks are present in the AccurateRip database

End of status report