Subcategories

Osaka Popstar - Osaka Popstar and The American Legends Of Punk (CD+DVD 2006)

Posted By: Rehabilly
Osaka Popstar - Osaka Popstar and The American Legends Of Punk (CD+DVD 2006)

Osaka Popstar - Osaka Popstar & The American Legends Of Punk
FLAC+CUE+LOG or MP3 CBR 320 | 27:44 min | + Full DVD | 221 or 63 + 410 MB
Punk rock revolutionaries have united to form the super-group Osaka Popstar

Osaka Popstar's line-up rips through their first disc, doing justice to the best of New York City punk rock.
The album boast tracks like "I Live Off You", "Astro Boy", "Monsters", "Love Comes In Spurts" and "Shaolin Monkeys", among others. The first single, "Wicked World" was written by renowned indie folk music icon Daniel Johnston, who also contributes vocals on a fervent cow-punk version of the traditional bluegrass lament "Man of Constant Sorrow". The bonus DVD is highlighted by a music video for "Wicked World" animated by Japanese designer Mari-Chan. Also featured on the DVD is the exclusive music video for "Insects", directed by commercial guru Joel Veitch (known for his Quiznos "Spongemonkeys" TV ads as well as his own UK Channel 4 program "Rather Good Videos"). In addition, Cafiero has assembled a posse of colossal visual artists to complete an over-the-top, high energy, bursting-with-color package, including original Topps bubble-gum card guru John Pound (Wacky Packs artist and creator of the Garbage Pail Kids), Space Monkeys designer and urban legend Dalek, Batman and Justice League wizard Butch Lukic. and Tragnark who is working closely with Cafiero in developing the "Shaolin Monkeys" character designs, based on the original Osaka Popstar tune of the same name, for an animated series.

Osaka Popstar - Osaka Popstar and The American Legends Of Punk (CD+DVD 2006)

Tracklist:

01. Wicked World
02. Astro Boy
03. Sailor Moon
04. Man Of Constant Sorrow
05. Insects
06. I Live Off You
07. Xmas Intro (That Almost Wasn't)
08. The Christmas That Almost Wasn't
09. Love Comes In Spurts
10. Blank Generation
11. Monsters
12. Where's The Cap'n?
13. Shaolin Monkeys

Exact Audio Copy V0.99 prebeta 5 from 4. May 2009

EAC extraction logfile from 5. September 2009, 1:05

Osaka Popstar / Osaka Popstar And The American Legends Of Punk

Used drive : PLEXTOR CD-R PREMIUM2 Adapter: 1 ID: 1

Read mode : Secure
Utilize accurate stream : Yes
Defeat audio cache : Yes
Make use of C2 pointers : No

Read offset correction : 30
Overread into Lead-In and Lead-Out : Yes
Fill up missing offset samples with silence : Yes
Delete leading and trailing silent blocks : No
Null samples used in CRC calculations : Yes
Used interface : Installed external ASPI interface

Used output format : Internal WAV Routines
Sample format : 44.100 Hz; 16 Bit; Stereo


TOC of the extracted CD

Track | Start | Length | Start sector | End sector
––––––––––––––––––––––––––––-
1 | 0:00.00 | 2:58.09 | 0 | 13358
2 | 2:58.09 | 1:30.49 | 13359 | 20157
3 | 4:28.58 | 1:11.24 | 20158 | 25506
4 | 5:40.07 | 3:20.00 | 25507 | 40506
5 | 9:00.07 | 2:06.49 | 40507 | 50005
6 | 11:06.56 | 1:50.26 | 50006 | 58281
7 | 12:57.07 | 0:10.24 | 58282 | 59055
8 | 13:07.31 | 1:38.30 | 59056 | 66435
9 | 14:45.61 | 1:53.51 | 66436 | 74961
10 | 16:39.37 | 2:47.62 | 74962 | 87548
11 | 19:27.24 | 2:52.73 | 87549 | 100521
12 | 22:20.22 | 2:25.23 | 100522 | 111419
13 | 24:45.45 | 2:58.10 | 111420 | 124779


Range status and errors

Selected range

Filename C:\200\Osaka Popstar & The American Legends Of Punk (2006)\Osaka Popstar & The American Legends Of Punk.wav

Peak level 100.0 %
Range quality 100.0 %
Copy CRC 47C02CE4
Copy OK

No errors occurred


AccurateRip summary

Track 1 accurately ripped (confidence 3) [A1B43741]
Track 2 accurately ripped (confidence 3) [5B8D937B]
Track 3 accurately ripped (confidence 3) [D8A3C5B8]
Track 4 accurately ripped (confidence 3) [7A34D487]
Track 5 accurately ripped (confidence 3) [F14FCA17]
Track 6 accurately ripped (confidence 3) [FF6AD869]
Track 7 accurately ripped (confidence 3) [4CDF4671]
Track 8 accurately ripped (confidence 3) [FFA63ADC]
Track 9 accurately ripped (confidence 3) [17A08D22]
Track 10 accurately ripped (confidence 3) [69E86BC4]
Track 11 accurately ripped (confidence 3) [5F429663]
Track 12 accurately ripped (confidence 3) [F8859597]
Track 13 accurately ripped (confidence 3) [18B8B1FE]

All tracks accurately ripped

End of status report


Limited DVD:

01. Wicked World [Animated MV]
02. Insects [Animated Music Video]

Untouched original disc.ISO
NTSC, Aspect Ratio: 4/3
MPEG-2 720x480, 29,97 Fps
Auto VBR (Nominal bitrate 9000 Kbps)
Audio: Dolby Digital 2.0 (192 Kbps)



Unpacked Size: 428 MB
3% Recovery info
RS Total: 410 MB

Produced and Arranged by John Cafiero
Recorded at Schoolhouse Studios NYC, West West Side Music & Watson's House Of Music
Mastered by Alan Douches at West West Side Music
Additional information see inside the booklet.

• John Cafiero - vocals on all tracks, guitar on 7 & 11
• Dez Cadena - guitar on tracks 1-6, 8, 12, 13
• Ivan Julian - guitar on 7,9,12; bass on 9-11, harmonium & piano on 11
• Jerry Only - bass on tracks 1-6, 8, 12, 13
• Marky Ramone - drums & percussion on all tracks

special guest:
- Daniel Johnson - vocals on track 4

Release Date: May 23, 2006
Number Of Discs: 2
Format: Limited Wacky package
Label: Misfits Records / Rykodisc
Catalog No.: RCD 10866-2