Subcategories

Om - Variations On A Theme (2005)

Posted By: Necromandus
773318
Om - Variations On A Theme (2005)
EAC Rip | WV, IMG+CUE+LOG | 310 MB | MP3 CBR 320 Kbps | 105 MB | Complete Scans | 18 MB
Psychedelic/Stoner Rock | Label: Holy Mountain | Catalog Number: 77525 | RAR 3% Rec. | RS.com

Om - Variations On A Theme (2005)

"Variations on a Theme picks up where Jerusalem/Dopesmoker left off – with lengthy, sprawling epics that border on drone yet have considerable heft and muscle. Since they’re operating without a guitar player, Om’s three songs are nothing but a low-end rumble. Hakius’ and Cisneros’ work on Variations on a Theme is impressive, especially the drumming. The three songs flow into one another, so don’t expect a hodge-podge of riffs and styles. Om work within certain specific constructs, toying with similar arrangements while maintaining a central theme."

~ Arzgarth, StonerRock.com
Tracklist:

1. On the Mountain at Dawn - 21:18
2. Kapila's Theme - 11:57
3. Annapurna - 11:55

Exact Audio Copy V0.99 prebeta 4 from 23. January 2008

EAC extraction logfile from 18. March 2009, 10:07

Om / Variations On A Theme

Used drive : SONY DVD RW AW-G170A Adapter: 0 ID: 0

Read mode : Secure
Utilize accurate stream : Yes
Defeat audio cache : Yes
Make use of C2 pointers : No

Read offset correction : 48
Overread into Lead-In and Lead-Out : No
Fill up missing offset samples with silence : Yes
Delete leading and trailing silent blocks : No
Null samples used in CRC calculations : Yes
Used interface : Installed external ASPI interface

Used output format : Internal WAV Routines
Sample format : 44.100 Hz; 16 Bit; Stereo


TOC of the extracted CD

Track | Start | Length | Start sector | End sector
––––––––––––––––––––––––––––-
1 | 0:00.00 | 21:18.35 | 0 | 95884
2 | 21:18.35 | 11:56.49 | 95885 | 149633
3 | 33:15.09 | 11:54.50 | 149634 | 203233


Range status and errors

Selected range

Filename D:\Music\Om - Variations On A Theme.wav

Peak level 97.7 %
Range quality 100.0 %
Test CRC D723DC9B
Copy CRC D723DC9B
Copy OK

No errors occurred


AccurateRip summary

Track 1 accurately ripped (confidence 5) [4A9D3612]
Track 2 accurately ripped (confidence 6) [1F9A0BE2]
Track 3 accurately ripped (confidence 6) [F23D47D8]

All tracks accurately ripped

End of status report

Om are:
Chris Hakius - Drums
Al Cisneros - Bass/Vocals

Engineered by Billy Anderson. Additional Engineering by Vadim.
Recorded at The Groove Room, San Rafael, Calif. Mixed at Take Root, San Francisco, Calif.
Produced by Om and Billy Anderson Cover and Sleeve photography by Tina Cordon
Art Construction by Earl Kuck, That's Who