Subcategories

Nicholas Payton - Gumbo Nouveau (1996)

Posted By: Bezz
Nicholas Payton - Gumbo Nouveau (1996)

Nicholas Payton - Gumbo Nouveau (1996)
EAC rip | FLAC + CUE + LOG | Full Scans | 430 Mb (Incl. Recovery)
Genre ~ Contemporary Jazz | Neo-Bop | Trumpet Jazz
Label ~ Verve Music Group

Only 22 at the time of this CD, Nicholas Payton had already quickly developed into a major trumpeter. Possessing a fat tone that is sometimes reminiscent of Freddie Hubbard, by the mid-'90s Payton had become New Orleans' latest significant contribution to jazz. On his second Verve release, Payton interprets and modernizes ten songs associated with his hometown and/or Louis Armstrong. Fortunately, Payton generally retains the flavor and joy of the original versions, even while he transforms much of the music into hard bop. To cite a few examples, "Whoopin' Blues" has parade rhythms, send-offs worthy of Lionel Hampton, and boppish solos, "Way Down Yonder in New Orleans" is taken as a slow and lightly swinging ballad, and "I Gotta Right to Sing the Blues" is turned into a jazz waltz. "Li'l Liza Jane" becomes a largely unrecognizable hard bop romp and this version of "When the Saints Go Marching In" is a bit melancholy, but "Wild Man Blues" is a real tour de force for the trumpeter and the duet between Payton and pianist Anthony Wonsey on "Weather Bird" has the leader liberally quoting from Louis Armstrong's classic version. Throughout the date, Payton is the lead voice, pianist Wonsey is the main supporting player, and there are occasional solos from altoist Jesse Davis and tenor saxophonist Tim Warfield. New Orleans jazz purists may not care for all of the updating, but the overall results are fresh and quite likable. Recommended. ~ AllMusic


Tracks List

01 - Whoopin' Blues (Traditional) 5:57
02 - When the Saints Go Marching In (Black, Campbell, McDowell) 6:22
03 - Wild Man Blues (Armstrong, Morton, Morton) 4:09
04 - After You've Gone (Creamer, Layton) 6:30
05 - Way Down Yonder in New Orleans (Creamer, Layton) 6:52
06 - Down in Honky Tonk Town (Public Domain , Smith) 4:00
07 - I Gotta Right to Sing the Blues (Arlen, Koehler) 5:31
08 - Li'l Liza Jane (Bartholomew, Christian, Domino, Smith) 6:01
09 - Weather Bird (Armstrong, King Oliver) 3:34
10 - St. James Infirmary (Mills, Primrose, Traditional) 7:51

Total Time: 56:47


Personel

Nicholas Payton (trumpet);
Jesse Davis (alto saxophone);
Tim Warfield (tenor saxophone);
Anthony Wonsey (piano);
Reuben Rogers (bass);
Adonis Rose (drums).


Exact Audio Copy V1.0 beta 1 from 15. November 2010

EAC extraction logfile from 3. March 2011, 22:11

Nicholas Payton / Gumbo Nouveau

Used drive : HL-DT-STDVD-RAM GSA-H55N Adapter: 0 ID: 2

Read mode : Secure
Utilize accurate stream : Yes
Defeat audio cache : Yes
Make use of C2 pointers : No

Read offset correction : 102
Overread into Lead-In and Lead-Out : Yes
Fill up missing offset samples with silence : Yes
Delete leading and trailing silent blocks : No
Null samples used in CRC calculations : Yes
Used interface : Installed external ASPI interface
Gap handling : Appended to previous track

Used output format : User Defined Encoder
Selected bitrate : 128 kBit/s
Quality : High
Add ID3 tag : No
Command line compressor : G:\Program Files\Exact Audio Copy\Encoder\flac.exe
Additional command line options : -V -8 -T "Genre=%m" -T "Artist=%a" -T "Title=%t" -T "Album=%g" -T "Date=%y" -T "Tracknumber=%n" -T "Comment=EAC1.0b1 -8" %s


TOC of the extracted CD

Track | Start | Length | Start sector | End sector
––––––––––––––––––––––––––––-
1 | 0:00.00 | 5:58.22 | 0 | 26871
2 | 5:58.22 | 6:24.00 | 26872 | 55671
3 | 12:22.22 | 4:09.73 | 55672 | 74419
4 | 16:32.20 | 6:31.57 | 74420 | 103801
5 | 23:04.02 | 6:53.13 | 103802 | 134789
6 | 29:57.15 | 4:01.57 | 134790 | 152921
7 | 33:58.72 | 5:32.33 | 152922 | 177854
8 | 39:31.30 | 6:02.35 | 177855 | 205039
9 | 45:33.65 | 3:34.40 | 205040 | 221129
10 | 49:08.30 | 7:51.00 | 221130 | 256454


Track 1

Filename F:\WAV\01 - Whoopin' Blues.wav

Pre-gap length 0:00:02.00

Peak level 75.3 %
Extraction speed 3.9 X
Track quality 99.9 %
Test CRC D4566A55
Copy CRC D4566A55
Accurately ripped (confidence 2) [6A0DB270]
Copy OK

Track 2

Filename F:\WAV\02 - When The Saints Go Marching In.wav

Pre-gap length 0:00:00.70

Peak level 75.6 %
Extraction speed 5.3 X
Track quality 100.0 %
Test CRC 1E561D3C
Copy CRC 1E561D3C
Accurately ripped (confidence 2) [D141F712]
Copy OK

Track 3

Filename F:\WAV\03 - Wild Man Blues.wav

Pre-gap length 0:00:01.55

Peak level 74.3 %
Extraction speed 5.5 X
Track quality 100.0 %
Test CRC 19938073
Copy CRC 19938073
Accurately ripped (confidence 2) [13C69FF8]
Copy OK

Track 4

Filename F:\WAV\04 - After You've Gone.wav

Pre-gap length 0:00:01.18

Peak level 80.4 %
Extraction speed 6.3 X
Track quality 100.0 %
Test CRC 62B5D8F2
Copy CRC 62B5D8F2
Accurately ripped (confidence 2) [66971CBB]
Copy OK

Track 5

Filename F:\WAV\05 - Way Down Yonder In New Orleans.wav

Pre-gap length 0:00:01.32

Peak level 77.3 %
Extraction speed 6.8 X
Track quality 100.0 %
Test CRC 358EE387
Copy CRC 358EE387
Accurately ripped (confidence 2) [5F05ACFC]
Copy OK

Track 6

Filename F:\WAV\06 - Down In Honky Tonk Town.wav

Pre-gap length 0:00:01.48

Peak level 88.5 %
Extraction speed 5.9 X
Track quality 99.9 %
Test CRC 1D1619D5
Copy CRC 1D1619D5
Accurately ripped (confidence 2) [C2E533E4]
Copy OK

Track 7

Filename F:\WAV\07 - I Gotta Right To Sing The Blues.wav

Pre-gap length 0:00:01.27

Peak level 83.9 %
Extraction speed 7.4 X
Track quality 100.0 %
Test CRC 223B09B9
Copy CRC 223B09B9
Accurately ripped (confidence 2) [4BB400D1]
Copy OK

Track 8

Filename F:\WAV\08 - Li'l Liza Jane.wav

Pre-gap length 0:00:01.23

Peak level 80.2 %
Extraction speed 7.6 X
Track quality 100.0 %
Test CRC C3AADEDD
Copy CRC C3AADEDD
Accurately ripped (confidence 2) [CA8C6394]
Copy OK

Track 9

Filename F:\WAV\09 - Weather Bird.wav

Pre-gap length 0:00:01.40

Peak level 92.1 %
Extraction speed 6.3 X
Track quality 99.9 %
Test CRC B9A943C0
Copy CRC B9A943C0
Accurately ripped (confidence 2) [F0B4ADA8]
Copy OK

Track 10

Filename F:\WAV\10 - St. James Infirmary.wav

Pre-gap length 0:00:00.60

Peak level 80.7 %
Extraction speed 6.2 X
Track quality 100.0 %
Test CRC 71F9EB8C
Copy CRC 71F9EB8C
Accurately ripped (confidence 2) [CAB520FB]
Copy OK


All tracks accurately ripped

No errors occurred

End of status report

==== Log checksum F1A0628869EA0B748966CCF20F474DE4C8FCAA7AD3707BDB3DA0CF2B4D1068BC ====



Nicholas Payton - Gumbo Nouveau (1996)


Nicholas Payton - Gumbo Nouveau (1996)



Special thanks to original ripper!


FILESONIC links

Part 1 | Part 2 | Part 3 | Part 4 | Part 5


FILESERVE links

Part 1 | Part 2 | Part 3 | Part 4 | Part 5


BITSHARE links

Part 1 | Part 2 | Part 3 | Part 4 | Part 5



Welcome to my blog for more wonderful music


PLEASE DO NOT PROVIDE MIRROR LINKS!