Subcategories

The Methadones - This Won't Hurt... (2007) Re-RIPPED, Re-SCANNED & RESTORED

Posted By: Rehabilly
The Methadones - This Won't Hurt... (2007) Re-RIPPED, Re-SCANNED & RESTORED

The Methadones - This Won't Hurt…
FLAC+CUE+LOG or MP3 320 | 33:15 min | 253 or 76 MB

Chicago's Methadones got our attention with their last proper album, "Not Economically Viable", which came out on Thick Records in 2004. It was their breakthrough, and anyone who overlooked that LP missed out on the best pop punk record of 2004. We then hooked up to release a hilarious party album ("21st Century Power Pop Riot") that featured The Methadones with a number of guest vocalists covering Cheap Trick, Costello, and more. Now it's back to business, and the Methadones have a new batch of originals that pick up where they left off with the great "Not Economically Viable".

The Methadones - This Won't Hurt... (2007) Re-RIPPED, Re-SCANNED & RESTORED

Tracklist:

01. Six Degrees Of Seperation
02. Getting Older / Losing Touch
03. Poor Little Rich Girl
04. Street In My Hometown
05. Turning Up The Noise
06. Where Did You Hide The Sun???
07. Falling Forward
08. Alcohol Makes The World Go Around
09. Break Out Of My Head
10. Starting Line
11. I Believe
12. Already Gone

all songs written by Dan Schafer except "10" by Mittler/Schafer

Exact Audio Copy V1.0 beta 1 from 15. November 2010

EAC extraction logfile from 25. May 2013, 8:04

The Methadones / This Won't Hurt…

Used drive : ASUS DRW-1814BL Adapter: 2 ID: 0

Read mode : Secure
Utilize accurate stream : Yes
Defeat audio cache : Yes
Make use of C2 pointers : No

Read offset correction : 6
Overread into Lead-In and Lead-Out : No
Fill up missing offset samples with silence : Yes
Delete leading and trailing silent blocks : No
Null samples used in CRC calculations : Yes
Used interface : Installed external ASPI interface

Used output format : Internal WAV Routines
Sample format : 44.100 Hz; 16 Bit; Stereo


TOC of the extracted CD

Track | Start | Length | Start sector | End sector
––––––––––––––––––––––––––––-
1 | 0:00.00 | 1:27.52 | 0 | 6576
2 | 1:27.52 | 3:14.72 | 6577 | 21198
3 | 4:42.49 | 3:17.54 | 21199 | 36027
4 | 8:00.28 | 2:16.63 | 36028 | 46290
5 | 10:17.16 | 3:11.64 | 46291 | 60679
6 | 13:29.05 | 1:57.44 | 60680 | 69498
7 | 15:26.49 | 3:24.30 | 69499 | 84828
8 | 18:51.04 | 2:42.12 | 84829 | 96990
9 | 21:33.16 | 2:30.02 | 96991 | 108242
10 | 24:03.18 | 2:54.02 | 108243 | 121294
11 | 26:57.20 | 2:36.34 | 121295 | 133028
12 | 29:33.54 | 3:40.57 | 133029 | 149585


Range status and errors

Selected range

Filename C:\_www.AvaxHome.ru\The Methadones - This Won't Hurt… (2007)\Methadones - This Won't Hurt (CCCP 114-2).wav

Peak level 97.7 %
Extraction speed 0.4 X
Range quality 100.0 %
Test CRC DAB728F7
Copy CRC DAB728F7
Copy OK

No errors occurred


AccurateRip summary

Track 1 accurately ripped (confidence 4) [74A07D5D]
Track 2 accurately ripped (confidence 4) [01C1BF0F]
Track 3 accurately ripped (confidence 4) [CC4CDC2F]
Track 4 accurately ripped (confidence 4) [D61E4CA9]
Track 5 accurately ripped (confidence 4) [CF751A02]
Track 6 accurately ripped (confidence 4) [EB73A0CC]
Track 7 accurately ripped (confidence 4) [F29669F0]
Track 8 accurately ripped (confidence 4) [0B4330B9]
Track 9 accurately ripped (confidence 4) [3C21830F]
Track 10 accurately ripped (confidence 4) [C5546A2B]
Track 11 accurately ripped (confidence 4) [445794E4]
Track 12 accurately ripped (confidence 4) [D4729F86]

All tracks accurately ripped

End of status report

==== Log checksum 2CB045FC51F78F0CB26C019B64B12688C0E6A734B263BA538750090CB7AFE019 ====


Produced by Matt Allison
Recorded at Atlas Studios, March 2007.

• Daniel Schafer - vocals, guitar
• Mike Byrne - guitar
• Pete Mittler - Bass
• Mike Soucy - Drums

Release Date: July 10, 2007
Label: Red Scare Industries
Catalog No.: CCCP 114-2
The Right choice*
http://nitroflare.com/view/043698A2D7A43E2/MTD207TWH24F.rar

all covers.png (80 MB) NEW
http://nitroflare.com/view/A6220185062DFAD/MTD207TWH550C.rar

lossy.mp3
http://nitroflare.com/view/8DA7445A61FDCD8/MTD207TWH20G.rar


* Original CD -> EAC image, embedded cuesheet & more, foobar2000 ready, etc.
(all CUEs, LOGs and other technical info includes in the internal "CD_Support" archive)