Maria João Pires - Complete Chamber Music Recordings On Deutsche Grammophon (2016) {12CD Set}

Posted By: ruskaval
Maria João Pires - Complete Chamber Music Recordings On Deutsche Grammophon (2016) {12CD Set}

Maria João Pires - Complete Chamber Music Recordings On Deutsche Grammophon (2016) {12CD Set}
EAC rip (secure mode) | FLAC (tracks)+CUE+LOG -> 3.44 Gb
Full Artwork @ 300 dpi (png) -> 232 Mb | 5% repair rar
© 2016 Deutsche Grammophon | 0289 479 5964 9
Classsical / Chamber Music / Piano

Chamber music has always formed the heart of Maria João Pires’s musicianship. Indeed, she has often commented that she is happier working with others than performing on her own. “Not sharing a stage is very difficult for me,” she once remarked (in an interview for ArtsJournal in 2012) “You are apart from the group, apart from community, apart from everything. You become different and special. And, if you become different and special, you’re alone.”
Maria João Pires - Complete Chamber Music Recordings On Deutsche Grammophon (2016) {12CD Set}

With this original jackets’ box set Deutsche Grammophon concludes its series of 3 box sets that present the totality of Maria João Pires’s output for the Yellow Label. This third volume encompasses her complete chamber music recordings including classic performances with Auguste Dumay, Jian Wang, António Meneses, Pavel Gomziakov and Renaud Capuçon.
Maria João Pires - Complete Chamber Music Recordings On Deutsche Grammophon (2016) {12CD Set}


Deutsche Grammophon INFO

Works by
Beethoven · Brahms
Debussy · Franck
Grieg · Mendelssohn
Schubert · Schumann


Maria João Pires
Douglas Boyd · Augustin Dumay
Pavel Gomziakov · António Meneses
Jian Wang


Maria João Pires - Complete Chamber Music Recordings On Deutsche Grammophon (2016) {12CD Set}



12CD cap box
Original jackets + cap box
Full-color booklet in English and German

Maria João Pires - Complete Chamber Music Recordings On Deutsche Grammophon (2016) {12CD Set}


REPERTOIRE OVERVIEW

CD1, 2 and 3. Beethoven - Complete Sonatas for violin and piano (Dumay)

CD4. Brahms - 3 Sonatas for violin (Dumay)

CD5. Brahms - Piano Trio nos. 1+2 (Dumay, Wang)

CD6. Grieg - Sonatas for violin nos. 1-3 (Dumay)

CD7. Mozart - Piano Trios K496, 502 (Dumay, Wang)

CD8. Mozart - Sonatas for violin K301, 304, 378, 379 (Dumay)

CD9. Schumann - Piano Quintet op. 44 + Chopin: Cello Sonata op. 65

Maria João Pires - Complete Chamber Music Recordings On Deutsche Grammophon (2016) {12CD Set}


CD10. Schumann - Fantasiestücke (Boyd)

CD11. Franck, Debussy, Ravel: Sonatas for violin and pinao / Tzigane, Rhapsody (Dumay)

CD12. Bach, Brahms, Mendelssohn, Schubert: The Wigmore Hall Recital (Antonio Meneses)

Maria João Pires - Complete Chamber Music Recordings On Deutsche Grammophon (2016) {12CD Set}


CD 1: Beethoven: Sonatas For Violin And Piano Nos. 1 - 4

Ludwig van Beethoven (1770 - 1827)

Sonata For Violin And Piano No.1 In D, Op.12 No.1
1.1. Allegro con brio 8:43
2.2. Tema con variazioni (Andante con moto) 6:57
3.3. Rondo (Allegro) 4:47

Sonata For Violin And Piano No.2 In A, Op.12 No.2
4.1. Allegro vivace 6:40
5.2. Andante piщ tosto allegretto 5:16
6.3. Allegro piacevole 4:57

Sonata For Violin And Piano No.4 In A Minor, Op.23
7.1. Presto 7:14
8.2. Andante scherzoso, piщ allegretto 7:40
9.3. Allegro molto 5:19

Sonata For Violin And Piano No.3 In E-Flat, Op.12 No.3
10.1. Allegro con spirito 8:25
11.2. Adagio con molt'espressione 6:28
12.3. Rondo (Allegro molto) 4:35

Augustin Dumay, Maria Joгo Pires

Total Playing Time 1:17:01
––––––––––––––––––––––––––––––
CD 2: Beethoven: Sonatas For Violin And Piano Nos. 5, 8 - 9

Ludwig van Beethoven (1770 - 1827)

Sonata For Violin And Piano No.8 In G, Op.30 No.3
1.1. Allegro assai 6:00
2.2. Tempo di minuetto, ma molto moderato e grazioso 7:49
3.3. Allegro vivace 3:25

Sonata For Violin And Piano No.5 In F, Op.24 - "Spring"
4.1. Allegro 9:46
5.2. Adagio molto espressivo 6:13
6.3. Scherzo (Allegro molto) 1:14
7.4. Rondo (Allegro ma non troppo) 6:33

Sonata For Violin And Piano No.9 In A, Op.47 - "Kreutzer"
8.1. Adagio sostenuto - Presto 14:29
9.2. Andante con variazioni 15:25
10.3. Finale (Presto) 8:33

Augustin Dumay, Maria Joгo Pires

Total Playing Time 1:19:27
––––––––––––––––––––––––––––––
CD 3: Beethoven: Sonatas For Violin And Piano Nos. 6-7, 10

Ludwig van Beethoven (1770 - 1827)

Sonata For Violin And Piano No.10 In G, Op.96
1.1. Allegro moderato 10:15
2.2. Adagio espressivo 6:03
3.3. Scherzo (Allegro) 2:05
4.4. Poco allegretto 8:57

Sonata For Violin And Piano No.6 In A, Op.30 No.1
5.1. Allegro 7:22
6.2. Adagio 6:36
7.3. Allegretto con variazioni 8:35

Sonata For Violin And Piano No.7 In C Minor, Op.30 No.2
8.1. Allegro con brio 7:31
9.2. Adagio cantabile 9:00
10.3. Scherzo (Allegro) 3:23
11.4. Finale (Allegro) 5:06

Augustin Dumay, Maria Joгo Pires

Total Playing Time 1:14:53
––––––––––––––––––––––––––––––
CD 4: Brahms: Sonatas For Violin And Piano

Johannes Brahms (1833 - 1897)

Sonata For Violin & Piano No.1 in G, Op.78
1.1. Vivace ma non troppo 10:59
2.2. Adagio 8:41
3.3. Allegro molto moderato 9:12

Sonata For Violin And Piano No.2 In A, Op.100
4.1. Allegro amabile 8:50
5.2. Andante tranquillo - Vivace - Andante - Vivace di piщ - Andante vivace 6:02
6.3. Allegretto grazioso (Quasi andante) 5:35

Sonata For Violin And Piano No 3 In D Minor, Op.108
7.1. Allegro 8:44
8.2. Adagio 4:46
9.3. Un poco presto e con sentimento 3:03
10.4. Presto agitato 5:44

Augustin Dumay, Maria Joгo Pires

Total Playing Time 1:11:36
––––––––––––––––––––––––––––––
CD 5: Brahms: Piano Trio Nos.1 Op.8 & 2 Op.87

Johannes Brahms (1833 - 1897)

Piano Trio No.1 In B, Op.8
1.1. Allegro con brio 15:13
2.2. Scherzo (Allegro molto) 6:36
3.3. Adagio 9:14
4.4. Allegro 6:44

Piano Trio No.2 In C, Op.87
5.1. Allegro 9:57
6.2. Andante con moto 8:14
7.3. Scherzo (Presto) 4:33
8.4. Finale (Allegro giocoso) 6:00

Maria Joгo Pires, Augustin Dumay, Jian Wang

Total Playing Time 1:06:31
––––––––––––––––––––––––––––––
CD 6: Grieg: Sonatas For Violin And Piano Op. 8, 13 & 45

Edvard Grieg (1843 - 1907)

Sonata For Violin And Piano In F Major, Op.8 (1865)
1.1. Allegro con brio 9:31
2.2. Allegretto quasi Andantino - Piщ vivo - Tempo I 4:45
3.3. Allegro molto vivace 9:59

Sonata For Violin And Piano In G Major, Op.13 (1867)
4.1. Lento doloroso - Poco allegro - Allegro vivace 9:40
5.2. Allegretto tranquillo 6:29
6.3. Allegro animato 5:33

Sonata For Violin And Piano No.3 In C Minor, Op.45
7.1. Allegro molto ed appassionato 9:27
8.2. Allegretto espressivo alla Romanza 6:28
9.3. Allegro animato 7:56

Augustin Dumay, Maria Joгo Pires

Total Playing Time 1:09:48
––––––––––––––––––––––––––––––
CD 7: Mozart, W.A.: Piano Trios K. 502; K.496 & K.254

Wolfgang Amadeus Mozart (1756 - 1791)

Piano Trio In B Flat, K.502
1.1. Allegro 8:07
2.2. Larghetto 8:17
3.3. Allegretto 5:58

Piano Trio In G, K.496
4.1. Allegro 11:10
5.2. Andante 6:26
6.3. Allegretto (Thema mit 6 Variationen) 10:18

Divertimento (Piano Trio) In B Flat, K.254
7.1. Allegro assai 7:39
8.2. Adagio 8:55
9.3. Rondeau (Tempo di menuetto) 5:52

Maria Joгo Pires, Augustin Dumay, Jian Wang

Total Playing Time 1:12:42
––––––––––––––––––––––––––––––
CD 8: Mozart, W.A.: Sonatas For Piano And Violin, K. 301, K. 304, K. 378, K. 379

Wolfgang Amadeus Mozart (1756 - 1791)

Sonata For Piano And Violin In G Major, K.301
1.1. Allegro con spirito 11:22
2.2. Allegro 5:24

Sonata For Piano And Violin In E Minor, K.304
3.1. Allegro 9:37
4.2. Tempo di minuetto 5:10

Sonata For Piano And Violin In B Flat Major, K.378
5.1. Allegro moderato 8:48
6.2. Andantino sostenuto e cantabile 5:42
7.3. Rondo (Allegro) 4:26

Sonata For Piano And Violin In G Major, K.379
8.1. Adagio - Allegro 12:56
9.2. Thema. Andantino cantabile - Var.I-V -Allegretto 10:03

Maria Joгo Pires, Augustin Dumay

Total Playing Time 1:13:28
––––––––––––––––––––––––––––––
CD 9: Schumann: Piano Quintet Op. 44 / Chopin: Cello Sonata Op.65

Robert Schumann (1810 - 1856)

Piano Quintet In E Flat, Op.44
1.1. Allegro brillante 8:59
2.2. In modo d'una marcia (Un poco largamente) 9:08
3.3. Scherzo (Molto vivace) 4:38
4.4. Allegro, ma non troppo 7:21

Maria Joгo Pires

Frйdйric Chopin (1810 - 1849)

Sonata In G Minor For Cello & Piano, Op.65
5.1. Allegro moderato 17:11
6.2. Scherzo (Allegro con brio) 5:35
7.3. Largo 3:57
8.4. Finale (Allegro) 7:18

Maria Joгo Pires, Pavel Gomziakov

Total Playing Time 1:04:07
––––––––––––––––––––––––––––––
CD 10: Schumann : Three Romances, Op.94; Adagio And Allegro In A Flat, Op.70; Fantasiestьcke, Op.73; 5 Stьcke im Volkston, Op.102

Robert Schumann (1810 - 1856)

3 Romances, Op.94
1.1. Nicht schnell 3:40
2.2. Einfach, innig 4:10
3.3. Nicht schnell 4:28

Adagio and Allegro in A flat major, Op. 70
4.1. Langsam, mit innigem Ausdruck 4:56
5.2. Rasch und feurig 4:26

Fantasiestьcke, Op.73
6.1. Zart und mit Ausdruck 3:47
7.2. Lebhaft, leicht 3:26
8.3. Rasch und mit Feuer 4:25

5 Stьcke Im Volkston, Op.102
9.2. Langsam 3:40
10.3. Nicht schnell, mit viel Ton zu spielen 3:37
11.4. Nicht zu rasch 1:57

Abendlied, Op.85, No.12
12.Espressivo e molto sostenuto 2:56

Douglas Boyd, Maria Joгo Pires

Total Playing Time 45:28
––––––––––––––––––––––––––––––
CD 11: Franck: Sonata In A For Violin And Piano, M. 8 / Debussy: Sonata In G Minor For Violin And Piano, L. 140 / Ravel: Berceuse sur le nom de Gabriel Faurй, M. 74; Vocalise-Etude (en forme de Habanera), M. 51; Tzigane, M. 76

Cйsar Franck (1822 - 1890)

Sonata In A Major For Violin & Piano, FWV 8
1.1. Allegretto ben moderato 5:47
2.2. Allegro- Quasi lento- Tempo 1 (Allegro) 7:59
3.3. Recitativo - Fantasia (Ben moderato - Largamente - Molto vivace) 7:00
4.4. Allegretto poco mosso 6:10

Claude Debussy (1862 - 1918)

Sonata In G Minor For Violin & Piano, L. 140
5.1. Allegro vivo 4:54
6.2. Intermиde (Fantasque et lйger) 4:17
7.3. Finale (Trиs animй) 4:11

Maurice Ravel (1875 - 1937)

8.Berceuse sur le nom de Gabriel Faurй 2:23
9.Vocalise-йtude (en forme de Habanera), M. 51 2:56
10.Tzigane, M.76 9:55

Augustin Dumay, Maria Joгo Pires

Total Playing Time 55:32
––––––––––––––––––––––––––––––
CD 12: Wigmore Hall Recital: Schubert / Brahms / Mendelssohn / Bach

Franz Schubert (1797 - 1828)

Sonata For Arpeggione And Piano In A Minor, D. 821
1.1. Allegro moderato 11:36
2.2. Adagio 4:29
3.3. Allegretto 8:51

Antуnio Meneses, Maria Joгo Pires

Johannes Brahms (1833 - 1897)

3 Intermezzi, Op.117
4.Andante moderato, en mi bйmol majeur 5:06
5.Andante non troppo, en si bйmol mineur 4:56
6.Andante con moto, en ut diиse mineur 5:41

Maria Joгo Pires

Felix Mendelssohn (1809 - 1847)

7.Song Without Words For Cello And Piano In D, Op.109 4:13

Johannes Brahms (1833 - 1897)

Sonata For Cello And Piano No.1 In E Minor, Op.38
8.1. Allegro non troppo 14:38
9.2. Allegretto quasi minuetto 5:38
10.3. Allegro - Piщ presto 7:01

Johann Sebastian Bach (1685 - 1750)

11.Pastoral In F, BWV 590 (Pastorale In F, BWV 590 - Arranged For Cello And Piano) 3:56

Antуnio Meneses, Maria Joгo Pires

Total Playing Time 1:16:05


Maria João Pires - Complete Chamber Music Recordings On Deutsche Grammophon (2016) {12CD Set}


All thanks goes to the original releaser!

Exact Audio Copy V1.3 from 2. September 2016

EAC extraction logfile from 18. November 2016, 19:25

Augustin Dumay & Maria Joao Pires / Beethoven Complete Violin Sonatas CD1

Used drive : ATAPI iHBS112 2 Adapter: 1 ID: 1

Read mode : Secure
Utilize accurate stream : Yes
Defeat audio cache : Yes
Make use of C2 pointers : No

Read offset correction : 6
Overread into Lead-In and Lead-Out : No
Fill up missing offset samples with silence : Yes
Delete leading and trailing silent blocks : No
Null samples used in CRC calculations : Yes
Used interface : Native Win32 interface for Win NT & 2000
Gap handling : Appended to previous track

Used output format : User Defined Encoder
Selected bitrate : 128 kBit/s
Quality : High
Add ID3 tag : No
Command line compressor : C:\Program Files (x86)\Exact Audio Copy\Flac\flac.exe
Additional command line options : -8 -V -T "ARTIST=%artist%" -T "TITLE=%title%" -T "ALBUM=%albumtitle%" -T "DATE=%year%" -T

"TRACKNUMBER=%tracknr%" -T "GENRE=%genre%" -T "PERFORMER=%albuminterpret%" -T "COMPOSER=%composer%" -T

"ALBUMARTIST=%albumartist%" -T "DISCNUMBER=%cdnumber%" -T "TOTALDISCS=%totalcds%" -T "TOTALTRACKS=%numtracks%" -T

"COMMENT=EAC Secure Mode, Test & Copy, AccurateRip, FLAC -8" %source% -o %dest%


TOC of the extracted CD

Track | Start | Length | Start sector | End sector
––––––––––––––––––––––––––––-
1 | 0:00.00 | 8:43.00 | 0 | 39224
2 | 8:43.00 | 6:57.00 | 39225 | 70499
3 | 15:40.00 | 4:53.00 | 70500 | 92474
4 | 20:33.00 | 6:40.00 | 92475 | 122474
5 | 27:13.00 | 5:16.00 | 122475 | 146174
6 | 32:29.00 | 5:03.00 | 146175 | 168899
7 | 37:32.00 | 7:14.00 | 168900 | 201449
8 | 44:46.00 | 7:40.00 | 201450 | 235949
9 | 52:26.00 | 5:26.00 | 235950 | 260399
10 | 57:52.00 | 8:25.00 | 260400 | 298274
11 | 66:17.00 | 6:28.00 | 298275 | 327374
12 | 72:45.00 | 4:35.00 | 327375 | 347999


Track 1

Filename D:\DL\Maria Joao Pires - Complete Chamber Music (2016) [FLAC]\CD01\01 - Sonata No.1 in D major Op.12 No.1 - I.

Allegro con brio.wav

Pre-gap length 0:00:02.00

Peak level 91.5 %
Extraction speed 6.5 X
Track quality 100.0 %
Test CRC F549086E
Copy CRC F549086E
Accurately ripped (confidence 25) [CE2440A2] (AR v2)
Copy OK

Track 2

Filename D:\DL\Maria Joao Pires - Complete Chamber Music (2016) [FLAC]\CD01\02 - Sonata No.1 in D major Op.12 No.1 - II.

Tema con variazioni. Andante con moto.wav

Peak level 99.9 %
Extraction speed 6.6 X
Track quality 99.9 %
Test CRC 70EB7835
Copy CRC 70EB7835
Accurately ripped (confidence 24) [60872BB3] (AR v2)
Copy OK

Track 3

Filename D:\DL\Maria Joao Pires - Complete Chamber Music (2016) [FLAC]\CD01\03 - Sonata No.1 in D major Op.12 No.1 - III.

Rondo. Allegro.wav

Peak level 88.1 %
Extraction speed 7.7 X
Track quality 100.0 %
Test CRC 341FCFE9
Copy CRC 341FCFE9
Accurately ripped (confidence 24) [FA612504] (AR v2)
Copy OK

Track 4

Filename D:\DL\Maria Joao Pires - Complete Chamber Music (2016) [FLAC]\CD01\04 - Sonata No.2 in A major Op.12 No.2 - I.

Allegro vivace.wav

Pre-gap length 0:00:06.00

Peak level 99.9 %
Extraction speed 8.5 X
Track quality 100.0 %
Test CRC 135E3816
Copy CRC 135E3816
Accurately ripped (confidence 24) [DE53C5BB] (AR v2)
Copy OK

Track 5

Filename D:\DL\Maria Joao Pires - Complete Chamber Music (2016) [FLAC]\CD01\05 - Sonata No.2 in A major Op.12 No.2 - II.

Andante piu tosto allegretto.wav

Peak level 69.8 %
Extraction speed 8.8 X
Track quality 100.0 %
Test CRC 80FCC59D
Copy CRC 80FCC59D
Accurately ripped (confidence 24) [42A52E7B] (AR v2)
Copy OK

Track 6

Filename D:\DL\Maria Joao Pires - Complete Chamber Music (2016) [FLAC]\CD01\06 - Sonata No.2 in A major Op.12 No.2 - III.

Allegro piacevole.wav

Peak level 88.6 %
Extraction speed 9.2 X
Track quality 100.0 %
Test CRC 880BC75C
Copy CRC 880BC75C
Accurately ripped (confidence 24) [504961C8] (AR v2)
Copy OK

Track 7

Filename D:\DL\Maria Joao Pires - Complete Chamber Music (2016) [FLAC]\CD01\07 - Sonata No.4 in A minor Op.23 - I.

Presto.wav

Pre-gap length 0:00:06.00

Peak level 99.2 %
Extraction speed 10.0 X
Track quality 100.0 %
Test CRC B6CE2613
Copy CRC B6CE2613
Accurately ripped (confidence 24) [2A120FB3] (AR v2)
Copy OK

Track 8

Filename D:\DL\Maria Joao Pires - Complete Chamber Music (2016) [FLAC]\CD01\08 - Sonata No.4 in A minor Op.23 - II. Andante

scherzoso piu allegretto.wav

Peak level 74.3 %
Extraction speed 10.5 X
Track quality 100.0 %
Test CRC 12BC6B95
Copy CRC 12BC6B95
Accurately ripped (confidence 24) [6FB6360C] (AR v2)
Copy OK

Track 9

Filename D:\DL\Maria Joao Pires - Complete Chamber Music (2016) [FLAC]\CD01\09 - Sonata No.4 in A minor Op.23 - III. Allegro

molto.wav

Peak level 99.3 %
Extraction speed 9.2 X
Track quality 99.9 %
Test CRC E08F275C
Copy CRC E08F275C
Accurately ripped (confidence 24) [AB547C61] (AR v2)
Copy OK

Track 10

Filename D:\DL\Maria Joao Pires - Complete Chamber Music (2016) [FLAC]\CD01\10 - Sonata No.3 in E flat major Op.12 No.3 - I.

Allegra con spirito.wav

Pre-gap length 0:00:07.00

Peak level 99.9 %
Extraction speed 10.3 X
Track quality 99.9 %
Test CRC 7C20EEC4
Copy CRC 7C20EEC4
Accurately ripped (confidence 22) [A10058C0] (AR v2)
Copy OK

Track 11

Filename D:\DL\Maria Joao Pires - Complete Chamber Music (2016) [FLAC]\CD01\11 - Sonata No.3 in E flat major Op.12 No.3 - II.

Andante con molta espressione.wav

Peak level 95.9 %
Extraction speed 11.7 X
Track quality 100.0 %
Test CRC D660DE54
Copy CRC D660DE54
Accurately ripped (confidence 24) [089C5BAA] (AR v2)
Copy OK

Track 12

Filename D:\DL\Maria Joao Pires - Complete Chamber Music (2016) [FLAC]\CD01\12 - Sonata No.3 in E flat major Op.12 No.3 - III.

Rondo. Allegro molto.wav

Peak level 82.7 %
Extraction speed 11.6 X
Track quality 100.0 %
Test CRC 5B401B26
Copy CRC 5B401B26
Accurately ripped (confidence 23) [8D287866] (AR v2)
Copy OK


All tracks accurately ripped

No errors occurred

End of status report

–– CUETools DB Plugin V2.1.6

[CTDB TOCID: IYzi9tZSv2YxzVO8jXsmIOgh6ww-] found
Submit result: IYzi9tZSv2YxzVO8jXsmIOgh6ww- has been confirmed
Track | CTDB Status
1 | (40/42) Accurately ripped
2 | (42/42) Accurately ripped
3 | (42/42) Accurately ripped
4 | (42/42) Accurately ripped
5 | (42/42) Accurately ripped
6 | (42/42) Accurately ripped
7 | (40/42) Accurately ripped
8 | (42/42) Accurately ripped
9 | (42/42) Accurately ripped
10 | (42/42) Accurately ripped
11 | (42/42) Accurately ripped
12 | (37/42) Accurately ripped


==== Log checksum 8C6A130F7FD9329209DCE23FDFF6B30A23017AA6E5AD80474C76AD329D4042AA ====

============
Exact Audio Copy V1.3 from 2. September 2016

EAC extraction logfile from 18. November 2016, 21:16

Augustin Dumay & Maria Joao Pires / Beethoven Complete Violin Sonatas CD2

Used drive : ATAPI iHBS112 2 Adapter: 1 ID: 1

Read mode : Secure
Utilize accurate stream : Yes
Defeat audio cache : Yes
Make use of C2 pointers : No

Read offset correction : 6
Overread into Lead-In and Lead-Out : No
Fill up missing offset samples with silence : Yes
Delete leading and trailing silent blocks : No
Null samples used in CRC calculations : Yes
Used interface : Native Win32 interface for Win NT & 2000
Gap handling : Appended to previous track

Used output format : User Defined Encoder
Selected bitrate : 128 kBit/s
Quality : High
Add ID3 tag : No
Command line compressor : C:\Program Files (x86)\Exact Audio Copy\Flac\flac.exe
Additional command line options : -8 -V -T "ARTIST=%artist%" -T "TITLE=%title%" -T "ALBUM=%albumtitle%" -T "DATE=%year%" -T

"TRACKNUMBER=%tracknr%" -T "GENRE=%genre%" -T "PERFORMER=%albuminterpret%" -T "COMPOSER=%composer%" -T

"ALBUMARTIST=%albumartist%" -T "DISCNUMBER=%cdnumber%" -T "TOTALDISCS=%totalcds%" -T "TOTALTRACKS=%numtracks%" -T

"COMMENT=EAC Secure Mode, Test & Copy, AccurateRip, FLAC -8" %source% -o %dest%


TOC of the extracted CD

Track | Start | Length | Start sector | End sector
––––––––––––––––––––––––––––-
1 | 0:00.00 | 6:00.00 | 0 | 26999
2 | 6:00.00 | 7:49.00 | 27000 | 62174
3 | 13:49.00 | 3:31.00 | 62175 | 77999
4 | 17:20.00 | 9:46.00 | 78000 | 121949
5 | 27:06.00 | 6:13.00 | 121950 | 149924
6 | 33:19.00 | 1:14.00 | 149925 | 155474
7 | 34:33.00 | 6:40.00 | 155475 | 185474
8 | 41:13.00 | 14:29.00 | 185475 | 250649
9 | 55:42.00 | 15:25.00 | 250650 | 320024
10 | 71:07.00 | 8:33.00 | 320025 | 358499


Track 1

Filename D:\DL\Maria Joao Pires - Complete Chamber Music (2016) [FLAC]\CD02\01 - Sonata No.8 in G major Op.30 No.3 - I.

Allegro assai.wav

Pre-gap length 0:00:02.00

Peak level 79.8 %
Extraction speed 2.4 X
Track quality 100.0 %
Test CRC DBA74E3F
Copy CRC DBA74E3F
Accurately ripped (confidence 21) [B79D9CD4] (AR v2)
Copy OK

Track 2

Filename D:\DL\Maria Joao Pires - Complete Chamber Music (2016) [FLAC]\CD02\02 - Sonata No.8 in G major Op.30 No.3 - II.

Tempo di minuetto, ma molto moderato e grazioso.wav

Peak level 79.9 %
Extraction speed 2.8 X
Track quality 100.0 %
Test CRC 65730E99
Copy CRC 65730E99
Accurately ripped (confidence 21) [549996D9] (AR v2)
Copy OK

Track 3

Filename D:\DL\Maria Joao Pires - Complete Chamber Music (2016) [FLAC]\CD02\03 - Sonata No.8 in G major Op.30 No.3 - III.

Allegro vivace.wav

Peak level 80.8 %
Extraction speed 2.8 X
Track quality 100.0 %
Test CRC E661DE97
Copy CRC E661DE97
Accurately ripped (confidence 21) [689ACDEE] (AR v2)
Copy OK

Track 4

Filename D:\DL\Maria Joao Pires - Complete Chamber Music (2016) [FLAC]\CD02\04 - Sonata No.5 in F major Op.24 ''Spring'' - I.

Allegro.wav

Pre-gap length 0:00:06.00

Peak level 88.5 %
Extraction speed 3.4 X
Track quality 100.0 %
Test CRC 6AD15296
Copy CRC 6AD15296
Accurately ripped (confidence 21) [E9B7E4D2] (AR v2)
Copy OK

Track 5

Filename D:\DL\Maria Joao Pires - Complete Chamber Music (2016) [FLAC]\CD02\05 - Sonata No.5 in F major Op.24 ''Spring'' - II.

Adagio molto espressivo.wav

Peak level 56.5 %
Extraction speed 3.5 X
Track quality 100.0 %
Test CRC 8A5D731A
Copy CRC 8A5D731A
Accurately ripped (confidence 21) [334F69A9] (AR v2)
Copy OK

Track 6

Filename D:\DL\Maria Joao Pires - Complete Chamber Music (2016) [FLAC]\CD02\06 - Sonata No.5 in F major Op.24 ''Spring'' - III.

Scherzo. Allegro molto.wav

Peak level 64.4 %
Extraction speed 1.4 X
Track quality 99.8 %
Test CRC A843CA13
Copy CRC A843CA13
Accurately ripped (confidence 22) [E91481BE] (AR v2)
Copy OK

Track 7

Filename D:\DL\Maria Joao Pires - Complete Chamber Music (2016) [FLAC]\CD02\07 - Sonata No.5 in F major Op.24 ''Spring'' - IV.

Rondo. Allegro ma non troppo.wav

Peak level 88.3 %
Extraction speed 3.8 X
Track quality 100.0 %
Test CRC 688F5EFD
Copy CRC 688F5EFD
Accurately ripped (confidence 21) [37DB838D] (AR v2)
Copy OK

Track 8

Filename D:\DL\Maria Joao Pires - Complete Chamber Music (2016) [FLAC]\CD02\08 - Sonata No.9 in A major Op.47 ''Kreutzer'' -

I. Adagio sostenuto - Presto.wav

Pre-gap length 0:00:07.00

Peak level 94.4 %
Extraction speed 4.4 X
Track quality 100.0 %
Test CRC 025CD364
Copy CRC 025CD364
Accurately ripped (confidence 21) [0710D9D6] (AR v2)
Copy OK

Track 9

Filename D:\DL\Maria Joao Pires - Complete Chamber Music (2016) [FLAC]\CD02\09 - Sonata No.9 in A major Op.47 ''Kreutzer'' -

II. Andante con variazioni .wav

Peak level 99.2 %
Extraction speed 4.8 X
Track quality 100.0 %
Test CRC 1E9DD8AA
Copy CRC 1E9DD8AA
Accurately ripped (confidence 21) [DC347A5D] (AR v2)
Copy OK

Track 10

Filename D:\DL\Maria Joao Pires - Complete Chamber Music (2016) [FLAC]\CD02\10 - Sonata No.9 in A major Op.47 ''Kreutzer'' -

III. Presto.wav

Peak level 94.1 %
Extraction speed 5.0 X
Track quality 100.0 %
Test CRC A3903EE7
Copy CRC A3903EE7
Accurately ripped (confidence 20) [FDF7962E] (AR v2)
Copy OK


All tracks accurately ripped

No errors occurred

End of status report

–– CUETools DB Plugin V2.1.6

[CTDB TOCID: 0ufJ1_V4L6LjdqQJyesM7AU752I-] found
Submit result: 0ufJ1_V4L6LjdqQJyesM7AU752I- has been confirmed
Track | CTDB Status
1 | (37/37) Accurately ripped
2 | (37/37) Accurately ripped
3 | (37/37) Accurately ripped
4 | (37/37) Accurately ripped
5 | (37/37) Accurately ripped
6 | (37/37) Accurately ripped
7 | (37/37) Accurately ripped
8 | (37/37) Accurately ripped
9 | (36/37) Accurately ripped
10 | (36/37) Accurately ripped


==== Log checksum 52A02388925E633038E03F90899BBA313B22D881A71B5CBFA4DA407E9CB51ACB ====

==================
Exact Audio Copy V1.3 from 2. September 2016

EAC extraction logfile from 18. November 2016, 21:49

Augustin Dumay & Maria Joao Pires / Beethoven Complete Violin Sonatas CD3

Used drive : ATAPI iHBS112 2 Adapter: 1 ID: 1

Read mode : Secure
Utilize accurate stream : Yes
Defeat audio cache : Yes
Make use of C2 pointers : No

Read offset correction : 6
Overread into Lead-In and Lead-Out : No
Fill up missing offset samples with silence : Yes
Delete leading and trailing silent blocks : No
Null samples used in CRC calculations : Yes
Used interface : Native Win32 interface for Win NT & 2000
Gap handling : Appended to previous track

Used output format : User Defined Encoder
Selected bitrate : 128 kBit/s
Quality : High
Add ID3 tag : No
Command line compressor : C:\Program Files (x86)\Exact Audio Copy\Flac\flac.exe
Additional command line options : -8 -V -T "ARTIST=%artist%" -T "TITLE=%title%" -T "ALBUM=%albumtitle%" -T "DATE=%year%" -T

"TRACKNUMBER=%tracknr%" -T "GENRE=%genre%" -T "PERFORMER=%albuminterpret%" -T "COMPOSER=%composer%" -T

"ALBUMARTIST=%albumartist%" -T "DISCNUMBER=%cdnumber%" -T "TOTALDISCS=%totalcds%" -T "TOTALTRACKS=%numtracks%" -T

"COMMENT=EAC Secure Mode, Test & Copy, AccurateRip, FLAC -8" %source% -o %dest%


TOC of the extracted CD

Track | Start | Length | Start sector | End sector
––––––––––––––––––––––––––––-
1 | 0:00.00 | 10:15.00 | 0 | 46124
2 | 10:15.00 | 6:03.25 | 46125 | 73374
3 | 16:18.25 | 2:04.50 | 73375 | 82724
4 | 18:23.00 | 9:05.00 | 82725 | 123599
5 | 27:28.00 | 7:22.00 | 123600 | 156749
6 | 34:50.00 | 6:36.00 | 156750 | 186449
7 | 41:26.00 | 8:41.00 | 186450 | 225524
8 | 50:07.00 | 7:31.00 | 225525 | 259349
9 | 57:38.00 | 9:00.00 | 259350 | 299849
10 | 66:38.00 | 3:23.00 | 299850 | 315074
11 | 70:01.00 | 5:06.00 | 315075 | 338024


Track 1

Filename D:\DL\Maria Joao Pires - Complete Chamber Music (2016) [FLAC]\CD03\01 - Sonata No.10 in G major Op.96 - I. Allegro

moderato.wav

Pre-gap length 0:00:02.00

Peak level 80.7 %
Extraction speed 6.7 X
Track quality 100.0 %
Test CRC C48E72A3
Copy CRC C48E72A3
Accurately ripped (confidence 22) [8DB2E0C1] (AR v2)
Copy OK

Track 2

Filename D:\DL\Maria Joao Pires - Complete Chamber Music (2016) [FLAC]\CD03\02 - Sonata No.10 in G major Op.96 - II. Adagio

espressivo.wav

Peak level 50.0 %
Extraction speed 7.4 X
Track quality 100.0 %
Test CRC 88C9FA07
Copy CRC 88C9FA07
Accurately ripped (confidence 23) [05773F4D] (AR v2)
Copy OK

Track 3

Filename D:\DL\Maria Joao Pires - Complete Chamber Music (2016) [FLAC]\CD03\03 - Sonata No.10 in G major Op.96 - III.

Scherzo. Allegro.wav

Peak level 75.6 %
Extraction speed 6.7 X
Track quality 100.0 %
Test CRC BB2E5A94
Copy CRC BB2E5A94
Accurately ripped (confidence 23) [B910802B] (AR v2)
Copy OK

Track 4

Filename D:\DL\Maria Joao Pires - Complete Chamber Music (2016) [FLAC]\CD03\04 - Sonata No.10 in G major Op.96 - IV. Poco

allegretto - Adagio espressivo - Tempo I - Allegro - Poco adagio - Presto.wav

Peak level 85.2 %
Extraction speed 8.6 X
Track quality 100.0 %
Test CRC F4B7C7E7
Copy CRC F4B7C7E7
Accurately ripped (confidence 23) [5BC3FCB3] (AR v2)
Copy OK

Track 5

Filename D:\DL\Maria Joao Pires - Complete Chamber Music (2016) [FLAC]\CD03\05 - Sonata No.6 in A major Op.30 No.1 - I.

Allegro.wav

Pre-gap length 0:00:08.00

Peak level 80.9 %
Extraction speed 9.2 X
Track quality 100.0 %
Test CRC 30C013ED
Copy CRC 30C013ED
Accurately ripped (confidence 23) [D8E2BFFA] (AR v2)
Copy OK

Track 6

Filename D:\DL\Maria Joao Pires - Complete Chamber Music (2016) [FLAC]\CD03\06 - Sonata No.6 in A major Op.30 No.1 - II.

Adagio molto espressivo.wav

Peak level 58.8 %
Extraction speed 9.7 X
Track quality 100.0 %
Test CRC A5A50E24
Copy CRC A5A50E24
Accurately ripped (confidence 21) [A3E88DCC] (AR v2)
Copy OK

Track 7

Filename D:\DL\Maria Joao Pires - Complete Chamber Music (2016) [FLAC]\CD03\07 - Sonata No.6 in A major Op.30 No.1 - III.

Allegretto con variazioni .wav

Peak level 94.1 %
Extraction speed 10.4 X
Track quality 100.0 %
Test CRC A5F6192C
Copy CRC A5F6192C
Accurately ripped (confidence 23) [A72197CD] (AR v2)
Copy OK

Track 8

Filename D:\DL\Maria Joao Pires - Complete Chamber Music (2016) [FLAC]\CD03\08 - Sonata No.7 in C minor Op.30 No.2 - I.

Allegro con brio.wav

Pre-gap length 0:00:05.74

Peak level 92.8 %
Extraction speed 10.9 X
Track quality 100.0 %
Test CRC EFAB9A1E
Copy CRC EFAB9A1E
Accurately ripped (confidence 23) [20980D27] (AR v2)
Copy OK

Track 9

Filename D:\DL\Maria Joao Pires - Complete Chamber Music (2016) [FLAC]\CD03\09 - Sonata No.7 in C minor Op.30 No.2 - II.

Adagio cantabile.wav

Peak level 75.5 %
Extraction speed 11.5 X
Track quality 100.0 %
Test CRC 86BA21B3
Copy CRC 86BA21B3
Accurately ripped (confidence 23) [F4020FEF] (AR v2)
Copy OK

Track 10

Filename D:\DL\Maria Joao Pires - Complete Chamber Music (2016) [FLAC]\CD03\10 - Sonata No.7 in C minor Op.30 No.2 - III.

Scherzo. Allegro - Trio.wav

Peak level 92.4 %
Extraction speed 10.8 X
Track quality 100.0 %
Test CRC 46123FD1
Copy CRC 46123FD1
Accurately ripped (confidence 22) [2F667F3F] (AR v2)
Copy OK

Track 11

Filename D:\DL\Maria Joao Pires - Complete Chamber Music (2016) [FLAC]\CD03\11 - Sonata No.7 in C minor Op.30 No.2 - IV.

Finale. Allegro - Presto.wav

Peak level 92.8 %
Extraction speed 11.5 X
Track quality 100.0 %
Test CRC 43631280
Copy CRC 43631280
Accurately ripped (confidence 23) [BF6A2C68] (AR v2)
Copy OK


All tracks accurately ripped

No errors occurred

End of status report

–– CUETools DB Plugin V2.1.6

[CTDB TOCID: IBq6_PGMNTc1L5l3bm1OeKSxxvY-] found
Submit result: IBq6_PGMNTc1L5l3bm1OeKSxxvY- has been confirmed
Track | CTDB Status
1 | (39/39) Accurately ripped
2 | (39/39) Accurately ripped
3 | (39/39) Accurately ripped
4 | (39/39) Accurately ripped
5 | (39/39) Accurately ripped
6 | (39/39) Accurately ripped
7 | (39/39) Accurately ripped
8 | (39/39) Accurately ripped
9 | (38/39) Accurately ripped
10 | (39/39) Accurately ripped
11 | (39/39) Accurately ripped


==== Log checksum 34036542BE7602B9729162BE1BE746BFBEA8DA269B9FD537960BDB3300DBDB4A ====

=================
Exact Audio Copy V1.3 from 2. September 2016

EAC extraction logfile from 19. November 2016, 16:37

Augustin Dumay & Maria Joao Pires / Brahms - The Violin Sonatas

Used drive : ATAPI iHBS112 2 Adapter: 1 ID: 1

Read mode : Secure
Utilize accurate stream : Yes
Defeat audio cache : Yes
Make use of C2 pointers : No

Read offset correction : 6
Overread into Lead-In and Lead-Out : No
Fill up missing offset samples with silence : Yes
Delete leading and trailing silent blocks : No
Null samples used in CRC calculations : Yes
Used interface : Native Win32 interface for Win NT & 2000
Gap handling : Appended to previous track

Used output format : User Defined Encoder
Selected bitrate : 128 kBit/s
Quality : High
Add ID3 tag : No
Command line compressor : C:\Program Files (x86)\Exact Audio Copy\Flac\flac.exe
Additional command line options : -8 -V -T "ARTIST=%artist%" -T "TITLE=%title%" -T "ALBUM=%albumtitle%" -T "DATE=%year%" -T

"TRACKNUMBER=%tracknr%" -T "GENRE=%genre%" -T "PERFORMER=%albuminterpret%" -T "COMPOSER=%composer%" -T

"ALBUMARTIST=%albumartist%" -T "DISCNUMBER=%cdnumber%" -T "TOTALDISCS=%totalcds%" -T "TOTALTRACKS=%numtracks%" -T

"COMMENT=EAC Secure Mode, Test & Copy, AccurateRip, FLAC -8" %source% -o %dest%


TOC of the extracted CD

Track | Start | Length | Start sector | End sector
––––––––––––––––––––––––––––-
1 | 0:00.33 | 10:59.00 | 33 | 49457
2 | 10:59.33 | 8:41.00 | 49458 | 88532
3 | 19:40.33 | 9:17.00 | 88533 | 130307
4 | 28:57.33 | 8:50.00 | 130308 | 170057
5 | 37:47.33 | 6:02.00 | 170058 | 197207
6 | 43:49.33 | 5:44.00 | 197208 | 223007
7 | 49:33.33 | 8:44.00 | 223008 | 262307
8 | 58:17.33 | 4:46.00 | 262308 | 283757
9 | 63:03.33 | 3:03.00 | 283758 | 297482
10 | 66:06.33 | 5:44.00 | 297483 | 323282


Track 1

Filename D:\DL\Maria Joao Pires - Complete Chamber Music (2016) [FLAC]\CD04\01 - Violin Sonata Op.78 - I. Vivace ma non

troppo.wav

Pre-gap length 0:00:02.33

Peak level 97.7 %
Extraction speed 6.3 X
Track quality 99.9 %
Test CRC 9BA27EB4
Copy CRC 9BA27EB4
Accurately ripped (confidence 7) [35D0EF4B] (AR v2)
Copy OK

Track 2

Filename D:\DL\Maria Joao Pires - Complete Chamber Music (2016) [FLAC]\CD04\02 - Violin Sonata Op.78 - II. Adagio.wav

Peak level 94.5 %
Extraction speed 7.8 X
Track quality 100.0 %
Test CRC F9C60BE5
Copy CRC F9C60BE5
Accurately ripped (confidence 7) [13384234] (AR v2)
Copy OK

Track 3

Filename D:\DL\Maria Joao Pires - Complete Chamber Music (2016) [FLAC]\CD04\03 - Violin Sonata Op.78 - III. Allegro molto

moderato.wav

Peak level 80.7 %
Extraction speed 8.7 X
Track quality 100.0 %
Test CRC D940503F
Copy CRC D940503F
Accurately ripped (confidence 7) [591CCE96] (AR v2)
Copy OK

Track 4

Filename D:\DL\Maria Joao Pires - Complete Chamber Music (2016) [FLAC]\CD04\04 - Violin Sonata Op.100 - I. Allegro

amabile.wav

Pre-gap length 0:00:05.00

Peak level 98.7 %
Extraction speed 9.5 X
Track quality 100.0 %
Test CRC 9B5B1674
Copy CRC 9B5B1674
Accurately ripped (confidence 7) [81D45E4C] (AR v2)
Copy OK

Track 5

Filename D:\DL\Maria Joao Pires - Complete Chamber Music (2016) [FLAC]\CD04\05 - Violin Sonata Op.100 - II. Andante

tranquilo - Vivace - Andante - Vivace di piu - Andante - Vivace.wav

Peak level 96.7 %
Extraction speed 9.8 X
Track quality 100.0 %
Test CRC B4DD6249
Copy CRC B4DD6249
Accurately ripped (confidence 7) [8F5FA899] (AR v2)
Copy OK

Track 6

Filename D:\DL\Maria Joao Pires - Complete Chamber Music (2016) [FLAC]\CD04\06 - Violin Sonata Op.100 - III. Allegretto

grazioso (quasi Andante).wav

Peak level 97.7 %
Extraction speed 10.2 X
Track quality 100.0 %
Test CRC 22A0D2F7
Copy CRC 22A0D2F7
Accurately ripped (confidence 7) [7350C7B3] (AR v2)
Copy OK

Track 7

Filename D:\DL\Maria Joao Pires - Complete Chamber Music (2016) [FLAC]\CD04\07 - Violin Sonata Op.108 - I. Allegro.wav

Pre-gap length 0:00:09.00

Peak level 97.7 %
Extraction speed 11.0 X
Track quality 100.0 %
Test CRC 22546537
Copy CRC 22546537
Accurately ripped (confidence 7) [5A690906] (AR v2)
Copy OK

Track 8

Filename D:\DL\Maria Joao Pires - Complete Chamber Music (2016) [FLAC]\CD04\08 - Violin Sonata Op.108 - II. Adagio.wav

Peak level 62.8 %
Extraction speed 10.9 X
Track quality 100.0 %
Test CRC C6E57977
Copy CRC C6E57977
Accurately ripped (confidence 7) [20D40C47] (AR v2)
Copy OK

Track 9

Filename D:\DL\Maria Joao Pires - Complete Chamber Music (2016) [FLAC]\CD04\09 - Violin Sonata Op.108 - III. Un poco presto e

con sentimento.wav

Peak level 85.3 %
Extraction speed 10.4 X
Track quality 100.0 %
Test CRC 0107C23A
Copy CRC 0107C23A
Accurately ripped (confidence 7) [D7D89841] (AR v2)
Copy OK

Track 10

Filename D:\DL\Maria Joao Pires - Complete Chamber Music (2016) [FLAC]\CD04\10 - Violin Sonata Op.108 - IV. Presto

agitato.wav

Peak level 97.7 %
Extraction speed 11.4 X
Track quality 100.0 %
Test CRC 1F141E54
Copy CRC 1F141E54
Accurately ripped (confidence 7) [C9E5B8B6] (AR v2)
Copy OK


All tracks accurately ripped

No errors occurred

End of status report

–– CUETools DB Plugin V2.1.6

[CTDB TOCID: d..u9kl9DyN7NeviCtAkFOY0dRc-] found
Submit result: d..u9kl9DyN7NeviCtAkFOY0dRc- has been confirmed
Track | CTDB Status
1 | (25/25) Accurately ripped
2 | (25/25) Accurately ripped
3 | (25/25) Accurately ripped
4 | (25/25) Accurately ripped
5 | (24/25) Accurately ripped, or (1/25) differs in 192 samples

@04:44:50,04:45:64,04:47:22,04:48:54,04:48:72,04:50:47,04:51:26,04:51:62,04:53:38,04:53:56,04:54:16,04:55:13-

04:55:14,04:57:06-04:57:07,05:00:50-05:00:51,05:00:68-05:00:69,05:01:29,05:02:62
6 | (25/25) Accurately ripped
7 | (25/25) Accurately ripped
8 | (25/25) Accurately ripped
9 | (25/25) Accurately ripped
10 | (23/25) Accurately ripped, or (1/25) differs in 115 samples @05:31:35,05:32:47,05:32:69,05:33:16,05:33:59-

05:33:60,05:34:50,05:37:21,05:40:14


==== Log checksum 4FAE1690EEFBCD6C7A1017E075F298E485DE07C1D99023689E93F523D1995273 ====

===================
Exact Audio Copy V1.3 from 2. September 2016

EAC extraction logfile from 19. November 2016, 17:03

Maria Joao Pires, Augustin Dumay, Jian Wang / Brahms - Piano Trios nos 1 & 2

Used drive : ATAPI iHBS112 2 Adapter: 1 ID: 1

Read mode : Secure
Utilize accurate stream : Yes
Defeat audio cache : Yes
Make use of C2 pointers : No

Read offset correction : 6
Overread into Lead-In and Lead-Out : No
Fill up missing offset samples with silence : Yes
Delete leading and trailing silent blocks : No
Null samples used in CRC calculations : Yes
Used interface : Native Win32 interface for Win NT & 2000
Gap handling : Appended to previous track

Used output format : User Defined Encoder
Selected bitrate : 128 kBit/s
Quality : High
Add ID3 tag : No
Command line compressor : C:\Program Files (x86)\Exact Audio Copy\Flac\flac.exe
Additional command line options : -8 -V -T "ARTIST=%artist%" -T "TITLE=%title%" -T "ALBUM=%albumtitle%" -T "DATE=%year%" -T

"TRACKNUMBER=%tracknr%" -T "GENRE=%genre%" -T "PERFORMER=%albuminterpret%" -T "COMPOSER=%composer%" -T

"ALBUMARTIST=%albumartist%" -T "DISCNUMBER=%cdnumber%" -T "TOTALDISCS=%totalcds%" -T "TOTALTRACKS=%numtracks%" -T

"COMMENT=EAC Secure Mode, Test & Copy, AccurateRip, FLAC -8" %source% -o %dest%


TOC of the extracted CD

Track | Start | Length | Start sector | End sector
––––––––––––––––––––––––––––-
1 | 0:00.33 | 15:13.00 | 33 | 68507
2 | 15:13.33 | 6:36.00 | 68508 | 98207
3 | 21:49.33 | 9:14.00 | 98208 | 139757
4 | 31:03.33 | 6:51.00 | 139758 | 170582
5 | 37:54.33 | 9:57.00 | 170583 | 215357
6 | 47:51.33 | 8:14.00 | 215358 | 252407
7 | 56:05.33 | 4:33.00 | 252408 | 272882
8 | 60:38.33 | 6:00.00 | 272883 | 299882


Track 1

Filename D:\DL\Maria Joao Pires - Complete Chamber Music (2016) [FLAC]\CD05\01 - Trio for Piano, Violin and Violoncello, Op. 8

- 1. Allegro con brio.wav

Pre-gap length 0:00:02.33

Peak level 99.9 %
Extraction speed 6.7 X
Track quality 99.9 %
Test CRC 0810CF58
Copy CRC 0810CF58
Accurately ripped (confidence 19) [242C9270] (AR v2)
Copy OK

Track 2

Filename D:\DL\Maria Joao Pires - Complete Chamber Music (2016) [FLAC]\CD05\02 - Trio for Piano, Violin and Violoncello, Op. 8

- 2. Scherzo. Allegro molto.wav

Peak level 70.0 %
Extraction speed 8.0 X
Track quality 100.0 %
Test CRC A4BBBE76
Copy CRC A4BBBE76
Accurately ripped (confidence 19) [0AD0676D] (AR v2)
Copy OK

Track 3

Filename D:\DL\Maria Joao Pires - Complete Chamber Music (2016) [FLAC]\CD05\03 - Trio for Piano, Violin and Violoncello, Op. 8

- 3. Adagio.wav

Peak level 74.9 %
Extraction speed 8.9 X
Track quality 100.0 %
Test CRC 722B6D17
Copy CRC 722B6D17
Accurately ripped (confidence 19) [64AC8BBC] (AR v2)
Copy OK

Track 4

Filename D:\DL\Maria Joao Pires - Complete Chamber Music (2016) [FLAC]\CD05\04 - Trio for Piano, Violin and Violoncello, Op. 8

- 4. Finale. Allegro.wav

Peak level 83.1 %
Extraction speed 8.4 X
Track quality 99.9 %
Test CRC A382A9CF
Copy CRC A382A9CF
Accurately ripped (confidence 19) [15CAF113] (AR v2)
Copy OK

Track 5

Filename D:\DL\Maria Joao Pires - Complete Chamber Music (2016) [FLAC]\CD05\05 - Trio for Piano, Violin and Violoncello, Op.

87 - 1. Allegro.wav

Pre-gap length 0:00:07.00

Peak level 83.5 %
Extraction speed 10.3 X
Track quality 100.0 %
Test CRC 38E52EBC
Copy CRC 38E52EBC
Accurately ripped (confidence 19) [9F79CB8F] (AR v2)
Copy OK

Track 6

Filename D:\DL\Maria Joao Pires - Complete Chamber Music (2016) [FLAC]\CD05\06 - Trio for Piano, Violin and Violoncello, Op.

87 - 2. Andante con moto.wav

Peak level 79.1 %
Extraction speed 9.8 X
Track quality 99.9 %
Test CRC 6FD7CB31
Copy CRC 6FD7CB31
Accurately ripped (confidence 19) [305859CF] (AR v2)
Copy OK

Track 7

Filename D:\DL\Maria Joao Pires - Complete Chamber Music (2016) [FLAC]\CD05\07 - Trio for Piano, Violin and Violoncello, Op.

87 - 3. Scherzo. Presto.wav

Peak level 74.1 %
Extraction speed 10.6 X
Track quality 100.0 %
Test CRC 15FB700B
Copy CRC 15FB700B
Accurately ripped (confidence 19) [F43206D9] (AR v2)
Copy OK

Track 8

Filename D:\DL\Maria Joao Pires - Complete Chamber Music (2016) [FLAC]\CD05\08 - Trio for Piano, Violin and Violoncello, Op.

87 - 4. Finale. Allegro giocoso.wav

Peak level 83.5 %
Extraction speed 11.2 X
Track quality 100.0 %
Test CRC 50477FE3
Copy CRC 50477FE3
Accurately ripped (confidence 19) [CA1F8B59] (AR v2)
Copy OK


All tracks accurately ripped

No errors occurred

End of status report

–– CUETools DB Plugin V2.1.6

[CTDB TOCID: FDym.l9ipkdMi.uzh1yJcFEJdkI-] found
Submit result: FDym.l9ipkdMi.uzh1yJcFEJdkI- has been confirmed
Track | CTDB Status
1 | (42/42) Accurately ripped
2 | (42/42) Accurately ripped
3 | (42/42) Accurately ripped
4 | (42/42) Accurately ripped
5 | (42/42) Accurately ripped
6 | (40/42) Accurately ripped
7 | (42/42) Accurately ripped
8 | (41/42) Accurately ripped


==== Log checksum 0E483415D629CCD3601BAC00E45B34F2BA4419B698E45ACF6F12C6B9CD1DEC36 ====

=========
Exact Audio Copy V1.3 from 2. September 2016

EAC extraction logfile from 20. November 2016, 10:12

Augustin Dumay & Maria Joao Pires / Grieg - Violin Sonatas

Used drive : ATAPI iHBS112 2 Adapter: 1 ID: 1

Read mode : Secure
Utilize accurate stream : Yes
Defeat audio cache : Yes
Make use of C2 pointers : No

Read offset correction : 6
Overread into Lead-In and Lead-Out : No
Fill up missing offset samples with silence : Yes
Delete leading and trailing silent blocks : No
Null samples used in CRC calculations : Yes
Used interface : Native Win32 interface for Win NT & 2000
Gap handling : Appended to previous track

Used output format : User Defined Encoder
Selected bitrate : 128 kBit/s
Quality : High
Add ID3 tag : No
Command line compressor : C:\Program Files (x86)\Exact Audio Copy\Flac\flac.exe
Additional command line options : -8 -V -T "ARTIST=%artist%" -T "TITLE=%title%" -T "ALBUM=%albumtitle%" -T "DATE=%year%" -T

"TRACKNUMBER=%tracknr%" -T "GENRE=%genre%" -T "PERFORMER=%albuminterpret%" -T "COMPOSER=%composer%" -T

"ALBUMARTIST=%albumartist%" -T "DISCNUMBER=%cdnumber%" -T "TOTALDISCS=%totalcds%" -T "TOTALTRACKS=%numtracks%" -T

"COMMENT=EAC Secure Mode, Test & Copy, AccurateRip, FLAC -8" %source% -o %dest%


TOC of the extracted CD

Track | Start | Length | Start sector | End sector
––––––––––––––––––––––––––––-
1 | 0:00.33 | 9:31.00 | 33 | 42857
2 | 9:31.33 | 4:45.00 | 42858 | 64232
3 | 14:16.33 | 10:05.00 | 64233 | 109607
4 | 24:21.33 | 9:40.00 | 109608 | 153107
5 | 34:01.33 | 6:29.00 | 153108 | 182282
6 | 40:30.33 | 5:41.00 | 182283 | 207857
7 | 46:11.33 | 9:27.00 | 207858 | 250382
8 | 55:38.33 | 6:28.00 | 250383 | 279482
9 | 62:06.33 | 7:55.40 | 279483 | 315147


Track 1

Filename D:\DL\Maria Joao Pires - Complete Chamber Music (2016) [FLAC]\CD06\01 - Sonata in F major, Op. 8 - I. Allegro con

brio.wav

Pre-gap length 0:00:02.33

Peak level 100.0 %
Extraction speed 6.6 X
Track quality 100.0 %
Test CRC 2D55D82D
Copy CRC 2D55D82D
Accurately ripped (confidence 2) [67705A23] (AR v2)
Copy OK

Track 2

Filename D:\DL\Maria Joao Pires - Complete Chamber Music (2016) [FLAC]\CD06\02 - Sonata in F major, Op. 8 - II. Allegretto

quasi Andantino - Piu vivo - Tempo I.wav

Peak level 92.1 %
Extraction speed 7.1 X
Track quality 100.0 %
Test CRC D5D5988F
Copy CRC D5D5988F
Accurately ripped (confidence 2) [48EF9561] (AR v2)
Copy OK

Track 3

Filename D:\DL\Maria Joao Pires - Complete Chamber Music (2016) [FLAC]\CD06\03 - Sonata in F major, Op. 8 - III. Allegro molto

vivace.wav

Peak level 100.0 %
Extraction speed 8.3 X
Track quality 100.0 %
Test CRC ABDE29BE
Copy CRC ABDE29BE
Accurately ripped (confidence 2) [D2E70182] (AR v2)
Copy OK

Track 4

Filename D:\DL\Maria Joao Pires - Complete Chamber Music (2016) [FLAC]\CD06\04 - Sonata in G major, Op. 13 - I. Lento

doloroso - Poco allegro - Allegro vivace.wav

Pre-gap length 0:00:06.00

Peak level 99.0 %
Extraction speed 8.5 X
Track quality 99.9 %
Test CRC A7CC6E46
Copy CRC A7CC6E46
Accurately ripped (confidence 2) [34A76E99] (AR v2)
Copy OK

Track 5

Filename D:\DL\Maria Joao Pires - Complete Chamber Music (2016) [FLAC]\CD06\05 - Sonata in G major, Op. 13 - II. Allegretto

tranquillo.wav

Peak level 87.4 %
Extraction speed 9.6 X
Track quality 100.0 %
Test CRC 8AC488B0
Copy CRC 8AC488B0
Accurately ripped (confidence 2) [5428F006] (AR v2)
Copy OK

Track 6

Filename D:\DL\Maria Joao Pires - Complete Chamber Music (2016) [FLAC]\CD06\06 - Sonata in G major, Op. 13 - III. Allegro

animato.wav

Peak level 100.0 %
Extraction speed 9.9 X
Track quality 100.0 %
Test CRC 684809AE
Copy CRC 684809AE
Accurately ripped (confidence 2) [0100E1B1] (AR v2)
Copy OK

Track 7

Filename D:\DL\Maria Joao Pires - Complete Chamber Music (2016) [FLAC]\CD06\07 - Sonata in C minor, Op. 45 - I. Allegro molto

ed appassionato.wav

Pre-gap length 0:00:08.00

Peak level 93.7 %
Extraction speed 10.9 X
Track quality 100.0 %
Test CRC C45B9C9A
Copy CRC C45B9C9A
Accurately ripped (confidence 2) [EAD2474A] (AR v2)
Copy OK

Track 8

Filename D:\DL\Maria Joao Pires - Complete Chamber Music (2016) [FLAC]\CD06\08 - Sonata in C minor, Op. 45 - II. Allegretto

espressivo alla Romanza - Allegro molto - Tempo I.wav

Peak level 68.5 %
Extraction speed 11.1 X
Track quality 100.0 %
Test CRC 6E1EA9EB
Copy CRC 6E1EA9EB
Accurately ripped (confidence 2) [7E20EA97] (AR v2)
Copy OK

Track 9

Filename D:\DL\Maria Joao Pires - Complete Chamber Music (2016) [FLAC]\CD06\09 - Sonata in C minor, Op. 45 - III. Allegro

animato.wav

Peak level 94.2 %
Extraction speed 11.7 X
Track quality 100.0 %
Test CRC 798F32B6
Copy CRC 798F32B6
Accurately ripped (confidence 2) [F10CCB45] (AR v2)
Copy OK


All tracks accurately ripped

No errors occurred

End of status report

–– CUETools DB Plugin V2.1.6

[CTDB TOCID: P4vHo0oO9fQxCa1HrYG4oBlgVZY-] found
Submit result: already submitted
Track | CTDB Status
1 | (31/34) Accurately ripped, or (1/34) differs in 488 samples @00:16:01-00:16:02
2 | (34/34) Accurately ripped
3 | (34/34) Accurately ripped
4 | (33/34) Accurately ripped, or (1/34) differs in 8 samples @01:32:02,01:33:03
5 | (33/34) Accurately ripped
6 | (32/34) Accurately ripped
7 | (34/34) Accurately ripped
8 | (33/34) Accurately ripped, or (1/34) differs in 5 samples @00:14:35
9 | (34/34) Accurately ripped


==== Log checksum 58864A56615D69FC17559285FB1542BEC9F6448AB97210DA9C7AC30063F3E7CA ====

==============
Exact Audio Copy V1.3 from 2. September 2016

EAC extraction logfile from 19. November 2016, 18:48

Maria Joao Pires, Augustin Dumay, Jian Wang / Mozart Piano Trios K496 & K502, Divertimento K254

Used drive : ATAPI iHBS112 2 Adapter: 1 ID: 1

Read mode : Secure
Utilize accurate stream : Yes
Defeat audio cache : Yes
Make use of C2 pointers : No

Read offset correction : 6
Overread into Lead-In and Lead-Out : No
Fill up missing offset samples with silence : Yes
Delete leading and trailing silent blocks : No
Null samples used in CRC calculations : Yes
Used interface : Native Win32 interface for Win NT & 2000
Gap handling : Appended to previous track

Used output format : User Defined Encoder
Selected bitrate : 128 kBit/s
Quality : High
Add ID3 tag : No
Command line compressor : C:\Program Files (x86)\Exact Audio Copy\Flac\flac.exe
Additional command line options : -8 -V -T "ARTIST=%artist%" -T "TITLE=%title%" -T "ALBUM=%albumtitle%" -T "DATE=%year%" -T

"TRACKNUMBER=%tracknr%" -T "GENRE=%genre%" -T "PERFORMER=%albuminterpret%" -T "COMPOSER=%composer%" -T

"ALBUMARTIST=%albumartist%" -T "DISCNUMBER=%cdnumber%" -T "TOTALDISCS=%totalcds%" -T "TOTALTRACKS=%numtracks%" -T

"COMMENT=EAC Secure Mode, Test & Copy, AccurateRip, FLAC -8" %source% -o %dest%


TOC of the extracted CD

Track | Start | Length | Start sector | End sector
––––––––––––––––––––––––––––-
1 | 0:00.00 | 8:07.00 | 0 | 36524
2 | 8:07.00 | 8:17.00 | 36525 | 73799
3 | 16:24.00 | 6:03.00 | 73800 | 101024
4 | 22:27.00 | 11:13.00 | 101025 | 151499
5 | 33:40.00 | 6:28.00 | 151500 | 180599
6 | 40:08.00 | 10:25.00 | 180600 | 227474
7 | 50:33.00 | 7:39.00 | 227475 | 261899
8 | 58:12.00 | 8:55.00 | 261900 | 302024
9 | 67:07.00 | 5:52.00 | 302025 | 328424


Track 1

Filename D:\DL\Maria Joao Pires - Complete Chamber Music (2016) [FLAC]\CD07\01 - Piano Trio No. 3 in B flat major, K. 502 - I.

Allegro.wav

Pre-gap length 0:00:02.00

Peak level 60.6 %
Extraction speed 5.9 X
Track quality 99.9 %
Test CRC 9767241F
Copy CRC 9767241F
Accurately ripped (confidence 5) [9DAB9BE4] (AR v2)
Copy OK

Track 2

Filename D:\DL\Maria Joao Pires - Complete Chamber Music (2016) [FLAC]\CD07\02 - Piano Trio No. 3 in B flat major, K. 502 - II.

Larghetto.wav

Peak level 68.3 %
Extraction speed 6.8 X
Track quality 99.9 %
Test CRC D103DCCA
Copy CRC D103DCCA
Accurately ripped (confidence 5) [63DC97D6] (AR v2)
Copy OK

Track 3

Filename D:\DL\Maria Joao Pires - Complete Chamber Music (2016) [FLAC]\CD07\03 - Piano Trio No. 3 in B flat major, K. 502 - III.

Allegretto.wav

Peak level 64.4 %
Extraction speed 8.0 X
Track quality 100.0 %
Test CRC 347FF73B
Copy CRC 347FF73B
Accurately ripped (confidence 5) [8C9F81D0] (AR v2)
Copy OK

Track 4

Filename D:\DL\Maria Joao Pires - Complete Chamber Music (2016) [FLAC]\CD07\04 - Piano Trio No. 2 in G major, K. 496 - I.

Allegro.wav

Pre-gap length 0:00:05.00

Peak level 84.0 %
Extraction speed 9.2 X
Track quality 100.0 %
Test CRC 243008A2
Copy CRC 243008A2
Accurately ripped (confidence 5) [8CC2C789] (AR v2)
Copy OK

Track 5

Filename D:\DL\Maria Joao Pires - Complete Chamber Music (2016) [FLAC]\CD07\05 - Piano Trio No. 2 in G major, K. 496 - II.

Andante.wav

Pre-gap length 0:00:03.00

Peak level 88.4 %
Extraction speed 9.6 X
Track quality 100.0 %
Test CRC 07F9E502
Copy CRC 07F9E502
Accurately ripped (confidence 5) [3403A54E] (AR v2)
Copy OK

Track 6

Filename D:\DL\Maria Joao Pires - Complete Chamber Music (2016) [FLAC]\CD07\06 - Piano Trio No. 2 in G major, K. 496 - III.

Thema. Allegretto - Var. I-IV - Var. V. Adagio - Var. VI.wav

Pre-gap length 0:00:02.00

Peak level 86.0 %
Extraction speed 10.5 X
Track quality 100.0 %
Test CRC C5BF0D98
Copy CRC C5BF0D98
Accurately ripped (confidence 5) [E40DBB1E] (AR v2)
Copy OK

Track 7

Filename D:\DL\Maria Joao Pires - Complete Chamber Music (2016) [FLAC]\CD07\07 - Divertimento Piano Trio No. 1 in B flat

major, K. 254 - I. Allegro Assai.wav

Pre-gap length 0:00:07.00

Peak level 83.8 %
Extraction speed 10.9 X
Track quality 100.0 %
Test CRC 06F1DED4
Copy CRC 06F1DED4
Accurately ripped (confidence 5) [315C2451] (AR v2)
Copy OK

Track 8

Filename D:\DL\Maria Joao Pires - Complete Chamber Music (2016) [FLAC]\CD07\08 - Divertimento Piano Trio No. 1 in B flat

major, K. 254 - II. Adagio.wav

Peak level 45.7 %
Extraction speed 11.5 X
Track quality 100.0 %
Test CRC D0296229
Copy CRC D0296229
Accurately ripped (confidence 5) [3BC7286D] (AR v2)
Copy OK

Track 9

Filename D:\DL\Maria Joao Pires - Complete Chamber Music (2016) [FLAC]\CD07\09 - Divertimento Piano Trio No. 1 in B flat

major, K. 254 - III. Rondeau. Tempo di Menuetto.wav

Peak level 72.6 %
Extraction speed 4.7 X
Track quality 99.7 %
Test CRC BC28C215
Copy CRC BC28C215
Accurately ripped (confidence 5) [1B53E3BB] (AR v2)
Copy OK


All tracks accurately ripped

No errors occurred

End of status report

–– CUETools DB Plugin V2.1.6

[CTDB TOCID: CfG8opFTdk4hnLKnSWTkJfcpsUQ-] found
Submit result: already submitted
Track | CTDB Status
1 | (54/54) Accurately ripped
2 | (52/54) Accurately ripped
3 | (53/54) Accurately ripped
4 | (53/54) Accurately ripped
5 | (52/54) Accurately ripped
6 | (53/54) Accurately ripped
7 | (54/54) Accurately ripped
8 | (52/54) Accurately ripped
9 | (54/54) Accurately ripped


==== Log checksum 1E4376EDF13DCCB3068241151F4FAF408E2F35F6607669343081ABC4B05F2E2F ====

==========
Exact Audio Copy V1.3 from 2. September 2016

EAC extraction logfile from 19. November 2016, 19:23

Augustin Dumay & Maria Joao Pires / Mozart - Sonatas for Piano & Violin K.301,304,378,379

Used drive : ATAPI iHBS112 2 Adapter: 1 ID: 1

Read mode : Secure
Utilize accurate stream : Yes
Defeat audio cache : Yes
Make use of C2 pointers : No

Read offset correction : 6
Overread into Lead-In and Lead-Out : No
Fill up missing offset samples with silence : Yes
Delete leading and trailing silent blocks : No
Null samples used in CRC calculations : Yes
Used interface : Native Win32 interface for Win NT & 2000
Gap handling : Appended to previous track

Used output format : User Defined Encoder
Selected bitrate : 128 kBit/s
Quality : High
Add ID3 tag : No
Command line compressor : C:\Program Files (x86)\Exact Audio Copy\Flac\flac.exe
Additional command line options : -8 -V -T "ARTIST=%artist%" -T "TITLE=%title%" -T "ALBUM=%albumtitle%" -T "DATE=%year%" -T

"TRACKNUMBER=%tracknr%" -T "GENRE=%genre%" -T "PERFORMER=%albuminterpret%" -T "COMPOSER=%composer%" -T

"ALBUMARTIST=%albumartist%" -T "DISCNUMBER=%cdnumber%" -T "TOTALDISCS=%totalcds%" -T "TOTALTRACKS=%numtracks%" -T

"COMMENT=EAC Secure Mode, Test & Copy, AccurateRip, FLAC -8" %source% -o %dest%


TOC of the extracted CD

Track | Start | Length | Start sector | End sector
––––––––––––––––––––––––––––-
1 | 0:00.32 | 11:22.00 | 32 | 51181
2 | 11:22.32 | 5:33.38 | 51182 | 76194
3 | 16:55.70 | 9:37.37 | 76195 | 119506
4 | 26:33.32 | 5:20.05 | 119507 | 143511
5 | 31:53.37 | 8:47.70 | 143512 | 183106
6 | 40:41.32 | 5:42.28 | 183107 | 208784
7 | 46:23.60 | 4:34.55 | 208785 | 229389
8 | 50:58.40 | 12:55.67 | 229390 | 287581
9 | 63:54.32 | 10:02.53 | 287582 | 332784


Track 1

Filename D:\DL\Maria Joao Pires - Complete Chamber Music (2016) [FLAC]\CD08\01 - Sonata in G major, K.301 - 1. Allegro con

spirito.wav

Pre-gap length 0:00:02.32

Peak level 89.6 %
Extraction speed 6.8 X
Track quality 100.0 %
Test CRC AA2969AB
Copy CRC AA2969AB
Accurately ripped (confidence 33) [F7A31745] (AR v2)
Copy OK

Track 2

Filename D:\DL\Maria Joao Pires - Complete Chamber Music (2016) [FLAC]\CD08\02 - Sonata in G major, K.301 - 2. Allegro.wav

Peak level 87.3 %
Extraction speed 7.3 X
Track quality 100.0 %
Test CRC E31AB818
Copy CRC E31AB818
Accurately ripped (confidence 33) [24E9628E] (AR v2)
Copy OK

Track 3

Filename D:\DL\Maria Joao Pires - Complete Chamber Music (2016) [FLAC]\CD08\03 - Sonata in E minor, K.304 - 1. Allegro.wav

Pre-gap length 0:00:09.63

Peak level 92.5 %
Extraction speed 8.6 X
Track quality 100.0 %
Test CRC DA38F409
Copy CRC DA38F409
Accurately ripped (confidence 34) [2346BC44] (AR v2)
Copy OK

Track 4

Filename D:\DL\Maria Joao Pires - Complete Chamber Music (2016) [FLAC]\CD08\04 - Sonata in E minor, K.304 - 2. Tempo di

Menuetto.wav

Peak level 84.9 %
Extraction speed 8.7 X
Track quality 100.0 %
Test CRC E3C93842
Copy CRC E3C93842
Accurately ripped (confidence 32) [0F7FEC80] (AR v2)
Copy OK

Track 5

Filename D:\DL\Maria Joao Pires - Complete Chamber Music (2016) [FLAC]\CD08\05 - Sonata in B flat major, K.378 - 1. Allegro

moderato.wav

Pre-gap length 0:00:10.35

Peak level 94.0 %
Extraction speed 9.7 X
Track quality 100.0 %
Test CRC 5ECB3191
Copy CRC 5ECB3191
Accurately ripped (confidence 33) [38981778] (AR v2)
Copy OK

Track 6

Filename D:\DL\Maria Joao Pires - Complete Chamber Music (2016) [FLAC]\CD08\06 - Sonata in B flat major, K.378 - 2. Andantino

sostenuto e cantabile.wav

Peak level 64.6 %
Extraction speed 9.9 X
Track quality 100.0 %
Test CRC 806D2A83
Copy CRC 806D2A83
Accurately ripped (confidence 33) [DDC79528] (AR v2)
Copy OK

Track 7

Filename D:\DL\Maria Joao Pires - Complete Chamber Music (2016) [FLAC]\CD08\07 - Sonata in B flat major, K.378 - 3. Rondeau.

Allegro.wav

Peak level 90.2 %
Extraction speed 10.0 X
Track quality 100.0 %
Test CRC 1C262A66
Copy CRC 1C262A66
Accurately ripped (confidence 33) [D5CEC78F] (AR v2)
Copy OK

Track 8

Filename D:\DL\Maria Joao Pires - Complete Chamber Music (2016) [FLAC]\CD08\08 - Sonata in G major, K.379 - 1. Adagio -

Allegro.wav

Pre-gap length 0:00:08.33

Peak level 93.6 %
Extraction speed 10.7 X
Track quality 99.9 %
Test CRC 71B5E670
Copy CRC 71B5E670
Accurately ripped (confidence 33) [564F47D4] (AR v2)
Copy OK

Track 9

Filename D:\DL\Maria Joao Pires - Complete Chamber Music (2016) [FLAC]\CD08\09 - Sonata in G major, K.379 - 2. Thema.

Andantino cantabile - Var. I - V - Thema. Allegretto.wav

Peak level 71.7 %
Extraction speed 5.0 X
Track quality 99.7 %
Test CRC 1D509148
Copy CRC 1D509148
Accurately ripped (confidence 34) [CB9A392E] (AR v2)
Copy OK


All tracks accurately ripped

No errors occurred

End of status report

–– CUETools DB Plugin V2.1.6

[CTDB TOCID: ErV3FLUcDyW39KU3TGOxipgMOJg-] found
Submit result: ErV3FLUcDyW39KU3TGOxipgMOJg- has been confirmed
Track | CTDB Status
1 | (23/23) Accurately ripped
2 | (23/23) Accurately ripped
3 | (23/23) Accurately ripped
4 | (23/23) Accurately ripped
5 | (23/23) Accurately ripped
6 | (23/23) Accurately ripped
7 | (23/23) Accurately ripped
8 | (23/23) Accurately ripped
9 | (23/23) Accurately ripped


==== Log checksum ED3454B4D125784B53E2822300B882BB377C9B65B78802E61AC41A35CD847C5A ====

================
Exact Audio Copy V1.3 from 2. September 2016

EAC extraction logfile from 19. November 2016, 20:35

Maria Joao Pires / Schumann Quintet, Chopin Cello Sonata

Used drive : ATAPI iHBS112 2 Adapter: 1 ID: 1

Read mode : Secure
Utilize accurate stream : Yes
Defeat audio cache : Yes
Make use of C2 pointers : No

Read offset correction : 6
Overread into Lead-In and Lead-Out : No
Fill up missing offset samples with silence : Yes
Delete leading and trailing silent blocks : No
Null samples used in CRC calculations : Yes
Used interface : Native Win32 interface for Win NT & 2000
Gap handling : Appended to previous track

Used output format : User Defined Encoder
Selected bitrate : 128 kBit/s
Quality : High
Add ID3 tag : No
Command line compressor : C:\Program Files (x86)\Exact Audio Copy\Flac\flac.exe
Additional command line options : -8 -V -T "ARTIST=%artist%" -T "TITLE=%title%" -T "ALBUM=%albumtitle%" -T "DATE=%year%" -T

"TRACKNUMBER=%tracknr%" -T "GENRE=%genre%" -T "PERFORMER=%albuminterpret%" -T "COMPOSER=%composer%" -T

"ALBUMARTIST=%albumartist%" -T "DISCNUMBER=%cdnumber%" -T "TOTALDISCS=%totalcds%" -T "TOTALTRACKS=%numtracks%" -T

"COMMENT=EAC Secure Mode, Test & Copy, AccurateRip, FLAC -8" %source% -o %dest%


TOC of the extracted CD

Track | Start | Length | Start sector | End sector
––––––––––––––––––––––––––––-
1 | 0:00.00 | 8:58.40 | 0 | 40389
2 | 8:58.40 | 9:08.00 | 40390 | 81489
3 | 18:06.40 | 4:38.00 | 81490 | 102339
4 | 22:44.40 | 7:29.35 | 102340 | 136049
5 | 30:14.00 | 17:10.72 | 136050 | 213371
6 | 47:24.72 | 5:35.12 | 213372 | 238508
7 | 53:00.09 | 3:57.07 | 238509 | 256290
8 | 56:57.16 | 7:17.59 | 256291 | 289124


Track 1

Filename D:\DL\Maria Joao Pires - Complete Chamber Music (2016) [FLAC]\CD09\01 - Quintet For Piano, Two Violins, Viola And

Violoncello In E-Flat Major Op.44. - I. Allegro Brillante.wav

Pre-gap length 0:00:02.00

Peak level 90.0 %
Extraction speed 5.9 X
Track quality 100.0 %
Test CRC 7B31753C
Copy CRC 7B31753C
Accurately ripped (confidence 2) [E0432337] (AR v2)
Copy OK

Track 2

Filename D:\DL\Maria Joao Pires - Complete Chamber Music (2016) [FLAC]\CD09\02 - Quintet For Piano, Two Violins, Viola And

Violoncello In E-Flat Major Op.44. - II. In Modo D'una Marcia. Un Poco Largamente.wav

Peak level 84.0 %
Extraction speed 7.1 X
Track quality 100.0 %
Test CRC 88DAFAD1
Copy CRC 88DAFAD1
Accurately ripped (confidence 2) [BB9D6311] (AR v2)
Copy OK

Track 3

Filename D:\DL\Maria Joao Pires - Complete Chamber Music (2016) [FLAC]\CD09\03 - Quintet For Piano, Two Violins, Viola And

Violoncello In E-Flat Major Op.44. - III. Scherzo. Molto Vivace.wav

Peak level 84.3 %
Extraction speed 7.4 X
Track quality 100.0 %
Test CRC D4551AE2
Copy CRC D4551AE2
Accurately ripped (confidence 2) [ABBC7F06] (AR v2)
Copy OK

Track 4

Filename D:\DL\Maria Joao Pires - Complete Chamber Music (2016) [FLAC]\CD09\04 - Quintet For Piano, Two Violins, Viola And

Violoncello In E-Flat Major Op.44. - IV. Allegro, Ma Non Troppo.wav

Peak level 92.5 %
Extraction speed 8.2 X
Track quality 100.0 %
Test CRC 85289549
Copy CRC 85289549
Accurately ripped (confidence 2) [E37A9514] (AR v2)
Copy OK

Track 5

Filename D:\DL\Maria Joao Pires - Complete Chamber Music (2016) [FLAC]\CD09\05 - Sonata For Violoncello And Piano In G

Minor Op.65. - I. Allegro Moderato.wav

Pre-gap length 0:00:08.00

Peak level 88.4 %
Extraction speed 9.7 X
Track quality 100.0 %
Test CRC 863AC4F7
Copy CRC 863AC4F7
Accurately ripped (confidence 2) [F5BA2965] (AR v2)
Copy OK

Track 6

Filename D:\DL\Maria Joao Pires - Complete Chamber Music (2016) [FLAC]\CD09\06 - Sonata For Violoncello And Piano In G

Minor Op.65. - II. Scherzo.wav

Peak level 61.4 %
Extraction speed 10.0 X
Track quality 100.0 %
Test CRC 845813EB
Copy CRC 845813EB
Accurately ripped (confidence 2) [1E31C243] (AR v2)
Copy OK

Track 7

Filename D:\DL\Maria Joao Pires - Complete Chamber Music (2016) [FLAC]\CD09\07 - Sonata For Violoncello And Piano In G

Minor Op.65. - III. Largo.wav

Peak level 39.1 %
Extraction speed 9.8 X
Track quality 100.0 %
Test CRC 4D01C8A5
Copy CRC 4D01C8A5
Accurately ripped (confidence 2) [4BD278D2] (AR v2)
Copy OK

Track 8

Filename D:\DL\Maria Joao Pires - Complete Chamber Music (2016) [FLAC]\CD09\08 - Sonata For Violoncello And Piano In G

Minor Op.65. - IV. Finale. Allegro.wav

Peak level 76.4 %
Extraction speed 10.8 X
Track quality 100.0 %
Test CRC DB07AB0D
Copy CRC DB07AB0D
Accurately ripped (confidence 2) [ADBEC172] (AR v2)
Copy OK


All tracks accurately ripped

No errors occurred

End of status report

–– CUETools DB Plugin V2.1.6

[CTDB TOCID: WQO0s18Ip7Y_7x9NGVU2T1CJmyA-] found
Submit result: WQO0s18Ip7Y_7x9NGVU2T1CJmyA- has been confirmed
Track | CTDB Status
1 | (3/3) Accurately ripped
2 | (3/3) Accurately ripped
3 | (3/3) Accurately ripped
4 | (3/3) Accurately ripped
5 | (3/3) Accurately ripped
6 | (3/3) Accurately ripped
7 | (3/3) Accurately ripped
8 | (3/3) Accurately ripped


==== Log checksum 30564042DF23A5DDF8A06FAFAA87B38538A917EF6BA7A7466B79711C1A009585 ====

=================
Exact Audio Copy V1.3 from 2. September 2016

EAC extraction logfile from 19. November 2016, 21:12

Maria Joao Pires, Douglas Boyd / Musik fur Oboe und Klavier

Used drive : ATAPI iHBS112 2 Adapter: 1 ID: 1

Read mode : Secure
Utilize accurate stream : Yes
Defeat audio cache : Yes
Make use of C2 pointers : No

Read offset correction : 6
Overread into Lead-In and Lead-Out : No
Fill up missing offset samples with silence : Yes
Delete leading and trailing silent blocks : No
Null samples used in CRC calculations : Yes
Used interface : Native Win32 interface for Win NT & 2000
Gap handling : Appended to previous track

Used output format : User Defined Encoder
Selected bitrate : 128 kBit/s
Quality : High
Add ID3 tag : No
Command line compressor : C:\Program Files (x86)\Exact Audio Copy\Flac\flac.exe
Additional command line options : -8 -V -T "ARTIST=%artist%" -T "TITLE=%title%" -T "ALBUM=%albumtitle%" -T "DATE=%year%" -T

"TRACKNUMBER=%tracknr%" -T "GENRE=%genre%" -T "PERFORMER=%albuminterpret%" -T "COMPOSER=%composer%" -T

"ALBUMARTIST=%albumartist%" -T "DISCNUMBER=%cdnumber%" -T "TOTALDISCS=%totalcds%" -T "TOTALTRACKS=%numtracks%" -T

"COMMENT=EAC Secure Mode, Test & Copy, AccurateRip, FLAC -8" %source% -o %dest%


TOC of the extracted CD

Track | Start | Length | Start sector | End sector
––––––––––––––––––––––––––––-
1 | 0:00.33 | 3:40.00 | 33 | 16532
2 | 3:40.33 | 4:10.00 | 16533 | 35282
3 | 7:50.33 | 4:38.00 | 35283 | 56132
4 | 12:28.33 | 4:56.25 | 56133 | 78357
5 | 17:24.58 | 4:35.50 | 78358 | 99032
6 | 22:00.33 | 3:46.50 | 99033 | 116032
7 | 25:47.08 | 3:26.25 | 116033 | 131507
8 | 29:13.33 | 4:32.00 | 131508 | 151907
9 | 33:45.33 | 3:40.00 | 151908 | 168407
10 | 37:25.33 | 3:37.37 | 168408 | 184719
11 | 41:02.70 | 2:06.38 | 184720 | 194207
12 | 43:09.33 | 2:56.00 | 194208 | 207407


Track 1

Filename D:\DL\Maria Joao Pires - Complete Chamber Music (2016) [FLAC]\CD10\01 - Drei Romanzen op. 94 - 1. Nicht

schnell.wav

Pre-gap length 0:00:02.33

Peak level 76.7 %
Extraction speed 5.0 X
Track quality 100.0 %
Test CRC FE7ECC9F
Copy CRC FE7ECC9F
Accurately ripped (confidence 2) [6518803C] (AR v2)
Copy OK

Track 2

Filename D:\DL\Maria Joao Pires - Complete Chamber Music (2016) [FLAC]\CD10\02 - Drei Romanzen op. 94 - 2. Einfach,

innig.wav

Peak level 76.5 %
Extraction speed 4.8 X
Track quality 99.9 %
Test CRC 0B082C46
Copy CRC 0B082C46
Accurately ripped (confidence 2) [727B6224] (AR v2)
Copy OK

Track 3

Filename D:\DL\Maria Joao Pires - Complete Chamber Music (2016) [FLAC]\CD10\03 - Drei Romanzen op. 94 - 3. Nicht

schnell.wav

Peak level 60.8 %
Extraction speed 6.4 X
Track quality 100.0 %
Test CRC C1918D33
Copy CRC C1918D33
Accurately ripped (confidence 2) [C3D032B8] (AR v2)
Copy OK

Track 4

Filename D:\DL\Maria Joao Pires - Complete Chamber Music (2016) [FLAC]\CD10\04 - Adagio und Allegro As-dur op. 70 - 1.

Langsam mit innigem Ausdruck.wav

Pre-gap length 0:00:10.00

Peak level 51.4 %
Extraction speed 6.9 X
Track quality 100.0 %
Test CRC DA5C1DA0
Copy CRC DA5C1DA0
Accurately ripped (confidence 2) [4DDFA698] (AR v2)
Copy OK

Track 5

Filename D:\DL\Maria Joao Pires - Complete Chamber Music (2016) [FLAC]\CD10\05 - Adagio und Allegro As-dur op. 70 - 2.

Rasch und feurig.wav

Peak level 89.0 %
Extraction speed 7.3 X
Track quality 100.0 %
Test CRC 84657479
Copy CRC 84657479
Accurately ripped (confidence 2) [190B71CC] (AR v2)
Copy OK

Track 6

Filename D:\DL\Maria Joao Pires - Complete Chamber Music (2016) [FLAC]\CD10\06 - Fantasiestucke op. 73 - 1. Zart und mit

Ausdruck.wav

Pre-gap length 0:00:10.00

Peak level 61.7 %
Extraction speed 7.5 X
Track quality 100.0 %
Test CRC E54CF3FF
Copy CRC E54CF3FF
Accurately ripped (confidence 2) [B5CD1AB5] (AR v2)
Copy OK

Track 7

Filename D:\DL\Maria Joao Pires - Complete Chamber Music (2016) [FLAC]\CD10\07 - Fantasiestucke op. 73 - 2. Lebhaft, leicht -

Coda. Nach und nach ruhiger.wav

Peak level 60.0 %
Extraction speed 7.7 X
Track quality 100.0 %
Test CRC 3790DBEC
Copy CRC 3790DBEC
Accurately ripped (confidence 2) [9824C840] (AR v2)
Copy OK

Track 8

Filename D:\DL\Maria Joao Pires - Complete Chamber Music (2016) [FLAC]\CD10\08 - Fantasiestucke op. 73 - 3. Rasch und mit

Feuer - Coda. Schneller.wav

Peak level 92.4 %
Extraction speed 8.4 X
Track quality 100.0 %
Test CRC 440B640A
Copy CRC 440B640A
Accurately ripped (confidence 2) [9D31F261] (AR v2)
Copy OK

Track 9

Filename D:\DL\Maria Joao Pires - Complete Chamber Music (2016) [FLAC]\CD10\09 - Funf Stucke im Volkston op 102 - 2.

Langsam.wav

Pre-gap length 0:00:07.00

Peak level 34.1 %
Extraction speed 8.4 X
Track quality 100.0 %
Test CRC 554FC56A
Copy CRC 554FC56A
Accurately ripped (confidence 2) [4F00EB61] (AR v2)
Copy OK

Track 10

Filename D:\DL\Maria Joao Pires - Complete Chamber Music (2016) [FLAC]\CD10\10 - Funf Stucke im Volkston op 102 - 3. Nicht

schnell, mit viel Ton spielen.wav

Peak level 94.2 %
Extraction speed 8.6 X
Track quality 100.0 %
Test CRC 2E44681F
Copy CRC 2E44681F
Accurately ripped (confidence 2) [F15B0768] (AR v2)
Copy OK

Track 11

Filename D:\DL\Maria Joao Pires - Complete Chamber Music (2016) [FLAC]\CD10\11 - Funf Stucke im Volkston op 102 - 4. Nicht

zu Rasch.wav

Peak level 89.5 %
Extraction speed 6.0 X
Track quality 99.9 %
Test CRC FAAD454D
Copy CRC FAAD454D
Accurately ripped (confidence 2) [9843349B] (AR v2)
Copy OK

Track 12

Filename D:\DL\Maria Joao Pires - Complete Chamber Music (2016) [FLAC]\CD10\12 - Kinderklavierduette op. 85 - Abendlied -

Espressivo e molto sostenuto.wav

Pre-gap length 0:00:10.00

Peak level 42.7 %
Extraction speed 8.6 X
Track quality 100.0 %
Test CRC 71AB01E9
Copy CRC 71AB01E9
Accurately ripped (confidence 2) [C46EBA68] (AR v2)
Copy OK


All tracks accurately ripped

No errors occurred

End of status report

–– CUETools DB Plugin V2.1.6

[CTDB TOCID: AIBw.0Vm59PlGoGbopNI4uq0krg-] found
Submit result: AIBw.0Vm59PlGoGbopNI4uq0krg- has been confirmed
Track | CTDB Status
1 | (11/11) Accurately ripped
2 | (11/11) Accurately ripped
3 | (11/11) Accurately ripped
4 | (11/11) Accurately ripped
5 | (11/11) Accurately ripped
6 | (11/11) Accurately ripped
7 | (11/11) Accurately ripped
8 | (11/11) Accurately ripped
9 | (11/11) Accurately ripped
10 | (11/11) Accurately ripped
11 | (11/11) Accurately ripped
12 | (11/11) Accurately ripped


==== Log checksum 6610D8268B50A8AEB15EFCAF195CC3FD42B9AC3172788C025BC30951B5C093F0 ====

=============
Exact Audio Copy V1.3 from 2. September 2016

EAC extraction logfile from 19. November 2016, 22:25

Augustin Dumay & Maria Joao Pires / Franck & Debussy Violin Sonatas. Ravel

Used drive : ATAPI iHBS112 2 Adapter: 1 ID: 1

Read mode : Secure
Utilize accurate stream : Yes
Defeat audio cache : Yes
Make use of C2 pointers : No

Read offset correction : 6
Overread into Lead-In and Lead-Out : No
Fill up missing offset samples with silence : Yes
Delete leading and trailing silent blocks : No
Null samples used in CRC calculations : Yes
Used interface : Native Win32 interface for Win NT & 2000
Gap handling : Appended to previous track

Used output format : User Defined Encoder
Selected bitrate : 128 kBit/s
Quality : High
Add ID3 tag : No
Command line compressor : C:\Program Files (x86)\Exact Audio Copy\Flac\flac.exe
Additional command line options : -8 -V -T "ARTIST=%artist%" -T "TITLE=%title%" -T "ALBUM=%albumtitle%" -T "DATE=%year%" -T

"TRACKNUMBER=%tracknr%" -T "GENRE=%genre%" -T "PERFORMER=%albuminterpret%" -T "COMPOSER=%composer%" -T

"ALBUMARTIST=%albumartist%" -T "DISCNUMBER=%cdnumber%" -T "TOTALDISCS=%totalcds%" -T "TOTALTRACKS=%numtracks%" -T

"COMMENT=EAC Secure Mode, Test & Copy, AccurateRip, FLAC -8" %source% -o %dest%


TOC of the extracted CD

Track | Start | Length | Start sector | End sector
––––––––––––––––––––––––––––-
1 | 0:00.33 | 5:47.00 | 33 | 26057
2 | 5:47.33 | 7:59.00 | 26058 | 61982
3 | 13:46.33 | 7:00.00 | 61983 | 93482
4 | 20:46.33 | 6:20.00 | 93483 | 121982
5 | 27:06.33 | 4:54.00 | 121983 | 144032
6 | 32:00.33 | 4:17.00 | 144033 | 163307
7 | 36:17.33 | 4:21.00 | 163308 | 182882
8 | 40:38.33 | 2:29.00 | 182883 | 194057
9 | 43:07.33 | 3:04.00 | 194058 | 207857
10 | 46:11.33 | 9:55.00 | 207858 | 252482


Track 1

Filename D:\DL\Maria Joao Pires - Complete Chamber Music (2016) [FLAC]\CD11\01 - Violin Sonata in A major - 1. Allegretto

moderato.wav

Pre-gap length 0:00:02.33

Peak level 73.8 %
Extraction speed 5.5 X
Track quality 100.0 %
Test CRC C0E135C0
Copy CRC C0E135C0
Accurately ripped (confidence 3) [B0FB0483] (AR v2)
Copy OK

Track 2

Filename D:\DL\Maria Joao Pires - Complete Chamber Music (2016) [FLAC]\CD11\02 - Violin Sonata in A major - 2. Allegro.wav

Peak level 99.0 %
Extraction speed 6.6 X
Track quality 100.0 %
Test CRC A39D2001
Copy CRC A39D2001
Accurately ripped (confidence 3) [7DCAC428] (AR v2)
Copy OK

Track 3

Filename D:\DL\Maria Joao Pires - Complete Chamber Music (2016) [FLAC]\CD11\03 - Violin Sonata in A major - 3. Recitativo-

Fantasia. Moderato - Molto lento.wav

Peak level 73.4 %
Extraction speed 7.3 X
Track quality 100.0 %
Test CRC 5769252A
Copy CRC 5769252A
Accurately ripped (confidence 3) [21C068E8] (AR v2)
Copy OK

Track 4

Filename D:\DL\Maria Joao Pires - Complete Chamber Music (2016) [FLAC]\CD11\04 - Violin Sonata in A major - 4. Allegrretto

poco mosso.wav

Peak level 79.4 %
Extraction speed 8.0 X
Track quality 100.0 %
Test CRC 02927777
Copy CRC 02927777
Accurately ripped (confidence 3) [E5E1883D] (AR v2)
Copy OK

Track 5

Filename D:\DL\Maria Joao Pires - Complete Chamber Music (2016) [FLAC]\CD11\05 - Violin Sonata in G minor - 1. Allegro

vivo.wav

Pre-gap length 0:00:10.00

Peak level 88.9 %
Extraction speed 8.1 X
Track quality 100.0 %
Test CRC BF24EFFA
Copy CRC BF24EFFA
Accurately ripped (confidence 3) [BA519566] (AR v2)
Copy OK

Track 6

Filename D:\DL\Maria Joao Pires - Complete Chamber Music (2016) [FLAC]\CD11\06 - Violin Sonata in G minor - 2. Intermede.

Fantasque et Leger.wav

Peak level 92.3 %
Extraction speed 8.4 X
Track quality 100.0 %
Test CRC E4BED0C1
Copy CRC E4BED0C1
Accurately ripped (confidence 3) [A058CCF6] (AR v2)
Copy OK

Track 7

Filename D:\DL\Maria Joao Pires - Complete Chamber Music (2016) [FLAC]\CD11\07 - Violin Sonata in G minor - 3. Finale. Tres

anime.wav

Peak level 89.5 %
Extraction speed 8.8 X
Track quality 100.0 %
Test CRC 0A5E7E53
Copy CRC 0A5E7E53
Accurately ripped (confidence 3) [AFBCD68B] (AR v2)
Copy OK

Track 8

Filename D:\DL\Maria Joao Pires - Complete Chamber Music (2016) [FLAC]\CD11\08 - Berceuse sur le nom de Gabriel Faure.wav

Pre-gap length 0:00:10.00

Peak level 18.0 %
Extraction speed 8.3 X
Track quality 100.0 %
Test CRC 66DCB89C
Copy CRC 66DCB89C
Accurately ripped (confidence 3) [44108536] (AR v2)
Copy OK

Track 9

Filename D:\DL\Maria Joao Pires - Complete Chamber Music (2016) [FLAC]\CD11\09 - Piece en forme de habanera.wav

Pre-gap length 0:00:06.00

Peak level 43.5 %
Extraction speed 8.8 X
Track quality 100.0 %
Test CRC 1B550329
Copy CRC 1B550329
Accurately ripped (confidence 3) [14429861] (AR v2)
Copy OK

Track 10

Filename D:\DL\Maria Joao Pires - Complete Chamber Music (2016) [FLAC]\CD11\10 - Tzigane.wav

Pre-gap length 0:00:08.00

Peak level 74.1 %
Extraction speed 10.3 X
Track quality 100.0 %
Test CRC 4AB7825B
Copy CRC 4AB7825B
Accurately ripped (confidence 3) [A9DDE7C0] (AR v2)
Copy OK


All tracks accurately ripped

No errors occurred

End of status report

–– CUETools DB Plugin V2.1.6

[CTDB TOCID: RSaKIEUq1DIyXRciaUCxZb1qRtA-] found
Submit result: RSaKIEUq1DIyXRciaUCxZb1qRtA- has been confirmed
Track | CTDB Status
1 | (28/28) Accurately ripped
2 | (28/28) Accurately ripped
3 | (28/28) Accurately ripped
4 | (27/28) Accurately ripped
5 | (27/28) Accurately ripped
6 | (28/28) Accurately ripped
7 | (27/28) Accurately ripped
8 | (28/28) Accurately ripped
9 | (28/28) Accurately ripped
10 | (27/28) Accurately ripped


==== Log checksum B7BDF2B3A8E9ABAEF8632D027748E0CE400F37F02628640368ED08243547C116 ====

===========
Exact Audio Copy V1.3 from 2. September 2016

EAC extraction logfile from 19. November 2016, 23:08

Antonio Meneses & Maria Joao Pires / The Wigmore Hall Recital

Used drive : ATAPI iHBS112 2 Adapter: 1 ID: 1

Read mode : Secure
Utilize accurate stream : Yes
Defeat audio cache : Yes
Make use of C2 pointers : No

Read offset correction : 6
Overread into Lead-In and Lead-Out : No
Fill up missing offset samples with silence : Yes
Delete leading and trailing silent blocks : No
Null samples used in CRC calculations : Yes
Used interface : Native Win32 interface for Win NT & 2000
Gap handling : Appended to previous track

Used output format : User Defined Encoder
Selected bitrate : 128 kBit/s
Quality : High
Add ID3 tag : No
Command line compressor : C:\Program Files (x86)\Exact Audio Copy\Flac\flac.exe
Additional command line options : -8 -V -T "ARTIST=%artist%" -T "TITLE=%title%" -T "ALBUM=%albumtitle%" -T "DATE=%year%" -T

"TRACKNUMBER=%tracknr%" -T "GENRE=%genre%" -T "PERFORMER=%albuminterpret%" -T "COMPOSER=%composer%" -T

"ALBUMARTIST=%albumartist%" -T "DISCNUMBER=%cdnumber%" -T "TOTALDISCS=%totalcds%" -T "TOTALTRACKS=%numtracks%" -T

"COMMENT=EAC Secure Mode, Test & Copy, AccurateRip, FLAC -8" %source% -o %dest%


TOC of the extracted CD

Track | Start | Length | Start sector | End sector
––––––––––––––––––––––––––––-
1 | 0:00.00 | 11:35.63 | 0 | 52187
2 | 11:35.63 | 4:29.04 | 52188 | 72366
3 | 16:04.67 | 8:58.09 | 72367 | 112725
4 | 25:03.01 | 5:06.17 | 112726 | 135692
5 | 30:09.18 | 4:55.69 | 135693 | 157886
6 | 35:05.12 | 5:50.35 | 157887 | 184171
7 | 40:55.47 | 4:18.30 | 184172 | 203551
8 | 45:14.02 | 14:37.60 | 203552 | 269386
9 | 59:51.62 | 5:37.70 | 269387 | 294731
10 | 65:29.57 | 7:08.17 | 294732 | 326848
11 | 72:37.74 | 3:56.15 | 326849 | 344563


Track 1

Filename D:\DL\Maria Joao Pires - Complete Chamber Music (2016) [FLAC]\CD12\01 - Arpeggione Sonata - I. Allegro

moderato.wav

Pre-gap length 0:00:02.00

Peak level 78.6 %
Extraction speed 6.3 X
Track quality 99.9 %
Test CRC CA9988BC
Copy CRC CA9988BC
Accurately ripped (confidence 35) [23F9FDB6] (AR v2)
Copy OK

Track 2

Filename D:\DL\Maria Joao Pires - Complete Chamber Music (2016) [FLAC]\CD12\02 - Arpeggione Sonata - II. Adagio -

attacca.wav

Peak level 54.7 %
Extraction speed 7.2 X
Track quality 100.0 %
Test CRC 24BF6021
Copy CRC 24BF6021
Accurately ripped (confidence 35) [5B0BE2E5] (AR v2)
Copy OK

Track 3

Filename D:\DL\Maria Joao Pires - Complete Chamber Music (2016) [FLAC]\CD12\03 - Arpeggione Sonata - III. Allegretto.wav

Peak level 64.1 %
Extraction speed 8.4 X
Track quality 100.0 %
Test CRC 4E4708DB
Copy CRC 4E4708DB
Accurately ripped (confidence 35) [0DD474FE] (AR v2)
Copy OK

Track 4

Filename D:\DL\Maria Joao Pires - Complete Chamber Music (2016) [FLAC]\CD12\04 - 3 Intermezzi - No.1 Andante moderato.wav

Pre-gap length 0:00:07.40

Peak level 66.1 %
Extraction speed 8.6 X
Track quality 100.0 %
Test CRC 50E4017E
Copy CRC 50E4017E
Accurately ripped (confidence 35) [4B13FFD0] (AR v2)
Copy OK

Track 5

Filename D:\DL\Maria Joao Pires - Complete Chamber Music (2016) [FLAC]\CD12\05 - 3 Intermezzi - No.2 Andante non troppo e

con molto espressione.wav

Peak level 89.9 %
Extraction speed 9.0 X
Track quality 100.0 %
Test CRC A1D25784
Copy CRC A1D25784
Accurately ripped (confidence 35) [A3321E73] (AR v2)
Copy OK

Track 6

Filename D:\DL\Maria Joao Pires - Complete Chamber Music (2016) [FLAC]\CD12\06 - 3 Intermezzi - No.3 Andante con moto.wav

Peak level 75.0 %
Extraction speed 9.6 X
Track quality 100.0 %
Test CRC 2498E101
Copy CRC 2498E101
Accurately ripped (confidence 35) [F935502B] (AR v2)
Copy OK

Track 7

Filename D:\DL\Maria Joao Pires - Complete Chamber Music (2016) [FLAC]\CD12\07 - Song without Words, Op.109.wav

Pre-gap length 0:00:09.17

Peak level 56.1 %
Extraction speed 9.7 X
Track quality 100.0 %
Test CRC 67B0B403
Copy CRC 67B0B403
Accurately ripped (confidence 35) [F5196F92] (AR v2)
Copy OK

Track 8

Filename D:\DL\Maria Joao Pires - Complete Chamber Music (2016) [FLAC]\CD12\08 - Cello Sonata No.1 - I. Allegro non

troppo.wav

Pre-gap length 0:00:05.05

Peak level 96.5 %
Extraction speed 10.5 X
Track quality 99.9 %
Test CRC 2ED404F5
Copy CRC 2ED404F5
Accurately ripped (confidence 35) [10BCAC19] (AR v2)
Copy OK

Track 9

Filename D:\DL\Maria Joao Pires - Complete Chamber Music (2016) [FLAC]\CD12\09 - Cello Sonata No.1 - II. Allegretto quasi

Menuetto - Trio.wav

Peak level 96.6 %
Extraction speed 11.2 X
Track quality 100.0 %
Test CRC B242D97E
Copy CRC B242D97E
Accurately ripped (confidence 35) [D2D53335] (AR v2)
Copy OK

Track 10

Filename D:\DL\Maria Joao Pires - Complete Chamber Music (2016) [FLAC]\CD12\10 - Cello Sonata No.1 - III. Allegro - Piu

Presto.wav

Peak level 96.9 %
Extraction speed 11.7 X
Track quality 100.0 %
Test CRC 5FA81118
Copy CRC 5FA81118
Accurately ripped (confidence 35) [54ADE7C4] (AR v2)
Copy OK

Track 11

Filename D:\DL\Maria Joao Pires - Complete Chamber Music (2016) [FLAC]\CD12\11 - Pastorale BWV 590 (arr. Roemaet-Rosanoff)

- Aria.wav

Pre-gap length 0:00:07.36

Peak level 40.0 %
Extraction speed 11.3 X
Track quality 100.0 %
Test CRC 53F540A7
Copy CRC 53F540A7
Accurately ripped (confidence 35) [952AE5F2] (AR v2)
Copy OK


All tracks accurately ripped

No errors occurred

End of status report

–– CUETools DB Plugin V2.1.6

[CTDB TOCID: 5PkLS9u1BuQcLzu6KFO45aRplZM-] found
Submit result: 5PkLS9u1BuQcLzu6KFO45aRplZM- has been confirmed
Track | CTDB Status
1 | (27/27) Accurately ripped
2 | (27/27) Accurately ripped
3 | (27/27) Accurately ripped
4 | (27/27) Accurately ripped
5 | (27/27) Accurately ripped
6 | (27/27) Accurately ripped
7 | (27/27) Accurately ripped
8 | (27/27) Accurately ripped
9 | (27/27) Accurately ripped
10 | (27/27) Accurately ripped
11 | (27/27) Accurately ripped


==== Log checksum 0F71E04B55D8FA80FDEB0C79980C4B0564D67797906F6B192109E96CEB73E60A ====