Subcategories

Lenny Breau & Brad Terry - The Complete Living Room Tapes (2003) {Art Of Life AL1004-2 rec 1978-84}

Posted By: ruskaval
Lenny Breau & Brad Terry - The Complete Living Room Tapes (2003) {Art Of Life AL1004-2 rec 1978-84}

Lenny Breau & Brad Terry - The Complete Living Room Tapes (2003) {Art Of Life AL1004-2 rec 1978-84}
EAC rip (secure mode) | FLAC (tracks)+CUE+LOG -> 579 Mb | MP3 @320 -> 335 Mb
Full Artwork @ 300 dpi (jpg) -> 22 Mb | 5% repair rar
© 1978-84, 2003 Art Of Life Records | AL1004-2
Jazz / Modern Jazz / Post Bop / Guitar / Flute

Guitarist Lenny Breau's short life (1941-1984) is a movie waiting to be made. Before his still unsolved murder, he was able to bring a new voice to the guitar by adapting country fingerpicking technique to the intricacies of modern jazz. A Breau hallmark was his highly developed ability to play bass, chords and single notes concurrently - in effect having a trio in his right hand.

The newly re-released Complete Living Room Tapes, with clarinetist Brad Terry, is a 2-CD close look at Breau in peak form, circa 1979. It contains four new bonus tracks and presents a comprehensive picture of his influences and virtuosity. Though Breau was largely unappreciated by the general public, unreliable at times due to a drug problem, and unable to carve out his own musical niche, a listen to this intimate live portrait lends credence to guitarist Chet Atkins' claim that Breau was "the greatest guitarist in the world." Recorded over several visits to Brad Terry's Maine farmhouse, these are home or small club recordings, with, for the most part, excellent sound quality.

Breau modestly describes his new 7-string guitar by saying, "I never played this in public before…It’s got a high A string on it. It’s fishing line," and then rips off blazing country fingerpicking on "The Claw." The works of several jazz pianists restated for guitar are especially captivating. Bill Evans' "Remembering the Rain" features an arpeggio of raindrops falling through a lovely background of chord voicings. McCoy Tyner's "Visions" is gracefully translated through the use of harmonics and Errol Garner is uncannily reprised on "It Could Happen to You".

It is almost trivial to compare Breau to other jazz guitarists, in that calling him a "jazz" guitarist is somewhat of a misnomer. As Breau amazes as an innovator and master of disparate styles, genre becomes irrelevant. He is shown to be at home, country fingerpicking on "Cannonball Rag" and "Nine Pound Hammer," playing flamenco on "Flamenco" and "Send in the Clowns," and interpreting the jazz standards "How High the Moon" and "Stella by Starlight."

The pairing of Brad Terry's warm clarinet with Breau's expert playing makes for a surprisingly full sound. Terry appears on about half of the cuts and plays off Breau's guitar with grace. He makes the somewhat odd pairing of electric guitar and clarinet sound as if the two should always be featured together. The players seem immensely comfortable with each other; this is especially evident on "Emily" and both versions of "Autumn Leaves." When Terry's clarinet takes the lead, as on "Indiana," Breau plays the role of rhythm section, allowing Terry to showcase his own impressive improvisational abilities. There are also some very personal and amusing moments that feature an imitation of "Johnny Cash Sings Jazz?" and "Lenny's Radio," a trip down the radio dial courtesy of Breau's guitar. A guitarist in the truest sense, Lenny Breau utilizes an unqualified understanding of the range and dynamics of his instrument on The Complete Living Room Tapes.
Lenny Breau & Brad Terry - The Complete Living Room Tapes (2003) {Art Of Life AL1004-2 rec 1978-84}


Personnel:
Lenny Breau - Guitar (Acoustic), Guitar (Electric), Vocals
Brad Terry - Clarinet, Whistle (Human), Producer, Engineer, Liner Notes

tracklist:
CD1

01 - Blues For Carole
02 - How High The Moon
03 - You Needed Me
04 - The Claw
05 - Secret Love
06 - Sweet Georgia Brown
07 - My Foolish Heart
08 - I Fall In Love Too Easily
09 - Send In The Clowns
10 - Nine Pound Hammer
11 - Cannonball Rag
12 - Flamenco
13 - It Could Happen To You

Lenny Breau & Brad Terry - The Complete Living Room Tapes (2003) {Art Of Life AL1004-2 rec 1978-84}


CD2
01 - Visions
02 - Remembering The Rain
03 - Autumn Leaves
04 - Indiana
05 - Stella By Starlight
06 - Emily
07 - My Funny Valentine
08 - Autumn Leaves
09 - Johnny Cash Sings Jazz
10 - Lenny's Radio

Lenny Breau & Brad Terry - The Complete Living Room Tapes (2003) {Art Of Life AL1004-2 rec 1978-84}


Exact Audio Copy V1.1 from 23. June 2015

EAC extraction logfile from 30. September 2016, 9:18

Lenny Breau–Brad Terry / The Complete Living Room Tapes (Disc 1)

Used drive : MATSHITADVD+-RW SW830 Adapter: 1 ID: 0

Read mode : Secure
Utilize accurate stream : Yes
Defeat audio cache : Yes
Make use of C2 pointers : No

Read offset correction : 6
Overread into Lead-In and Lead-Out : No
Fill up missing offset samples with silence : Yes
Delete leading and trailing silent blocks : No
Null samples used in CRC calculations : Yes
Used interface : Native Win32 interface for Win NT & 2000
Gap handling : Appended to previous track

Used output format : User Defined Encoder
Selected bitrate : 128 kBit/s
Quality : High
Add ID3 tag : No
Command line compressor : C:\Program Files (x86)\Exact Audio Copy\Flac\flac.exe
Additional command line options : -8 -V -T "ARTIST=%artist%" -T "TITLE=%title%" -T "ALBUM=%albumtitle%" -T "DATE=%year%" -T "TRACKNUMBER=%tracknr%" -T "TOTALTRACKS=%numtracks%" -T "GENRE=%genre%" -T "ALBUMARTIST=%albumartist%" -T "ALBUM ARTIST=%albumartist%" -T "COMMENT=EAC Secure Mode, Test & Copy, AccurateRip, FLAC -8" %source%


TOC of the extracted CD

Track | Start | Length | Start sector | End sector
––––––––––––––––––––––––––––-
1 | 0:00.00 | 9:06.07 | 0 | 40956
2 | 9:06.07 | 7:45.73 | 40957 | 75904
3 | 16:52.05 | 5:07.21 | 75905 | 98950
4 | 21:59.26 | 3:22.46 | 98951 | 114146
5 | 25:21.72 | 7:49.51 | 114147 | 149372
6 | 33:11.48 | 6:24.21 | 149373 | 178193
7 | 39:35.69 | 5:35.24 | 178194 | 203342
8 | 45:11.18 | 5:10.54 | 203343 | 226646
9 | 50:21.72 | 3:54.63 | 226647 | 244259
10 | 54:16.60 | 2:35.23 | 244260 | 255907
11 | 56:52.08 | 1:31.13 | 255908 | 262745
12 | 58:23.21 | 5:15.50 | 262746 | 286420
13 | 63:38.71 | 7:34.69 | 286421 | 320539


Track 1

Filename G:\New Rips\Lenny Breau–Brad Terry - The Complete Living Room Tapes (Disc 1) (2003) [FLAC]\disc 1of2\01 - Blues For Carole.wav

Pre-gap length 0:00:02.00

Peak level 97.9 %
Extraction speed 2.0 X
Track quality 99.9 %
Test CRC 598D6CB4
Copy CRC 598D6CB4
Cannot be verified as accurate (confidence 2) [95F2D82C], AccurateRip returned [6D76E17A] (AR v2)
Copy OK

Track 2

Filename G:\New Rips\Lenny Breau–Brad Terry - The Complete Living Room Tapes (Disc 1) (2003) [FLAC]\disc 1of2\02 - How High The Moon.wav

Pre-gap length 0:00:02.41

Peak level 98.5 %
Extraction speed 2.7 X
Track quality 100.0 %
Test CRC 9DED33F5
Copy CRC 9DED33F5
Cannot be verified as accurate (confidence 2) [71DEF247], AccurateRip returned [2A376824] (AR v2)
Copy OK

Track 3

Filename G:\New Rips\Lenny Breau–Brad Terry - The Complete Living Room Tapes (Disc 1) (2003) [FLAC]\disc 1of2\03 - You Needed Me.wav

Pre-gap length 0:00:02.42

Peak level 98.2 %
Extraction speed 2.8 X
Track quality 100.0 %
Test CRC 4B917502
Copy CRC 4B917502
Cannot be verified as accurate (confidence 2) [0834BA7F], AccurateRip returned [A8EB618C] (AR v2)
Copy OK

Track 4

Filename G:\New Rips\Lenny Breau–Brad Terry - The Complete Living Room Tapes (Disc 1) (2003) [FLAC]\disc 1of2\04 - The Claw.wav

Pre-gap length 0:00:02.34

Peak level 97.2 %
Extraction speed 2.8 X
Track quality 100.0 %
Test CRC 84886A20
Copy CRC 84886A20
Cannot be verified as accurate (confidence 2) [17271E30], AccurateRip returned [72143EFA] (AR v2)
Copy OK

Track 5

Filename G:\New Rips\Lenny Breau–Brad Terry - The Complete Living Room Tapes (Disc 1) (2003) [FLAC]\disc 1of2\05 - Secret Love.wav

Pre-gap length 0:00:02.42

Peak level 98.1 %
Extraction speed 3.3 X
Track quality 100.0 %
Test CRC C87F7631
Copy CRC C87F7631
Cannot be verified as accurate (confidence 2) [E78CABE4], AccurateRip returned [19251C3E] (AR v2)
Copy OK

Track 6

Filename G:\New Rips\Lenny Breau–Brad Terry - The Complete Living Room Tapes (Disc 1) (2003) [FLAC]\disc 1of2\06 - Sweet Georgia Brown.wav

Pre-gap length 0:00:02.41

Peak level 97.6 %
Extraction speed 3.5 X
Track quality 100.0 %
Test CRC 434B6B2D
Copy CRC 434B6B2D
Cannot be verified as accurate (confidence 2) [A2D47A99], AccurateRip returned [804DC046] (AR v2)
Copy OK

Track 7

Filename G:\New Rips\Lenny Breau–Brad Terry - The Complete Living Room Tapes (Disc 1) (2003) [FLAC]\disc 1of2\07 - My Foolish Heart.wav

Pre-gap length 0:00:02.42

Peak level 97.3 %
Extraction speed 2.9 X
Track quality 99.9 %
Test CRC E094B0F9
Copy CRC E094B0F9
Cannot be verified as accurate (confidence 2) [D4F001FA], AccurateRip returned [9815B31F] (AR v2)
Copy OK

Track 8

Filename G:\New Rips\Lenny Breau–Brad Terry - The Complete Living Room Tapes (Disc 1) (2003) [FLAC]\disc 1of2\08 - I Fall In Love Too Easily.wav

Pre-gap length 0:00:02.47

Peak level 96.8 %
Extraction speed 3.0 X
Track quality 99.9 %
Test CRC CACE16BB
Copy CRC CACE16BB
Cannot be verified as accurate (confidence 2) [5F78B1A7], AccurateRip returned [2CF5A5C9] (AR v2)
Copy OK

Track 9

Filename G:\New Rips\Lenny Breau–Brad Terry - The Complete Living Room Tapes (Disc 1) (2003) [FLAC]\disc 1of2\09 - Send In The Clowns.wav

Pre-gap length 0:00:02.59

Peak level 97.2 %
Extraction speed 3.7 X
Track quality 100.0 %
Test CRC B69F9030
Copy CRC B69F9030
Cannot be verified as accurate (confidence 2) [6C3C59FD], AccurateRip returned [3E7086A7] (AR v2)
Copy OK

Track 10

Filename G:\New Rips\Lenny Breau–Brad Terry - The Complete Living Room Tapes (Disc 1) (2003) [FLAC]\disc 1of2\10 - Nine Pound Hammer.wav

Pre-gap length 0:00:02.48

Peak level 97.5 %
Extraction speed 3.5 X
Track quality 100.0 %
Test CRC 40D795F0
Copy CRC 40D795F0
Cannot be verified as accurate (confidence 2) [A67A3138], AccurateRip returned [54FFE72F] (AR v2)
Copy OK

Track 11

Filename G:\New Rips\Lenny Breau–Brad Terry - The Complete Living Room Tapes (Disc 1) (2003) [FLAC]\disc 1of2\11 - Cannonball Rag.wav

Pre-gap length 0:00:02.46

Peak level 97.4 %
Extraction speed 3.1 X
Track quality 100.0 %
Test CRC 4F77CB8F
Copy CRC 4F77CB8F
Cannot be verified as accurate (confidence 2) [B376B197], AccurateRip returned [2DF3DD09] (AR v2)
Copy OK

Track 12

Filename G:\New Rips\Lenny Breau–Brad Terry - The Complete Living Room Tapes (Disc 1) (2003) [FLAC]\disc 1of2\12 - Flamenco.wav

Pre-gap length 0:00:02.42

Peak level 96.5 %
Extraction speed 4.0 X
Track quality 100.0 %
Test CRC 56EA39F7
Copy CRC 56EA39F7
Cannot be verified as accurate (confidence 2) [B160B1E8], AccurateRip returned [D07C88EA] (AR v2)
Copy OK

Track 13

Filename G:\New Rips\Lenny Breau–Brad Terry - The Complete Living Room Tapes (Disc 1) (2003) [FLAC]\disc 1of2\13 - It Could Happen To You.wav

Pre-gap length 0:00:02.31

Peak level 97.7 %
Extraction speed 4.4 X
Track quality 100.0 %
Test CRC 57CA1DA0
Copy CRC 57CA1DA0
Cannot be verified as accurate (confidence 2) [30445896], AccurateRip returned [2B9C16E9] (AR v2)
Copy OK


No tracks could be verified as accurate
You may have a different pressing from the one(s) in the database

No errors occurred

End of status report

–– CUETools DB Plugin V2.1.6

[CTDB TOCID: FEBIYoVFYMNboGZB_HVUzN3lKSQ-] found
Submit result: FEBIYoVFYMNboGZB_HVUzN3lKSQ- has been confirmed
Track | CTDB Status
1 | (3/3) Accurately ripped
2 | (3/3) Accurately ripped
3 | (3/3) Accurately ripped
4 | (3/3) Accurately ripped
5 | (3/3) Accurately ripped
6 | (3/3) Accurately ripped
7 | (3/3) Accurately ripped
8 | (3/3) Accurately ripped
9 | (3/3) Accurately ripped
10 | (3/3) Accurately ripped
11 | (3/3) Accurately ripped
12 | (3/3) Accurately ripped
13 | (3/3) Accurately ripped


==== Log checksum 8E3A13DC9BB77E79D131810313AB3315CB49D9C4D9585194C045E60069B972CA ====

Exact Audio Copy V1.1 from 23. June 2015

EAC extraction logfile from 30. September 2016, 20:48

Lenny Breau–Brad Terry / The Complete Living Room Tapes

Used drive : MATSHITADVD+-RW SW830 Adapter: 1 ID: 0

Read mode : Secure
Utilize accurate stream : Yes
Defeat audio cache : Yes
Make use of C2 pointers : No

Read offset correction : 6
Overread into Lead-In and Lead-Out : No
Fill up missing offset samples with silence : Yes
Delete leading and trailing silent blocks : No
Null samples used in CRC calculations : Yes
Used interface : Native Win32 interface for Win NT & 2000
Gap handling : Appended to previous track

Used output format : User Defined Encoder
Selected bitrate : 128 kBit/s
Quality : High
Add ID3 tag : No
Command line compressor : C:\Program Files (x86)\Exact Audio Copy\Flac\flac.exe
Additional command line options : -8 -V -T "ARTIST=%artist%" -T "TITLE=%title%" -T "ALBUM=%albumtitle%" -T "DATE=%year%" -T "TRACKNUMBER=%tracknr%" -T "TOTALTRACKS=%numtracks%" -T "GENRE=%genre%" -T "ALBUMARTIST=%albumartist%" -T "ALBUM ARTIST=%albumartist%" -T "COMMENT=EAC Secure Mode, Test & Copy, AccurateRip, FLAC -8" %source%


TOC of the extracted CD

Track | Start | Length | Start sector | End sector
––––––––––––––––––––––––––––-
1 | 0:00.00 | 6:11.02 | 0 | 27826
2 | 6:11.02 | 6:27.45 | 27827 | 56896
3 | 12:38.47 | 7:28.26 | 56897 | 90522
4 | 20:06.73 | 6:08.72 | 90523 | 118194
5 | 26:15.70 | 7:14.65 | 118195 | 150809
6 | 33:30.60 | 8:17.14 | 150810 | 188098
7 | 41:47.74 | 8:56.24 | 188099 | 228322
8 | 50:44.23 | 18:01.16 | 228323 | 309413
9 | 68:45.39 | 1:30.63 | 309414 | 316226
10 | 70:16.27 | 3:08.32 | 316227 | 330358


Track 1

Filename G:\New Rips\Lenny Breau–Brad Terry - The Complete Living Room Tapes (2003) [FLAC]\disc 2of2\01 - Visions.wav

Pre-gap length 0:00:02.00

Peak level 97.4 %
Extraction speed 4.2 X
Track quality 100.0 %
Test CRC 3765DFFA
Copy CRC 3765DFFA
Cannot be verified as accurate (confidence 2) [DD334679], AccurateRip returned [F5E275AB] (AR v2)
Copy OK

Track 2

Filename G:\New Rips\Lenny Breau–Brad Terry - The Complete Living Room Tapes (2003) [FLAC]\disc 2of2\02 - Remembering The Rain.wav

Pre-gap length 0:00:02.38

Peak level 97.4 %
Extraction speed 4.8 X
Track quality 100.0 %
Test CRC EC24C085
Copy CRC EC24C085
Cannot be verified as accurate (confidence 2) [8411EEED], AccurateRip returned [A3CD7E8E] (AR v2)
Copy OK

Track 3

Filename G:\New Rips\Lenny Breau–Brad Terry - The Complete Living Room Tapes (2003) [FLAC]\disc 2of2\03 - Autumn Leaves.wav

Pre-gap length 0:00:02.39

Peak level 97.0 %
Extraction speed 5.4 X
Track quality 100.0 %
Test CRC A7A49BC5
Copy CRC A7A49BC5
Cannot be verified as accurate (confidence 2) [8DDF5AD2], AccurateRip returned [B4779288] (AR v2)
Copy OK

Track 4

Filename G:\New Rips\Lenny Breau–Brad Terry - The Complete Living Room Tapes (2003) [FLAC]\disc 2of2\04 - Indiana.wav

Pre-gap length 0:00:02.49

Peak level 97.0 %
Extraction speed 5.8 X
Track quality 100.0 %
Test CRC 672C8C2A
Copy CRC 672C8C2A
Accurately ripped (confidence 1) [ED81FBA8] (AR v1)
Copy OK

Track 5

Filename G:\New Rips\Lenny Breau–Brad Terry - The Complete Living Room Tapes (2003) [FLAC]\disc 2of2\05 - Stella By Starlight.wav

Pre-gap length 0:00:02.33

Peak level 97.4 %
Extraction speed 6.3 X
Track quality 100.0 %
Test CRC ACC16BF7
Copy CRC ACC16BF7
Accurately ripped (confidence 1) [7AD83D65] (AR v1)
Copy OK

Track 6

Filename G:\New Rips\Lenny Breau–Brad Terry - The Complete Living Room Tapes (2003) [FLAC]\disc 2of2\06 - Emily.wav

Pre-gap length 0:00:02.43

Peak level 97.5 %
Extraction speed 6.8 X
Track quality 100.0 %
Test CRC 4D31FD61
Copy CRC 4D31FD61
Accurately ripped (confidence 1) [BF0F7F1E] (AR v1)
Copy OK

Track 7

Filename G:\New Rips\Lenny Breau–Brad Terry - The Complete Living Room Tapes (2003) [FLAC]\disc 2of2\07 - My Funny Valentine.wav

Pre-gap length 0:00:02.55

Peak level 96.6 %
Extraction speed 7.4 X
Track quality 100.0 %
Test CRC F004B8D6
Copy CRC F004B8D6
Cannot be verified as accurate (confidence 2) [7B2F0C29], AccurateRip returned [61CCE389] (AR v2)
Copy OK

Track 8

Filename G:\New Rips\Lenny Breau–Brad Terry - The Complete Living Room Tapes (2003) [FLAC]\disc 2of2\08 - Autumn Leaves.wav

Pre-gap length 0:00:02.50

Peak level 97.3 %
Extraction speed 8.3 X
Track quality 100.0 %
Test CRC 21FD88AE
Copy CRC 21FD88AE
Cannot be verified as accurate (confidence 2) [A2EF038B], AccurateRip returned [64095A98] (AR v2)
Copy OK

Track 9

Filename G:\New Rips\Lenny Breau–Brad Terry - The Complete Living Room Tapes (2003) [FLAC]\disc 2of2\09 - Johnny Cash Sings Jazz.wav

Pre-gap length 0:00:02.46

Peak level 95.8 %
Extraction speed 6.2 X
Track quality 100.0 %
Test CRC 166CD56C
Copy CRC 166CD56C
Cannot be verified as accurate (confidence 2) [B1382A91], AccurateRip returned [92C31320] (AR v2)
Copy OK

Track 10

Filename G:\New Rips\Lenny Breau–Brad Terry - The Complete Living Room Tapes (2003) [FLAC]\disc 2of2\10 - Lenny's Radio.wav

Pre-gap length 0:00:02.43

Peak level 95.8 %
Extraction speed 7.6 X
Track quality 100.0 %
Test CRC 9E33B5FE
Copy CRC 9E33B5FE
Cannot be verified as accurate (confidence 2) [3C2699C0], AccurateRip returned [CF932BCF] (AR v2)
Copy OK


3 track(s) accurately ripped
7 track(s) could not be verified as accurate

Some tracks could not be verified as accurate

No errors occurred

End of status report

–– CUETools DB Plugin V2.1.6

[CTDB TOCID: PaqOQx.oufbqop4fSv9BabCoipE-] found
Submit result: PaqOQx.oufbqop4fSv9BabCoipE- has been confirmed
Track | CTDB Status
1 | (2/2) Accurately ripped
2 | (2/2) Accurately ripped
3 | (2/2) Accurately ripped
4 | (2/2) Accurately ripped
5 | (2/2) Accurately ripped
6 | (2/2) Accurately ripped
7 | (2/2) Accurately ripped
8 | (2/2) Accurately ripped
9 | (2/2) Accurately ripped
10 | (2/2) Accurately ripped


==== Log checksum E1C9298D51CE701FABCF3A03A1C82B1A0B89AC6FBCB3BF2E565177B16A1D1961 ====


Lenny Breau & Brad Terry - The Complete Living Room Tapes (2003) {Art Of Life AL1004-2 rec 1978-84}



===