V.A. - La legende de la chanson (10CD, 2010)

Posted By: Speedyclick
V.A. - La legende de la chanson (10CD, 2010)

V.A. - La legende de la chanson (10CD, 2010)
EAC Rip | FLAC (image & cue & log) & mp3 @ 320 kbps | tracks: 178 | Scans | 8:33:45 | ~ 1,73 Gb & 1,11 Gb
Label: Membran Music | 5% recovery record | Original masters | Chanson francaise

From the Membran Music label, a collection of rare french songs by 10 legendary Chansonniers. The songs are remastered original recordings and all the collection is a wonderful collector's item. Enjoy Gilbert Becaud, Yves Montand, Edith Piaf, Charles Aznavour, Georges Brassens, Henri Salvador, Juliette Greco, Tino Rossi, Jacques Brel and Fernandel in 178 authentic "chansons".

TRACKLIST

CD01: Gilbert Becaud - Je t'appartiens (44:41 | ~ 204 Mb & 104 Mb)
01. Je t'appartiens
02. Alors…raconte…
03. Le marchand de ballons
04. Toi l'oiseau
05. Berceuse pour Gaya
06. Mon ami m'a trahi
07. T'as raison mon ami
08. Passe ton chemin
09. Dis-moi qui je suis
10. Laissez faire, laissez dire
11. Terre nouvelle
12. Que toi
13. Les tambours et l'amour
14. Je veux te dire adieu
15. Marianne de ma jeunesse
16. Les enfants oublies

Exact Audio Copy V0.99 prebeta 5 from 4. May 2009

Отчёт EAC об извлечении, выполненном 18. июля 2009, 11:24

Gilbert Becaud / CD1 - Je t'appartiens

Дисковод: Optiarc DVD RW AD-7561S Adapter: 2 ID: 0

Режим чтения : Достоверность
Использование точного потока : Да
Отключение кэша аудио : Да
Использование указателей C2 : Нет

Коррекция смещения при чтении : 6
Способность читать области Lead-in и Lead-out : Нет
Заполнение пропущенных сэмплов тишиной : Да
Удаление блоков с тишиной в начале и конце : Нет
При вычислениях CRC использовались нулевые сэмплы : Да
Интерфейс : Встроенный Win32-интерфейс для Win NT/2000

Выходной формат : Пользовательский кодировщик
Выбранный битрейт : 768 kBit/s
Качество : Высокий
Добавление ID3-тэга : Нет
Утилита сжатия : C:\Program Files\Exact Audio Copy\FLAC\FLAC.EXE
Дополнительные параметры : -6 -V -T "ARTIST=%a" -T "TITLE=%t" -T "ALBUM=%g" -T "DATE=%y" -T "TRACKNUMBER=%n" -T "GENRE=%m" -T "COMMENT=%e" %s -o %d


TOC извлечённого CD

Трек | Старт | Длительность | Начальный сектор | Конечный сектор
––––––––––––––––––––––––––––––––––-
1 | 0:00.00 | 2:52.63 | 0 | 12962
2 | 2:52.63 | 4:13.63 | 12963 | 32000
3 | 7:06.51 | 2:24.30 | 32001 | 42830
4 | 9:31.06 | 2:40.45 | 42831 | 54875
5 | 12:11.51 | 2:33.03 | 54876 | 66353
6 | 14:44.54 | 3:05.33 | 66354 | 80261
7 | 17:50.12 | 2:33.57 | 80262 | 91793
8 | 20:23.69 | 3:06.12 | 91794 | 105755
9 | 23:30.06 | 1:53.33 | 105756 | 114263
10 | 25:23.39 | 2:31.45 | 114264 | 125633
11 | 27:55.09 | 2:10.70 | 125634 | 135453
12 | 30:06.04 | 3:10.36 | 135454 | 149739
13 | 33:16.40 | 1:53.60 | 149740 | 158274
14 | 35:10.25 | 3:00.30 | 158275 | 171804
15 | 38:10.55 | 3:06.12 | 171805 | 185766
16 | 41:16.67 | 3:24.36 | 185767 | 201102


Характеристики диапазона извлечения и сообщения об ошибках

Выбранный диапазон

Имя файла F:\MUSIC\La legende de la Chanson (10CD)\Gilbert Becaud - CD1 - Je t'appartiens.wav

Пиковый уровень 93.6 %
Качество диапазона 99.9 %
CRC теста 56BCE868
CRC копии 56BCE868
Копирование… OK

Ошибок не произошло

Конец отчёта

CD02: Yves Montand - Mon pot' le gitan (1:02:40 | ~ 167 Mb & 128 Mb)
01. Mon pot' le gitan
02. La goulante du pauvre jean
03. Le galerien
04. Rue Saint-Vincent (Rose blanche)
05. Clopin Clopant
06. La ballade de Paris
07. Le dormeur du val
08. Compagnons des mauvais jours
09. Rue d'Belleville
10. J'aime T'embrasser
11. Je soussigne
12. Premiers pas
13. Donne mois des sous
14. Tournesol
15. Le chef d'orchestre est amoureux
16. Maitre Pieree
17. Vel' d'Hiv
18. Faubourg Saint-Martin
19. La tete a l'ombre
20. Le musicien

Exact Audio Copy V0.99 prebeta 5 from 4. May 2009

Отчёт EAC об извлечении, выполненном 18. июля 2009, 12:29

Yves Montand / CD2 - Mon pot' le gitan

Дисковод: Optiarc DVD RW AD-7561S Adapter: 2 ID: 0

Режим чтения : Достоверность
Использование точного потока : Да
Отключение кэша аудио : Да
Использование указателей C2 : Нет

Коррекция смещения при чтении : 6
Способность читать области Lead-in и Lead-out : Нет
Заполнение пропущенных сэмплов тишиной : Да
Удаление блоков с тишиной в начале и конце : Нет
При вычислениях CRC использовались нулевые сэмплы : Да
Интерфейс : Встроенный Win32-интерфейс для Win NT/2000

Выходной формат : Пользовательский кодировщик
Выбранный битрейт : 768 kBit/s
Качество : Высокий
Добавление ID3-тэга : Нет
Утилита сжатия : C:\Program Files\Exact Audio Copy\FLAC\FLAC.EXE
Дополнительные параметры : -6 -V -T "ARTIST=%a" -T "TITLE=%t" -T "ALBUM=%g" -T "DATE=%y" -T "TRACKNUMBER=%n" -T "GENRE=%m" -T "COMMENT=%e" %s -o %d


TOC извлечённого CD

Трек | Старт | Длительность | Начальный сектор | Конечный сектор
––––––––––––––––––––––––––––––––––-
1 | 0:00.00 | 2:46.55 | 0 | 12504
2 | 2:46.55 | 2:26.70 | 12505 | 23524
3 | 5:13.50 | 2:53.70 | 23525 | 36569
4 | 8:07.45 | 3:24.08 | 36570 | 51877
5 | 11:31.53 | 3:18.21 | 51878 | 66748
6 | 14:49.74 | 3:25.54 | 66749 | 82177
7 | 18:15.53 | 2:53.23 | 82178 | 95175
8 | 21:09.01 | 2:55.37 | 95176 | 108337
9 | 24:04.38 | 2:43.55 | 108338 | 120617
10 | 26:48.18 | 3:36.65 | 120618 | 136882
11 | 30:25.08 | 2:51.40 | 136883 | 149747
12 | 33:16.48 | 3:01.03 | 149748 | 163325
13 | 36:17.51 | 2:43.65 | 163326 | 175615
14 | 39:01.41 | 2:23.44 | 175616 | 186384
15 | 41:25.10 | 5:03.05 | 186385 | 209114
16 | 46:28.15 | 3:12.06 | 209115 | 223520
17 | 49:40.21 | 3:01.67 | 223521 | 237162
18 | 52:42.13 | 3:31.32 | 237163 | 253019
19 | 56:13.45 | 3:17.73 | 253020 | 267867
20 | 59:31.43 | 3:08.68 | 267868 | 282035


Характеристики диапазона извлечения и сообщения об ошибках

Выбранный диапазон

Имя файла F:\MUSIC\La legende de la Chanson (10CD)\CD2\Yves Montand - CD2 - Mon pot' le gitan.wav

Пиковый уровень 100.0 %
Качество диапазона 100.0 %
CRC теста 33BB2A5A
CRC копии 33BB2A5A
Копирование… OK

Ошибок не произошло

Конец отчёта

CD03: Edith Piaf - La Vie en Rose (1:07:40 | ~ 258 Mb & 156 Mb)
01. La Vie En Rose
02. L'Hymne A L'Amour
03. Padam Padam
04. Plus Bleu Que Tes Yeux
05. Jezebel
06. Monsieur Saint Pierre
07. Les Trois Cloches
08. Mon Legionnaire
09. Bal Dans Ma Rue
10. Elle Frequentait La Rue Pigalle
11. Le Fanion De La Legion
12. Mariage
13. Dans Les Prisons De Nantes
14. Notre Dame De Paris
15. A L'Enseigne De La Fille Sans Coeur
16. L'Accordeoniste
17. Mon Amant De La Coloniale
18. Sous Le Ciel De Paris
19. Le Petit Monsieur Triste
20. C'Est D'La Faute A Tes Yeux

Exact Audio Copy V0.99 prebeta 5 from 4. May 2009

Отчёт EAC об извлечении, выполненном 18. июля 2009, 13:06

Edith Piaf / CD3 - La Vie en Rose

Дисковод: Optiarc DVD RW AD-7561S Adapter: 2 ID: 0

Режим чтения : Достоверность
Использование точного потока : Да
Отключение кэша аудио : Да
Использование указателей C2 : Нет

Коррекция смещения при чтении : 6
Способность читать области Lead-in и Lead-out : Нет
Заполнение пропущенных сэмплов тишиной : Да
Удаление блоков с тишиной в начале и конце : Нет
При вычислениях CRC использовались нулевые сэмплы : Да
Интерфейс : Встроенный Win32-интерфейс для Win NT/2000

Выходной формат : Пользовательский кодировщик
Выбранный битрейт : 768 kBit/s
Качество : Высокий
Добавление ID3-тэга : Нет
Утилита сжатия : C:\Program Files\Exact Audio Copy\FLAC\FLAC.EXE
Дополнительные параметры : -6 -V -T "ARTIST=%a" -T "TITLE=%t" -T "ALBUM=%g" -T "DATE=%y" -T "TRACKNUMBER=%n" -T "GENRE=%m" -T "COMMENT=%e" %s -o %d


TOC извлечённого CD

Трек | Старт | Длительность | Начальный сектор | Конечный сектор
––––––––––––––––––––––––––––––––––-
1 | 0:00.00 | 3:07.28 | 0 | 14052
2 | 3:07.28 | 3:28.01 | 14053 | 29653
3 | 6:35.29 | 3:17.70 | 29654 | 44498
4 | 9:53.24 | 3:12.60 | 44499 | 58958
5 | 13:06.09 | 3:07.26 | 58959 | 73009
6 | 16:13.35 | 4:28.59 | 73010 | 93168
7 | 20:42.19 | 4:09.25 | 93169 | 111868
8 | 24:51.44 | 3:29.27 | 111869 | 127570
9 | 28:20.71 | 2:58.32 | 127571 | 140952
10 | 31:19.28 | 3:32.17 | 140953 | 156869
11 | 34:51.45 | 3:26.16 | 156870 | 172335
12 | 38:17.61 | 4:26.22 | 172336 | 192307
13 | 42:44.08 | 2:31.01 | 192308 | 203633
14 | 45:15.09 | 3:05.12 | 203634 | 217520
15 | 48:20.21 | 3:26.59 | 217521 | 233029
16 | 51:47.05 | 3:10.12 | 233030 | 247291
17 | 54:57.17 | 3:12.43 | 247292 | 261734
18 | 58:09.60 | 3:24.41 | 261735 | 277075
19 | 61:34.26 | 2:48.15 | 277076 | 289690
20 | 64:22.41 | 3:17.56 | 289691 | 304521


Характеристики диапазона извлечения и сообщения об ошибках

Выбранный диапазон

Имя файла F:\MUSIC\La legende de la Chanson (10CD)\CD3\Edith Piaf - CD3 - La Vie en Rose.wav

Пиковый уровень 100.0 %
Качество диапазона 100.0 %
CRC теста 3892691E
CRC копии 3892691E
Копирование… OK

Ошибок не произошло

Конец отчёта

CD04: Charles Aznavour - Moi j'fais mon rond (52:11 | ~ 145 Mb & 105 Mb)
01. Moi j'fais mon rond
02. Viens au creux de mon ιpaule
03. La bagarre
04. Viens
05. Rentre chez toi et pleure
06. Parce que
07. Je t'aime comme ca
08. Le chercheurs d'or
09. Monsieur Jonas
10. Quelque part dans la nuit
11. L'emigrant
12. Heureux avec des riens
13. Toi
14. Je voudrais
15. Ca
16. A t'regarder
17. Je veux te dire adieu
18. Ah

Exact Audio Copy V0.99 prebeta 5 from 4. May 2009

Отчёт EAC об извлечении, выполненном 18. июля 2009, 13:34

Charles Aznavour / CD4 - Moi j'fais mon rond

Дисковод: Optiarc DVD RW AD-7561S Adapter: 2 ID: 0

Режим чтения : Достоверность
Использование точного потока : Да
Отключение кэша аудио : Да
Использование указателей C2 : Нет

Коррекция смещения при чтении : 6
Способность читать области Lead-in и Lead-out : Нет
Заполнение пропущенных сэмплов тишиной : Да
Удаление блоков с тишиной в начале и конце : Нет
При вычислениях CRC использовались нулевые сэмплы : Да
Интерфейс : Встроенный Win32-интерфейс для Win NT/2000

Выходной формат : Пользовательский кодировщик
Выбранный битрейт : 768 kBit/s
Качество : Высокий
Добавление ID3-тэга : Нет
Утилита сжатия : C:\Program Files\Exact Audio Copy\FLAC\FLAC.EXE
Дополнительные параметры : -6 -V -T "ARTIST=%a" -T "TITLE=%t" -T "ALBUM=%g" -T "DATE=%y" -T "TRACKNUMBER=%n" -T "GENRE=%m" -T "COMMENT=%e" %s -o %d


TOC извлечённого CD

Трек | Старт | Длительность | Начальный сектор | Конечный сектор
––––––––––––––––––––––––––––––––––-
1 | 0:00.00 | 2:46.43 | 0 | 12492
2 | 2:46.43 | 3:14.44 | 12493 | 27086
3 | 6:01.12 | 3:14.46 | 27087 | 41682
4 | 9:15.58 | 3:00.74 | 41683 | 55256
5 | 12:16.57 | 3:10.54 | 55257 | 69560
6 | 15:27.36 | 2:22.23 | 69561 | 80233
7 | 17:49.59 | 2:49.64 | 80234 | 92972
8 | 20:39.48 | 3:07.03 | 92973 | 107000
9 | 23:46.51 | 2:21.19 | 107001 | 117594
10 | 26:07.70 | 2:58.35 | 117595 | 130979
11 | 29:06.30 | 2:54.16 | 130980 | 144045
12 | 32:00.46 | 3:14.44 | 144046 | 158639
13 | 35:15.15 | 2:29.54 | 158640 | 169868
14 | 37:44.69 | 3:32.05 | 169869 | 185773
15 | 41:16.74 | 3:02.51 | 185774 | 199474
16 | 44:19.50 | 2:42.66 | 199475 | 211690
17 | 47:02.41 | 2:21.09 | 211691 | 222274
18 | 49:23.50 | 2:48.19 | 222275 | 234893


Характеристики диапазона извлечения и сообщения об ошибках

Выбранный диапазон

Имя файла F:\MUSIC\La legende de la Chanson (10CD)\CD4\Charles Aznavour - CD4 - Moi j'fais mon rond.wav

Пиковый уровень 100.0 %
Качество диапазона 100.0 %
CRC теста 036AB3F1
CRC копии 036AB3F1
Копирование… OK

Ошибок не произошло

Конец отчёта

CD05: George Brassens - La chasse aux papillons (44:59 | ~ 174 Mb & 102 Mb)
01. La chasse aux papillons
02. La mauvaise reputation
03. Le parapluie
04. Le gorille
05. Corne d'aurochs
06. Hecatombe
07. Le fossoyeur
08. Le petit cheval
09. Chanson pour l'Auvergnat
10. Une jolie fleur
11. Les sabots d'Helene
12. Gastibelza
13. La priere
14. Je suis un voyou
15. P… de toi
16. La mauvaise herbe
17. Pauvre Martin
18. La premiere fille

Exact Audio Copy V0.99 prebeta 5 from 4. May 2009

Отчёт EAC об извлечении, выполненном 18. июля 2009, 14:11

George Brassens / CD5. La chasse aux papillons

Дисковод: Optiarc DVD RW AD-7561S Adapter: 2 ID: 0

Режим чтения : Достоверность
Использование точного потока : Да
Отключение кэша аудио : Да
Использование указателей C2 : Нет

Коррекция смещения при чтении : 6
Способность читать области Lead-in и Lead-out : Нет
Заполнение пропущенных сэмплов тишиной : Да
Удаление блоков с тишиной в начале и конце : Нет
При вычислениях CRC использовались нулевые сэмплы : Да
Интерфейс : Встроенный Win32-интерфейс для Win NT/2000

Выходной формат : Пользовательский кодировщик
Выбранный битрейт : 768 kBit/s
Качество : Высокий
Добавление ID3-тэга : Нет
Утилита сжатия : C:\Program Files\Exact Audio Copy\FLAC\FLAC.EXE
Дополнительные параметры : -6 -V -T "ARTIST=%a" -T "TITLE=%t" -T "ALBUM=%g" -T "DATE=%y" -T "TRACKNUMBER=%n" -T "GENRE=%m" -T "COMMENT=%e" %s -o %d


TOC извлечённого CD

Трек | Старт | Длительность | Начальный сектор | Конечный сектор
––––––––––––––––––––––––––––––––––-
1 | 0:00.00 | 2:03.64 | 0 | 9288
2 | 2:03.64 | 2:13.09 | 9289 | 19272
3 | 4:16.73 | 2:29.68 | 19273 | 30515
4 | 6:46.66 | 3:17.32 | 30516 | 45322
5 | 10:04.23 | 2:50.66 | 45323 | 58138
6 | 12:55.14 | 1:56.58 | 58139 | 66896
7 | 14:51.72 | 2:06.29 | 66897 | 76375
8 | 16:58.26 | 2:18.54 | 76376 | 86779
9 | 19:17.05 | 3:00.73 | 86780 | 100352
10 | 22:18.03 | 2:39.55 | 100353 | 112332
11 | 24:57.58 | 2:43.49 | 112333 | 124606
12 | 27:41.32 | 2:09.06 | 124607 | 134287
13 | 29:50.38 | 3:04.41 | 134288 | 148128
14 | 32:55.04 | 2:37.46 | 148129 | 159949
15 | 35:32.50 | 2:39.74 | 159950 | 171948
16 | 38:12.49 | 2:47.03 | 171949 | 184476
17 | 40:59.52 | 1:34.60 | 184477 | 191586
18 | 42:34.37 | 2:24.39 | 191587 | 202425


Характеристики диапазона извлечения и сообщения об ошибках

Выбранный диапазон

Имя файла F:\MUSIC\La legende de la Chanson (10CD)\CD5\George Brassens - CD5. La chasse aux papillons.wav

Пиковый уровень 100.0 %
Качество диапазона 99.9 %
CRC теста 804ADE70
CRC копии 804ADE70
Копирование… OK

Ошибок не произошло

Конец отчёта

CD06: Henri Salvador - Le Loup, La Biche Et Le Chevalier (54:37 | ~ 131 Mb & 116 Mb)
01. Le Loup, La Biche Et Le Chevalier
02. Maladie D'amour
03. A Saint-Germain Des Pres
04. Clopin-Clopant
05. Parce Que Ca Me Donne Du Courage
06. Monsieur Le Bon Dieu
07. Le Petit Souper Aux Chandelles
08. 24 Heures Par Jour
09. Adieu Foulards, Adieu Madras
10. Hey Ba-Ba Re-Bop
11. Le Scaphandrier
12. Ma Doudou
13. Maria De Bahia
14. Open The Door, Richard
15. Que Si, Que No
16. Le Portrait De Tante Caroline
17. Armstrong, Duke Ellington, Cab Calloway
18. Bedelia
19. Chanson Surrealiste 'I'
20. Henri Salvador S'amuse

Exact Audio Copy V0.99 prebeta 5 from 4. May 2009

Отчёт EAC об извлечении, выполненном 18. июля 2009, 14:46

Henri Salvador / CD6 - Le Loup, La Biche Et Le Chevalier

Дисковод: Optiarc DVD RW AD-7561S Adapter: 2 ID: 0

Режим чтения : Достоверность
Использование точного потока : Да
Отключение кэша аудио : Да
Использование указателей C2 : Нет

Коррекция смещения при чтении : 6
Способность читать области Lead-in и Lead-out : Нет
Заполнение пропущенных сэмплов тишиной : Да
Удаление блоков с тишиной в начале и конце : Нет
При вычислениях CRC использовались нулевые сэмплы : Да
Интерфейс : Встроенный Win32-интерфейс для Win NT/2000

Выходной формат : Пользовательский кодировщик
Выбранный битрейт : 768 kBit/s
Качество : Высокий
Добавление ID3-тэга : Нет
Утилита сжатия : C:\Program Files\Exact Audio Copy\FLAC\FLAC.EXE
Дополнительные параметры : -6 -V -T "ARTIST=%a" -T "TITLE=%t" -T "ALBUM=%g" -T "DATE=%y" -T "TRACKNUMBER=%n" -T "GENRE=%m" -T "COMMENT=%e" %s -o %d


TOC извлечённого CD

Трек | Старт | Длительность | Начальный сектор | Конечный сектор
––––––––––––––––––––––––––––––––––-
1 | 0:00.00 | 2:26.17 | 0 | 10966
2 | 2:26.17 | 1:51.02 | 10967 | 19293
3 | 4:17.19 | 3:06.33 | 19294 | 33276
4 | 7:23.52 | 2:24.50 | 33277 | 44126
5 | 9:48.27 | 3:17.47 | 44127 | 58948
6 | 13:05.74 | 3:01.69 | 58949 | 72592
7 | 16:07.68 | 2:39.25 | 72593 | 84542
8 | 18:47.18 | 2:32.17 | 84543 | 95959
9 | 21:19.35 | 2:19.14 | 95960 | 106398
10 | 23:38.49 | 2:53.67 | 106399 | 119440
11 | 26:32.41 | 2:43.70 | 119441 | 131735
12 | 29:16.36 | 2:49.19 | 131736 | 144429
13 | 32:05.55 | 3:05.71 | 144430 | 158375
14 | 35:11.51 | 3:13.50 | 158376 | 172900
15 | 38:25.26 | 2:47.05 | 172901 | 185430
16 | 41:12.31 | 2:21.54 | 185431 | 196059
17 | 43:34.10 | 2:40.04 | 196060 | 208063
18 | 46:14.14 | 3:02.02 | 208064 | 221715
19 | 49:16.16 | 2:12.21 | 221716 | 231636
20 | 51:28.37 | 3:08.39 | 231637 | 245775


Характеристики диапазона извлечения и сообщения об ошибках

Выбранный диапазон

Имя файла F:\MUSIC\La legende de la Chanson (10CD)\CD6\Henri Salvador - CD6 - Le Loup, La Biche Et Le Chevalier.wav

Пиковый уровень 100.0 %
Качество диапазона 100.0 %
CRC теста 83E3CA24
CRC копии 83E3CA24
Копирование… OK

Ошибок не произошло

Конец отчёта

CD07: Juliette Greco - La belle vie (34:35 | ~ 101 Mb & 68 Mb)
01. La belle vie
02. Amours perdues
03. Romance
04. L'amour est parti
05. La chanson de catherine
06. Comme un enfant puni
07. Les roulottes
08. Je mens
09. Le coeur casse
10. L'ombre
11. Les croix

Exact Audio Copy V0.99 prebeta 4 from 23. January 2008

Отчёт EAC об извлечении, выполненном 5. июля 2009, 15:15

Juliette Greco / CD7 - La belle vie

Дисковод: Optiarc DVD RW AD-7170A Adapter: 0 ID: 0

Режим чтения : Достоверность
Использование точного потока : Да
Отключение кэша аудио : Да
Использование указателей C2 : Нет

Коррекция смещения при чтении : 48
Способность читать области Lead-in и Lead-out : Нет
Заполнение пропущенных сэмплов тишиной : Да
Удаление блоков с тишиной в начале и конце : Нет
При вычислениях CRC использовались нулевые сэмплы : Да
Интерфейс : Встроенный Win32-интерфейс для Win NT/2000

Выходной формат : Пользовательский кодировщик
Выбранный битрейт : 768 kBit/s
Качество : Высокий
Добавление ID3-тэга : Да
Утилита сжатия : C:\Program Files\Exact Audio Copy\Flac\flac.exe
Дополнительные параметры : -6 -V -T "ARTIST=%a" -T "TITLE=%t" -T "ALBUM=%g" -T "DATE=%y" -T "TRACKNUMBER=%n" -T "GENRE=%m" -T "COMMENT=%e" %s -o %d


TOC извлечённого CD

Трек | Старт | Длительность | Начальный сектор | Конечный сектор
––––––––––––––––––––––––––––––––––-
1 | 0:00.00 | 3:15.71 | 0 | 14695
2 | 3:15.71 | 3:20.03 | 14696 | 29698
3 | 6:35.74 | 3:22.34 | 29699 | 44882
4 | 9:58.33 | 3:22.53 | 44883 | 60085
5 | 13:21.11 | 3:20.30 | 60086 | 75115
6 | 16:41.41 | 3:22.61 | 75116 | 90326
7 | 20:04.27 | 3:00.34 | 90327 | 103860
8 | 23:04.61 | 2:32.62 | 103861 | 115322
9 | 25:37.48 | 2:44.01 | 115323 | 127623
10 | 28:21.49 | 2:45.22 | 127624 | 140020
11 | 31:06.71 | 3:28.61 | 140021 | 155681


Характеристики диапазона извлечения и сообщения об ошибках

Выбранный диапазон

Имя файла C:\Downloads\CD7. Juliette Greco - La belle vie.wav

Пиковый уровень 100.0 %
Качество диапазона 99.9 %
CRC теста 46379A21
CRC копии 46379A21
Копирование… OK

Ошибок не произошло


AccurateRip: сводка

Трек 1 нет в базе данных
Трек 2 нет в базе данных
Трек 3 нет в базе данных
Трек 4 нет в базе данных
Трек 5 нет в базе данных
Трек 6 нет в базе данных
Трек 7 нет в базе данных
Трек 8 нет в базе данных
Трек 9 нет в базе данных
Трек 10 нет в базе данных
Трек 11 нет в базе данных

Ни одного трека нет в базе AccurateRip

Конец отчёта

CD08: Tino Rossi - Plaisir D'amour (1:03:27 | ~ 271 Mb & 146 Mb)
01. Plaisir d'amour
02. Tango bleu
03. Oh! Mon Papa
04. Les roses blanches
05. Mona Lisa
06. Les feuilles mortes
07. Le temps des cerises
08. Tant de fois
09. Les enfants qui s'aiment
10. La fete des fleurs
11. Les cigarieres de Barcelone
12. Printemps a Rio
13. Sous le ciel bleu de Catari
14. Tango Mediterranee
15. Pardonne-moi
16. Coeurs solitaires
17. J'ai besoin que tu m'aimes
18. Tango magique
19. Priere Peruvienne
20. Serenade Mediterraneenne
21. Noel blanc

Exact Audio Copy V0.99 prebeta 4 from 23. January 2008

Отчёт EAC об извлечении, выполненном 5. июля 2009, 15:49

Tino Rossi / CD8 - Plaisir D'amour

Дисковод: Optiarc DVD RW AD-7170A Adapter: 0 ID: 0

Режим чтения : Достоверность
Использование точного потока : Да
Отключение кэша аудио : Да
Использование указателей C2 : Нет

Коррекция смещения при чтении : 48
Способность читать области Lead-in и Lead-out : Нет
Заполнение пропущенных сэмплов тишиной : Да
Удаление блоков с тишиной в начале и конце : Нет
При вычислениях CRC использовались нулевые сэмплы : Да
Интерфейс : Встроенный Win32-интерфейс для Win NT/2000

Выходной формат : Пользовательский кодировщик
Выбранный битрейт : 768 kBit/s
Качество : Высокий
Добавление ID3-тэга : Да
Утилита сжатия : C:\Program Files\Exact Audio Copy\Flac\flac.exe
Дополнительные параметры : -6 -V -T "ARTIST=%a" -T "TITLE=%t" -T "ALBUM=%g" -T "DATE=%y" -T "TRACKNUMBER=%n" -T "GENRE=%m" -T "COMMENT=%e" %s -o %d


TOC извлечённого CD

Трек | Старт | Длительность | Начальный сектор | Конечный сектор
––––––––––––––––––––––––––––––––––-
1 | 0:00.00 | 3:09.03 | 0 | 14177
2 | 3:09.03 | 2:39.39 | 14178 | 26141
3 | 5:48.42 | 2:58.45 | 26142 | 39536
4 | 8:47.12 | 3:51.66 | 39537 | 56927
5 | 12:39.03 | 2:52.36 | 56928 | 69863
6 | 15:31.39 | 3:04.00 | 69864 | 83663
7 | 18:35.39 | 2:59.51 | 83664 | 97139
8 | 21:35.15 | 3:26.51 | 97140 | 112640
9 | 25:01.66 | 2:35.15 | 112641 | 124280
10 | 27:37.06 | 2:48.66 | 124281 | 136946
11 | 30:25.72 | 2:23.51 | 136947 | 147722
12 | 32:49.48 | 3:10.36 | 147723 | 162008
13 | 36:00.09 | 3:19.36 | 162009 | 176969
14 | 39:19.45 | 3:09.57 | 176970 | 191201
15 | 42:29.27 | 2:55.54 | 191202 | 204380
16 | 45:25.06 | 2:44.42 | 204381 | 216722
17 | 48:09.48 | 3:15.66 | 216723 | 231413
18 | 51:25.39 | 2:18.21 | 231414 | 241784
19 | 53:43.60 | 3:15.66 | 241785 | 256475
20 | 56:59.51 | 3:04.00 | 256476 | 270275
21 | 60:03.51 | 3:23.57 | 270276 | 285557


Характеристики диапазона извлечения и сообщения об ошибках

Выбранный диапазон

Имя файла C:\Downloads\CD8. Tino Rossi - Plaisir D'amour\Tino Rossi - CD8 - Plaisir D'amour.wav

Пиковый уровень 100.0 %
Качество диапазона 99.9 %
CRC теста FBCC2E21
CRC копии FBCC2E21
Копирование… OK

Ошибок не произошло


AccurateRip: сводка

Трек 1 нет в базе данных
Трек 2 нет в базе данных
Трек 3 нет в базе данных
Трек 4 нет в базе данных
Трек 5 нет в базе данных
Трек 6 нет в базе данных
Трек 7 нет в базе данных
Трек 8 нет в базе данных
Трек 9 нет в базе данных
Трек 10 нет в базе данных
Трек 11 нет в базе данных
Трек 12 нет в базе данных
Трек 13 нет в базе данных
Трек 14 нет в базе данных
Трек 15 нет в базе данных
Трек 16 нет в базе данных
Трек 17 нет в базе данных
Трек 18 нет в базе данных
Трек 19 нет в базе данных
Трек 20 нет в базе данных
Трек 21 нет в базе данных

Ни одного трека нет в базе AccurateRip

Конец отчёта

CD09: Jacques Brel - Grandes Jacques (32:51 | ~ 125 Mb & 77 Mb)
01. Grand Jacques
02. Le diable
03. La haine
04. Le fou du roi
05. Sur la place
06. C'est comme ca
07. Il nous faut regarder
08. Les carreaux
09. Il peut pleuvoir
10. Il y a
11. La foire
12. La bastille
13. S'il te faut
14. Le diable ca va

Exact Audio Copy V0.99 prebeta 5 from 4. May 2009

Отчёт EAC об извлечении, выполненном 18. июля 2009, 15:07

Jacques Brel / CD9 - Grandes Jacques

Дисковод: Optiarc DVD RW AD-7561S Adapter: 2 ID: 0

Режим чтения : Достоверность
Использование точного потока : Да
Отключение кэша аудио : Да
Использование указателей C2 : Нет

Коррекция смещения при чтении : 6
Способность читать области Lead-in и Lead-out : Нет
Заполнение пропущенных сэмплов тишиной : Да
Удаление блоков с тишиной в начале и конце : Нет
При вычислениях CRC использовались нулевые сэмплы : Да
Интерфейс : Встроенный Win32-интерфейс для Win NT/2000

Выходной формат : Пользовательский кодировщик
Выбранный битрейт : 768 kBit/s
Качество : Высокий
Добавление ID3-тэга : Нет
Утилита сжатия : C:\Program Files\Exact Audio Copy\FLAC\FLAC.EXE
Дополнительные параметры : -6 -V -T "ARTIST=%a" -T "TITLE=%t" -T "ALBUM=%g" -T "DATE=%y" -T "TRACKNUMBER=%n" -T "GENRE=%m" -T "COMMENT=%e" %s -o %d


TOC извлечённого CD

Трек | Старт | Длительность | Начальный сектор | Конечный сектор
––––––––––––––––––––––––––––––––––-
1 | 0:00.00 | 1:49.31 | 0 | 8205
2 | 1:49.31 | 2:26.38 | 8206 | 19193
3 | 4:15.69 | 1:55.42 | 19194 | 27860
4 | 6:11.36 | 1:57.04 | 27861 | 36639
5 | 8:08.40 | 2:50.22 | 36640 | 49411
6 | 10:58.62 | 2:07.66 | 49412 | 59002
7 | 13:06.53 | 2:23.57 | 59003 | 69784
8 | 15:30.35 | 2:35.60 | 69785 | 81469
9 | 18:06.20 | 1:44.16 | 81470 | 89285
10 | 19:50.36 | 2:21.43 | 89286 | 99903
11 | 22:12.04 | 3:23.06 | 99904 | 115134
12 | 25:35.10 | 2:58.44 | 115135 | 128528
13 | 28:33.54 | 2:06.67 | 128529 | 138045
14 | 30:40.46 | 2:11.18 | 138046 | 147888


Характеристики диапазона извлечения и сообщения об ошибках

Выбранный диапазон

Имя файла F:\MUSIC\La legende de la Chanson (10CD)\CD9\Jacques Brel - CD9 - Grandes Jacques.wav

Пиковый уровень 100.0 %
Качество диапазона 100.0 %
CRC теста 43E3EEFD
CRC копии 43E3EEFD
Копирование… OK

Ошибок не произошло

Конец отчёта

CD10: Fernandel - Maintenant Je Sais (56:04 | ~ 200 Mb & 131 Mb)
01. Felicie aussi
02. Barnabe
03. On j'appelle simplet
04. Un dur un vrai un tatoue
05. C'est une voleuse d'ames
06. Ignace
07. Lequel des duex
08. Pourquoi tu me vexes
09. Redis le me
10. C'est comme ca a calcutta
11. Idylle a bois le roi
12. Je suis une petite nature
13. Maintenant je sais
14. Quelle famille
15. Ne me dis plus tu
16. J'aime toutes les femmes
17. Ernestito
18. Faut pas francine ecouter les racontar
19. Quand ca me prend
20. J'etais bien servi

Exact Audio Copy V0.99 prebeta 5 from 4. May 2009

Отчёт EAC об извлечении, выполненном 5. июля 2009, 17:19

Fernandel / CD10 - Maintenant Je Sais

Дисковод: Optiarc DVD RW AD-7561S Adapter: 2 ID: 0

Режим чтения : Достоверность
Использование точного потока : Да
Отключение кэша аудио : Да
Использование указателей C2 : Нет

Коррекция смещения при чтении : 6
Способность читать области Lead-in и Lead-out : Нет
Заполнение пропущенных сэмплов тишиной : Да
Удаление блоков с тишиной в начале и конце : Нет
При вычислениях CRC использовались нулевые сэмплы : Да
Интерфейс : Встроенный Win32-интерфейс для Win NT/2000

Выходной формат : Пользовательский кодировщик
Выбранный битрейт : 768 kBit/s
Качество : Высокий
Добавление ID3-тэга : Нет
Утилита сжатия : C:\Program Files\Exact Audio Copy\FLAC\FLAC.EXE
Дополнительные параметры : -6 -V -T "ARTIST=%a" -T "TITLE=%t" -T "ALBUM=%g" -T "DATE=%y" -T "TRACKNUMBER=%n" -T "GENRE=%m" -T "COMMENT=%e" %s -o %d


TOC извлечённого CD

Трек | Старт | Длительность | Начальный сектор | Конечный сектор
––––––––––––––––––––––––––––––––––-
1 | 0:00.00 | 2:39.58 | 0 | 11982
2 | 2:39.58 | 2:32.46 | 11983 | 23428
3 | 5:12.29 | 2:58.26 | 23429 | 36804
4 | 8:10.55 | 2:32.26 | 36805 | 48230
5 | 10:43.06 | 2:47.19 | 48231 | 60774
6 | 13:30.25 | 2:04.49 | 60775 | 70123
7 | 15:34.74 | 3:06.25 | 70124 | 84098
8 | 18:41.24 | 2:49.02 | 84099 | 96775
9 | 21:30.26 | 3:09.43 | 96776 | 110993
10 | 24:39.69 | 2:44.55 | 110994 | 123348
11 | 27:24.49 | 3:15.08 | 123349 | 137981
12 | 30:39.57 | 2:38.72 | 137982 | 149903
13 | 33:18.54 | 2:48.51 | 149904 | 162554
14 | 36:07.30 | 2:37.46 | 162555 | 174375
15 | 38:45.01 | 2:28.65 | 174376 | 185540
16 | 41:13.66 | 2:33.55 | 185541 | 197070
17 | 43:47.46 | 2:35.37 | 197071 | 208732
18 | 46:23.08 | 2:57.11 | 208733 | 222018
19 | 49:20.19 | 3:55.68 | 222019 | 239711
20 | 53:16.12 | 2:48.40 | 239712 | 252351


Характеристики диапазона извлечения и сообщения об ошибках

Выбранный диапазон

Имя файла F:\MUSIC\La legende de la Chanson (10CD)\CD10. Fernandel - Maintenant Je Sais.wav

Пиковый уровень 100.0 %
Качество диапазона 100.0 %
CRC теста 088C6013
CRC копии 088C6013
Копирование… OK

Ошибок не произошло

Конец отчёта

Credits and thanks to the initial ripper / uploader